osu file format v9

[General]
AudioFilename: kokoro edit ver..mp3
AudioLeadIn: 0
PreviewTime: -1
Countdown: 1
SampleSet: Normal
StackLeniency: 0.7
Mode: 0
LetterboxInBreaks: 1

[Editor]
DistanceSpacing: 0.8
BeatDivisor: 1
GridSize: 8

[Metadata]
Title:KoKoRo
Artist:Rin
Creator:cjpaoshen
Version:Easy
Source:
Tags:

[Difficulty]
HPDrainRate:5
CircleSize:5
OverallDifficulty:5
ApproachRate:5
SliderMultiplier:1.4
SliderTickRate:1

[Events]
//Background and Video events
0,0,"kokoro.jpg"
//Break Periods
//Storyboard Layer 0 (Background)
//Storyboard Layer 1 (Fail)
//Storyboard Layer 2 (Pass)
//Storyboard Layer 3 (Foreground)
//Storyboard Sound Samples
//Background Colour Transformations
3,100,163,162,255

[TimingPoints]
151,428.571428571429,4,1,0,100,1,0
21578,214.285714285714,4,1,0,100,1,0

[Colours]
Combo1 : 237,20,91
Combo2 : 9,225,114
Combo3 : 0,174,239
Combo4 : 244,154,193

[HitObjects]
72,120,7436,1,0
432,120,10865,1,0
432,280,14293,1,0
72,280,17722,1,0
80,88,21151,5,0
160,88,22006,1,0
416,272,22863,1,0
336,272,23720,1,0
80,112,24577,5,0
416,112,25435,1,0
416,280,26292,1,0
64,272,27149,1,0
176,80,28006,5,0
320,80,28863,1,0
328,264,29720,1,0
176,264,30577,1,0
72,104,31435,5,0
248,104,32292,1,0
432,104,33149,1,0
256,272,34006,1,0
80,104,34863,5,0
256,104,35720,1,0
440,104,36577,1,0
448,264,37435,1,0
256,272,38292,5,0
72,272,39149,1,0
72,104,40006,1,0
256,104,40863,1,0
424,104,41720,5,0
432,272,42577,1,0
256,272,43435,1,0
64,272,44292,1,0
64,96,45149,5,0
256,96,46006,1,0
448,104,46863,1,0
256,280,47720,1,0
80,80,48577,5,0
192,80,49435,5,0
312,80,50292,5,0
424,80,51149,5,0
432,272,52006,5,0
320,272,52863,5,0
192,272,53720,5,0
80,272,54577,5,0
80,80,55435,5,0
200,80,56292,5,0
312,80,57149,5,0
424,80,58006,5,0
432,272,58863,5,0
256,272,59720,5,0
56,272,60577,5,0
56,88,61435,5,0
256,88,62292,5,0
424,96,63149,5,0
424,280,64006,5,0
256,280,64863,5,0
56,280,65720,5,0
56,88,66577,5,0
256,88,67435,5,0
432,88,68292,5,0
432,272,69149,5,0
256,272,70006,5,0
64,272,70863,5,0
64,88,71720,5,0
256,88,72577,5,0
432,88,73435,5,0
432,272,74292,5,0
256,96,77720,5,0
256,256,80935,5,0
256,96,84577,5,0
256,264,88006,5,0
256,112,91435,5,0
256,280,94863,5,0
256,112,98292,5,0
256,176,101935,5,0
