osu file format v5

[General]
AudioFilename: Pie - Rin & Ren Kagamine.MP3
AudioLeadIn: 0
PreviewTime: -1
Countdown: 1
SampleSet: Soft
StackLeniency: 0.7
Mode: 0
LetterboxInBreaks: 1
EditorDistanceSpacing: 0.800000011920929

[Metadata]
Title:Pie
Artist:Rin & Ren Kagamine
Creator:kkf0706
Version:Insane
Source:
Tags:

[Difficulty]
HPDrainRate:5
CircleSize:5
OverallDifficulty:5
SliderMultiplier:1.5
SliderTickRate:2

[Events]
//Background and Video events
//Break Periods
2,24476,33619
//Storyboard Layer 0 (Background)
//Storyboard Layer 1 (Failing)
//Storyboard Layer 2 (Passing)
//Storyboard Layer 3 (Foreground)
//Storyboard Sound Samples
//Background Colour Transformations
3,100,163,162,255

[TimingPoints]
56069.5555555556,434.782608695652,4,2,0,100,1,0

[Colours]
Combo1 : 255,255,255
Combo2 : 255,255,0
Combo3 : 112,112,112
Combo4 : 255,128,0

[HitObjects]
96,64,1847,1,0
160,64,2291,1,0
224,64,2736,1,0
288,64,3180,1,0
352,64,3625,1,0
416,64,4069,1,0
416,128,4513,1,0
416,192,4958,1,0
416,256,5402,1,0
416,320,5847,5,2
352,320,6291,1,0
288,320,6736,1,0
224,320,7180,1,0
192,320,7402,1,0
160,320,7625,1,2
96,320,8098,5,0
96,288,8315,1,0
128,256,8515,1,0
128,256,8623,1,0
128,256,8736,1,0
160,256,8958,1,2
192,160,10254,5,0
192,160,10363,1,0
192,160,10471,1,0
224,128,10689,5,0
224,128,10816,1,0
224,128,10925,1,0
224,128,11033,1,0
224,128,11142,1,0
352,96,11625,1,2
384,96,11866,1,2
416,96,12084,1,2
416,128,12301,1,2
416,224,12971,5,0
416,224,13080,1,0
416,224,13189,1,0
416,224,13297,1,0
416,224,13388,1,0
384,288,13623,1,0
384,288,13732,1,0
384,288,13823,1,2
352,320,14040,1,2
352,320,14167,1,2
352,320,14276,1,2
288,320,14474,5,2
288,320,14602,1,2
288,320,14710,1,2
224,320,14928,1,0
192,320,15145,1,0
160,288,15363,1,0
128,320,15634,1,2
96,288,15852,1,2
96,256,16069,1,2
96,224,16286,1,2
128,192,16504,1,2
128,192,16613,1,2
128,192,16721,1,2
128,192,16830,1,2
128,192,16939,1,2
128,192,17047,1,2
128,192,17156,5,2
128,192,17265,1,0
128,192,17373,1,0
160,160,17591,1,2
256,192,17863,5,0
256,192,17971,1,0
256,192,18080,1,0
256,192,18189,1,0
256,192,18297,1,0
320,160,18515,5,0
320,160,18623,1,0
320,160,18732,1,0
352,160,18949,1,0
384,160,19167,1,0
384,160,19276,1,0
384,160,19385,1,0
384,160,19493,1,0
384,160,19602,1,0
416,160,19819,1,0
448,192,20036,5,0
448,192,20145,1,0
448,192,20254,1,0
480,224,20471,1,0
448,256,20743,1,0
448,256,20852,1,0
448,256,20960,1,0
448,256,21069,1,0
448,256,21178,1,2
416,288,21395,1,2
384,288,21613,5,0
384,288,21721,1,0
384,288,21830,1,0
320,288,22102,1,0
288,288,22319,1,0
256,288,22536,1,0
224,288,22754,2,2,B|96:256,1,112.5
108,259,23189,1,2
108,259,23297,1,2
108,259,23406,1,2
108,259,23515,5,0
108,259,23623,1,0
108,259,23732,1,0
108,259,23841,5,0
108,259,23949,1,0
108,259,24058,1,2
108,259,24167,1,2
108,259,24276,5,2
256,192,34819,5,2
288,192,35091,1,0
288,192,35199,1,0
320,192,35417,5,0
320,192,35526,1,0
320,192,35634,1,0
352,160,35852,5,0
352,160,35960,1,0
384,160,36178,5,0
416,160,36395,5,0
448,192,36613,5,0
448,192,36721,1,0
448,192,36830,1,0
448,192,36939,1,0
