osu file format v14

[General]
AudioFilename: abyss.mp3
AudioLeadIn: 0
PreviewTime: 45929
Countdown: 0
SampleSet: Soft
StackLeniency: 0.7
Mode: 0
LetterboxInBreaks: 0
WidescreenStoryboard: 0

[Editor]
DistanceSpacing: 1
BeatDivisor: 4
GridSize: 16
TimelineZoom: 1

[Metadata]
Title:Deep in Abyss
TitleUnicode:Deep in Abyss
Artist:Riko (CV: Tomita Miyu), Regu (CV: Mariya Ise)
ArtistUnicode:リコ(CV:富田美憂)、レグ(CV:伊瀬茉莉也)
Creator:Underforest
Version:Normal
Source:メイドインアビス
Tags:opening made in abyss meido in abisu tv size
BeatmapID:1356686
BeatmapSetID:639700

[Difficulty]
HPDrainRate:3
CircleSize:3.3
OverallDifficulty:3
ApproachRate:4
SliderMultiplier:1.1
SliderTickRate:1

[Events]
//Background and Video events
0,0,"bg.jpg",0,0
Video,-150,"video.flv"
//Break Periods
//Storyboard Layer 0 (Background)
//Storyboard Layer 1 (Fail)
//Storyboard Layer 2 (Pass)
//Storyboard Layer 3 (Foreground)
//Storyboard Sound Samples

[TimingPoints]
485,444.444444444444,4,2,1,60,1,0
485,-100,4,2,1,60,0,0
7596,-100,4,2,1,70,0,0
14707,-100,4,2,1,60,0,0
21818,-100,4,2,2,70,0,0
28929,-100,4,2,1,60,0,0
36040,-100,4,2,2,70,0,0
46707,-100,4,2,1,80,0,1
80484,-100,4,2,1,70,0,0

[Colours]
Combo1 : 113,122,240
Combo2 : 249,123,230
Combo3 : 242,214,98
Combo4 : 214,240,30
SliderTrackOverride : 30,30,30
SliderBorder : 255,255,250

[HitObjects]
114,32,485,6,0,P|63:44|136:125,1,220,4|2,0:1|0:0,0:0:0:0:
225,71,1818,1,2,0:0:0:0:
334,67,2262,2,0,B|392:91|440:66|440:66|492:122|460:182,1,220,2|2,0:0|0:0,0:0:0:0:
424,268,3596,1,0,0:0:0:0:
369,363,4040,6,0,L|144:371,1,220,4|2,0:1|0:0,0:0:0:0:
41,347,5373,1,2,0:0:0:0:
25,237,5818,2,0,B|7:129|7:129|33:15,1,220,2|2,0:0|0:0,0:0:0:0:
140,37,7151,1,2,0:0:0:0:
244,70,7596,6,0,P|295:58|366:83,1,110,4|8,0:0|0:0,0:0:0:0:
393,104,8262,1,2,0:0:0:0:
434,140,8484,2,0,L|435:266,1,110,2|10,0:0|0:0,0:0:0:0:
334,295,9373,2,0,L|333:185,1,110,2|8,0:0|0:0,0:0:0:0:
241,124,10262,2,0,P|241:102|246:54,2,55,0|0|10,0:0|0:0|0:0,0:0:0:0:
208,227,11151,6,0,P|149:242|95:219,1,110,2|10,0:0|0:0,0:0:0:0:
52,206,11818,1,2,0:0:0:0:
11,168,12040,2,0,L|21:58,1,110,2|10,0:0|0:0,0:0:0:0:
73,41,12707,1,0,0:0:0:0:
127,40,12929,2,0,P|186:25|240:48,1,110,2|10,0:0|0:0,0:0:0:0:
319,106,13818,2,0,P|370:122|422:106,1,110,2|0,0:0|0:0,0:0:0:0:
458,210,14707,6,0,L|449:332,2,110,4|2|2,0:0|0:0|0:0,0:0:0:0:
373,139,16040,1,0,0:0:0:0:
331,240,16484,2,0,L|217:249,1,110,2|2,0:0|0:0,0:0:0:0:
166,248,17151,1,0,0:0:0:0:
166,248,17373,2,0,P|132:202|122:142,1,110,2|2,0:0|0:0,0:0:0:0:
69,54,18262,6,0,P|122:45|185:59,1,110,2|0,0:0|0:0,0:0:0:0:
272,109,19151,2,0,P|325:119|379:110,1,110,2|2,0:0|0:0,0:0:0:0:
434,109,19818,2,0,L|428:242,1,110,2|2,0:0|0:0,0:0:0:0:
451,268,20484,1,2,0:0:0:0:
451,268,20707,2,0,P|395:252|329:277,1,110,6|2,0:0|0:0,0:0:0:0:
317,311,21373,1,2,0:0:0:0:
210,289,21818,6,0,L|83:276,1,110,6|10,0:0|0:0,0:0:0:0:
75,171,22707,2,0,L|184:182,1,110,2|8,0:0|0:0,0:0:0:0:
239,185,23373,1,2,0:0:0:0:
293,179,23596,2,0,P|292:129|325:77,1,110,2|10,0:0|0:0,0:0:0:0:
427,113,24484,2,0,P|428:163|395:215,1,110,2|10,0:0|0:0,0:0:0:0:
368,259,25151,1,0,0:0:0:0:
334,302,25373,5,2,0:0:0:0:
225,319,25818,2,0,P|159:333|104:320,1,110,10|2,0:0|0:0,0:0:0:0:
69,299,26484,1,2,0:0:0:0:
42,192,26929,2,0,P|49:134|77:90,1,110,2|2,0:0|0:0,0:0:0:0:
129,79,27596,1,8,0:0:0:0:
183,69,27818,2,0,B|228:47|228:47|359:66,1,165,6|2,0:0|0:0,0:0:0:0:
416,144,28929,6,0,P|454:157|497:169,2,82.5,2|2|2,0:0|0:0|0:0,0:0:0:0:
387,191,29818,2,0,P|392:221|399:272,2,82.5,2|2|2,0:0|0:0|0:0,0:0:0:0:
332,189,30707,2,0,P|290:196|216:229,1,110,2|2,0:0|0:0,0:0:0:0:
203,328,31595,1,2,0:0:0:0:
94,306,32040,1,2,0:0:0:0:
114,197,32484,6,0,P|67:180|34:147,2,82.5,2|2|2,0:0|0:0|0:0,0:0:0:0:
167,210,33373,1,0,0:0:0:0:
221,114,33818,1,2,0:0:0:0:
326,145,34262,2,0,P|390:183|402:276,1,165,2|2,0:0|0:0,0:0:0:0:
378,315,35151,2,0,L|269:331,1,110,2|2,0:0|0:0,0:0:0:0:
162,300,36040,6,0,P|111:314|61:292,1,110,6|8,0:0|0:0,0:0:0:0:
58,236,36707,1,0,0:0:0:0:
64,181,36929,2,0,P|115:167|165:189,1,110,2|8,0:0|0:0,0:0:0:0:
269,220,37818,2,0,L|286:105,1,110,2|10,0:0|0:0,0:0:0:0:
296,57,38484,2,0,P|335:84|450:55,1,165,2|10,0:0|0:0,0:0:0:0:
485,163,39596,6,0,B|504:234|456:262|487:332,1,165,4|0,0:0|0:0,0:0:0:0:
444,362,40484,2,0,L|333:369,1,110,2|0,0:0|0:0,0:0:0:0:
224,359,41373,1,4,0:0:0:0:
116,334,41818,2,0,P|110:269|106:203,2,110,2|2|2,0:0|0:0|0:0,0:0:0:0:
209,276,43151,6,0,L|197:144,1,110,2|0,0:0|0:0,0:0:0:0:
225,118,43818,2,0,P|269:130|335:101,2,110,2|0|6,0:0|0:0|0:0,0:0:0:0:
118,88,45151,2,0,L|118:30,2,55,10|10|10,0:0|0:0|0:0,0:0:0:0:
132,362,46707,6,0,L|251:351,1,110,6|8,0:0|0:0,0:0:0:0:
270,305,47373,1,2,0:0:0:0:
289,253,47596,2,0,P|296:184|289:144,1,110,2|8,0:0|0:0,0:0:0:0:
206,71,48484,2,0,P|152:63|98:71,1,110,2|8,0:0|0:0,0:0:0:0:
52,103,49151,1,0,0:0:0:0:
21,148,49373,2,0,L|35:264,1,110,2|8,0:0|0:0,0:0:0:0:
136,297,50262,6,0,P|131:341|131:369,2,55,2|2|8,0:0|0:0|0:0,0:0:0:0:
242,268,51151,2,0,P|247:312|247:340,2,55,2|2|10,0:0|0:0|0:0,0:0:0:0:
343,225,52040,2,0,L|458:231,1,110,2|8,0:0|0:0,0:0:0:0:
488,188,52707,2,0,P|492:138|480:70,1,110,2|2,0:0|0:0,0:0:0:0:
439,45,53373,1,8,0:0:0:0:
329,52,53818,6,0,L|219:41,1,110,6|8,0:0|0:0,0:0:0:0:
170,66,54484,1,0,0:0:0:0:
127,101,54707,2,0,P|119:155|126:209,1,110,2|8,0:0|0:0,0:0:0:0:
188,302,55596,2,0,P|243:294|297:302,1,110,2|8,0:0|0:0,0:0:0:0:
350,312,56262,1,0,0:0:0:0:
399,287,56484,2,0,L|413:171,1,110,2|8,0:0|0:0,0:0:0:0:
425,67,57373,6,0,P|469:72|497:72,2,55,2|2|8,0:0|0:0|0:0,0:0:0:0:
317,43,58262,2,0,P|273:48|245:48,2,55,2|2|10,0:0|0:0|0:0,0:0:0:0:
329,152,59151,2,0,P|292:140|214:164,1,110,2|8,0:0|0:0,0:0:0:0:
166,249,60040,2,0,P|129:261|51:237,1,110,2|10,0:0|0:0,0:0:0:0:
39,136,60929,6,0,L|46:55,1,55,6|0,0:0|0:0,0:0:0:0:
92,56,61373,2,0,P|131:46|207:62,1,110,8|0,0:0|0:0,0:0:0:0:
293,113,62262,1,8,0:0:0:0:
387,169,62707,2,0,L|380:250,1,55,2|0,0:0|0:0,0:0:0:0:
342,262,63151,2,0,P|303:272|227:256,1,110,10|0,0:0|0:0,0:0:0:0:
137,209,64040,1,8,0:0:0:0:
54,281,64484,6,0,L|59:347,2,55,2|2|8,0:0|0:0|0:0,0:0:0:0:
51,225,65151,2,0,L|45:111,1,110,2|2,0:0|0:0,0:0:0:0:
41,60,65818,1,10,0:0:0:0:
150,62,66262,2,0,B|239:100|272:24|371:59,1,220,2|2,0:0|0:0,0:0:0:0:
456,119,67596,1,8,0:0:0:0:
375,193,68040,6,0,L|358:375,1,165,6|6,0:0|0:0,0:0:0:0:
249,355,69151,2,0,P|222:319|196:302,1,55,0|8,0:0|0:0,0:0:0:0:
160,299,69596,2,0,P|105:302|42:305,1,110,2|0,0:0|0:0,0:0:0:0:
55,249,70262,1,10,0:0:0:0:
65,194,70484,2,0,P|119:191|240:187,1,165,2|10,0:0|0:0,0:0:0:0:
322,247,71596,6,0,L|339:65,1,165,6|4,0:0|0:0,0:0:0:0:
242,27,72707,2,0,P|209:28|176:41,1,55,0|10,0:0|0:0,0:0:0:0:
157,80,73151,2,0,P|102:82|47:85,1,110,2|2,0:0|0:0,0:0:0:0:
42,139,73818,1,8,0:0:0:0:
40,193,74040,2,0,P|33:234|111:323,1,165,2|8,0:0|0:0,0:0:0:0:
215,303,75151,6,0,P|267:298|386:314,1,165,6|6,0:0|0:0,0:0:0:0:
456,233,76262,2,0,L|452:165,1,55,0|10,0:0|0:0,0:0:0:0:
439,124,76707,2,0,L|325:109,1,110,2|0,0:0|0:0,0:0:0:0:
275,101,77373,1,10,0:0:0:0:
220,95,77596,2,0,P|159:73|59:132,1,165,2|10,0:0|0:0,0:0:0:0:
80,222,78707,5,6,0:0:0:0:
165,291,79151,1,10,0:0:0:0:
270,260,79596,1,2,0:0:0:0:
320,162,80040,1,8,0:0:0:0:
255,73,80484,6,0,P|204:61|133:86,1,110,6|10,0:0|0:0,0:0:0:0:
114,117,81151,1,2,0:0:0:0:
96,169,81373,2,0,L|95:295,1,110,2|10,0:0|0:0,0:0:0:0:
200,310,82262,2,0,L|201:200,1,110,2|10,0:0|0:0,0:0:0:0:
296,145,83151,2,0,P|344:154|377:208,1,110,2|10,0:0|0:0,0:0:0:0:
367,312,84040,6,0,P|432:298|473:255,1,110,2|10,0:0|0:0,0:0:0:0:
479,217,84707,2,0,L|469:107,1,110,2|2,0:0|0:0,0:0:0:0:
365,69,85596,2,0,P|309:70|249:110,1,110,2|2,0:0|0:0,0:0:0:0:
239,145,86262,2,0,L|245:209,1,55,10|2,0:0|0:0,0:0:0:0:
186,293,86929,2,0,P|139:318|84:319,1,110,2|0,0:0|0:0,0:0:0:0:
