osu file format v14

[General]
AudioFilename: abyss.mp3
AudioLeadIn: 0
PreviewTime: 45929
Countdown: 0
SampleSet: Soft
StackLeniency: 0.7
Mode: 0
LetterboxInBreaks: 0
WidescreenStoryboard: 0

[Editor]
DistanceSpacing: 1.3
BeatDivisor: 4
GridSize: 16
TimelineZoom: 1

[Metadata]
Title:Deep in Abyss
TitleUnicode:Deep in Abyss
Artist:Riko (CV: Tomita Miyu), Regu (CV: Mariya Ise)
ArtistUnicode:リコ(CV:富田美憂)、レグ(CV:伊瀬茉莉也)
Creator:Underforest
Version:Hard
Source:メイドインアビス
Tags:opening made in abyss meido in abisu tv size
BeatmapID:1356757
BeatmapSetID:639700

[Difficulty]
HPDrainRate:4.5
CircleSize:4
OverallDifficulty:6
ApproachRate:7
SliderMultiplier:1.4
SliderTickRate:1

[Events]
//Background and Video events
0,0,"bg.jpg",0,0
Video,-150,"video.flv"
//Break Periods
//Storyboard Layer 0 (Background)
//Storyboard Layer 1 (Fail)
//Storyboard Layer 2 (Pass)
//Storyboard Layer 3 (Foreground)
//Storyboard Sound Samples

[TimingPoints]
485,444.444444444444,4,2,1,60,1,0
485,-133.333333333333,4,2,1,60,0,0
7596,-100,4,2,1,70,0,0
14707,-133.333333333333,4,2,1,60,0,0
21818,-100,4,2,2,70,0,0
28929,-133.333333333333,4,2,1,60,0,0
36040,-100,4,2,2,70,0,0
46707,-100,4,2,1,80,0,1
80484,-100,4,2,1,70,0,0

[Colours]
Combo1 : 113,122,240
Combo2 : 249,123,230
Combo3 : 242,214,98
Combo4 : 214,240,30
SliderTrackOverride : 30,30,30
SliderBorder : 255,255,250

[HitObjects]
65,111,485,6,0,P|132:125|183:104,1,105.000004005432,4|2,0:1|0:0,0:0:0:0:
238,73,1151,1,2,0:0:0:0:
238,73,1262,1,0,0:0:0:0:
238,73,1373,2,0,L|249:142,1,52.5000020027161,2|0,0:0|0:0,0:0:0:0:
321,163,1818,2,0,L|331:231,1,52.5000020027161,2|0,0:0|0:0,0:0:0:0:
382,279,2262,6,0,P|335:298|270:273,1,105.000004005432,2|0,0:0|0:0,0:0:0:0:
202,264,2929,1,2,0:0:0:0:
202,264,3040,1,0,0:0:0:0:
202,264,3151,2,0,P|133:259|107:264,2,78.7500030040742,2|2|0,0:0|0:0|0:0,0:0:0:0:
231,190,4040,6,0,L|241:70,1,105.000004005432,4|0,0:1|0:0,0:0:0:0:
312,41,4707,1,2,0:0:0:0:
312,41,4818,1,0,0:0:0:0:
312,41,4929,2,0,P|356:35|378:35,1,52.5000020027161,2|0,0:0|0:0,0:0:0:0:
380,116,5373,2,0,P|345:118|324:120,1,52.5000020027161,2|0,0:0|0:0,0:0:0:0:
339,203,5818,6,0,P|377:256|373:311,1,105.000004005432,2|0,0:0|0:0,0:0:0:0:
300,325,6484,1,2,0:0:0:0:
300,325,6596,1,0,0:0:0:0:
300,325,6707,2,0,L|303:370,4,26.2500010013581,2|0|2|0|2,0:0|0:0|0:0|0:0|0:0,0:0:0:0:
118,311,7596,6,0,P|70:304|32:280,1,70,4|0,0:0|0:0,0:0:0:0:
80,210,8040,2,0,P|128:217|166:241,1,70,8|2,0:0|0:0,0:0:0:0:
202,227,8373,1,0,0:0:0:0:
202,227,8484,2,0,P|235:183|266:167,1,70,2|0,0:0|0:0,0:0:0:0:
338,162,8929,2,0,L|431:150,1,70,10|0,0:0|0:0,0:0:0:0:
462,225,9373,6,0,P|482:272|471:322,1,70,2|0,0:0|0:0,0:0:0:0:
396,322,9818,2,0,L|312:330,1,70,8|2,0:0|0:0,0:0:0:0:
283,313,10151,1,2,0:0:0:0:
283,313,10262,2,0,L|230:307,4,35,0|2|0|2|10,0:0|0:0|0:0|0:0|0:0,0:0:0:0:
274,222,10929,1,0,0:0:0:0:
184,237,11151,6,0,P|134:242|62:184,1,140,2|10,0:0|0:0,0:0:0:0:
63,99,11818,1,2,0:0:0:0:
124,31,12040,2,0,P|174:26|246:84,1,140,2|10,0:0|0:0,0:0:0:0:
298,149,12707,1,0,0:0:0:0:
388,160,12929,6,0,L|484:147,2,70,2|0|10,0:0|0:0|0:0,0:0:0:0:
298,149,13596,2,0,P|289:211|290:302,1,140,2|0,0:0|0:0,0:0:0:0:
107,296,14484,1,2,0:0:0:0:
107,296,14596,1,0,0:0:0:0:
107,296,14707,6,0,P|81:253|100:189,1,105.000004005432,4|2,0:0|0:0,0:0:0:0:
115,121,15373,1,2,0:0:0:0:
115,121,15484,1,0,0:0:0:0:
115,121,15596,2,0,B|135:115|144:97|144:97|161:107|183:101,2,78.7500030040742,2|2|2,0:0|0:0|0:0,0:0:0:0:
170,184,16484,6,0,P|202:182|240:163,1,52.5000020027161,2|0,0:0|0:0,0:0:0:0:
305,170,16929,1,2,0:0:0:0:
388,174,17151,1,0,0:0:0:0:
388,174,17262,1,0,0:0:0:0:
388,174,17373,2,0,P|387:207|372:241,1,52.5000020027161,2|0,0:0|0:0,0:0:0:0:
345,301,17818,2,0,L|271:308,1,52.5000020027161,2|0,0:0|0:0,0:0:0:0:
214,275,18262,6,0,P|160:266|121:214,1,105.000004005432,2|0,0:0|0:0,0:0:0:0:
111,147,18929,1,2,0:0:0:0:
111,147,19040,1,0,0:0:0:0:
111,147,19151,2,0,L|175:138,1,52.5000020027161,2|2,0:0|0:0,0:0:0:0:
239,104,19596,1,2,0:0:0:0:
316,137,19818,6,0,P|343:184|332:252,1,105.000004005432,2|2,0:0|0:0,0:0:0:0:
293,302,20484,1,2,0:0:0:0:
208,306,20707,2,0,B|160:290|158:332|99:306,1,105.000004005432,6|2,0:0|0:0,0:0:0:0:
49,247,21373,1,2,0:0:0:0:
137,230,21596,1,0,0:0:0:0:
137,230,21707,1,0,0:0:0:0:
137,230,21818,6,0,L|143:145,1,70,6|0,0:0|0:0,0:0:0:0:
135,69,22262,1,10,0:0:0:0:
226,111,22484,1,0,0:0:0:0:
226,111,22596,1,0,0:0:0:0:
226,111,22707,2,0,P|268:110|302:103,1,70,2|0,0:0|0:0,0:0:0:0:
378,67,23151,1,8,0:0:0:0:
446,126,23373,6,0,L|498:115,2,35,2|0|2,0:0|0:0|0:0,0:0:0:0:
366,171,23818,1,0,0:0:0:0:
295,228,24040,2,0,P|291:267|303:306,1,70,10|0,0:0|0:0,0:0:0:0:
238,364,24484,2,0,L|148:372,1,70,2|0,0:0|0:0,0:0:0:0:
113,296,24929,2,0,L|23:304,1,70,10|0,0:0|0:0,0:0:0:0:
2,220,25373,5,2,0:0:0:0:
58,146,25596,1,0,0:0:0:0:
147,160,25818,2,0,B|194:157|194:157|234:176|234:176|287:173,1,140,10|2,0:0|0:0,0:0:0:0:
350,112,26484,1,2,0:0:0:0:
417,173,26707,1,10,0:0:0:0:
356,240,26929,6,0,P|345:298|386:380,1,140,2|2,0:0|0:0,0:0:0:0:
466,358,27596,1,8,0:0:0:0:
466,358,27818,2,0,P|477:300|436:218,1,140,6|0,0:0|0:0,0:0:0:0:
392,154,28484,1,2,0:0:0:0:
303,176,28707,1,0,0:0:0:0:
303,176,28818,1,0,0:0:0:0:
303,176,28929,6,0,P|295:126|285:80,2,78.7500030040742,2|2|2,0:0|0:0|0:0,0:0:0:0:
243,235,29818,2,0,P|235:285|226:330,2,78.7500030040742,2|2|2,0:0|0:0|0:0,0:0:0:0:
195,165,30707,2,0,P|132:135|76:146,1,105.000004005432,2|2,0:0|0:0,0:0:0:0:
29,184,31373,1,0,0:0:0:0:
29,184,31484,1,0,0:0:0:0:
29,184,31596,2,0,L|13:138,4,26.2500010013581,2|0|2|0|2,0:0|0:0|0:0|0:0|0:0,0:0:0:0:
64,260,32262,1,0,0:0:0:0:
142,289,32484,6,0,P|215:286|243:283,2,78.7500030040742,2|2|2,0:0|0:0|0:0,0:0:0:0:
292,213,33596,2,0,P|319:257|320:274,1,52.5000020027161,2|2,0:0|0:0,0:0:0:0:
358,330,34040,1,2,0:0:0:0:
431,288,34262,6,0,L|447:159,1,105.000004005432,2|0,0:0|0:0,0:0:0:0:
387,120,34929,1,2,0:0:0:0:
387,120,35040,1,0,0:0:0:0:
387,120,35151,2,0,P|354:118|339:116,3,26.2500010013581,2|0|2|0,0:0|0:0|0:0|0:0,0:0:0:0:
318,112,35596,2,0,P|304:112|291:113,3,26.2500010013581,2|0|2|0,0:0|0:0|0:0|0:0,0:0:0:0:
247,123,36040,6,0,L|231:206,1,70,6|0,0:0|0:0,0:0:0:0:
153,234,36484,2,0,L|140:303,1,70,8|0,0:0|0:0,0:0:0:0:
223,340,36929,2,0,P|258:337|292:344,1,70,2|0,0:0|0:0,0:0:0:0:
369,297,37373,2,0,P|404:300|438:293,1,70,8|0,0:0|0:0,0:0:0:0:
468,207,37818,6,0,B|484:154|484:154|464:62,1,140,2|10,0:0|0:0,0:0:0:0:
382,36,38484,1,2,0:0:0:0:
382,36,38596,1,0,0:0:0:0:
382,36,38707,2,0,L|325:43,3,35,2|0|2|0,0:0|0:0|0:0|0:0,0:0:0:0:
301,41,39151,2,0,L|266:36,3,35,10|0|2|0,0:0|0:0|0:0|0:0,0:0:0:0:
221,47,39596,6,0,L|199:217,1,140,4|8,0:0|0:0,0:0:0:0:
130,241,40262,1,0,0:0:0:0:
130,241,40373,1,0,0:0:0:0:
130,241,40484,2,0,P|171:272|265:252,1,140,2|0,0:0|0:0,0:0:0:0:
396,143,41373,5,4,0:0:0:0:
396,143,41818,2,0,P|406:216|418:309,2,140,2|2|2,0:0|0:0|0:0,0:0:0:0:
228,71,43151,2,0,L|83:55,1,140,2|0,0:0|0:0,0:0:0:0:
48,137,43818,2,0,P|27:187|54:275,1,140,2|0,0:0|0:0,0:0:0:0:
106,336,44484,1,0,0:0:0:0:
151,256,44707,5,6,0:0:0:0:
151,256,45151,1,10,0:0:0:0:
241,266,45373,1,10,0:0:0:0:
331,276,45596,1,10,0:0:0:0:
331,276,46040,2,0,L|317:349,2,70,0|0|0,0:0|0:0|0:0,0:0:0:0:
355,188,46707,6,0,P|379:94|351:42,1,140,6|8,0:0|0:0,0:0:0:0:
272,56,47373,2,0,L|202:47,1,70,2|2,0:0|0:0,0:0:0:0:
111,46,47818,1,2,0:0:0:0:
67,126,48040,2,0,L|136:134,1,70,8|0,0:0|0:0,0:0:0:0:
216,178,48484,6,0,B|201:231|201:231|211:326,1,140,2|8,0:0|0:0,0:0:0:0:
290,357,49151,1,0,0:0:0:0:
378,337,49373,2,0,P|412:336|451:318,1,70,2|2,0:0|0:0,0:0:0:0:
426,232,49818,2,0,P|392:233|353:251,1,70,8|0,0:0|0:0,0:0:0:0:
310,169,50262,5,2,0:0:0:0:
310,169,50484,1,2,0:0:0:0:
251,99,50707,1,8,0:0:0:0:
251,99,50929,1,2,0:0:0:0:
164,70,51151,2,0,L|81:79,1,70,2|2,0:0|0:0,0:0:0:0:
36,149,51596,1,10,0:0:0:0:
36,149,51818,1,0,0:0:0:0:
40,239,52040,6,0,P|36:286|100:356,1,140,2|8,0:0|0:0,0:0:0:0:
127,269,52707,1,2,0:0:0:0:
217,275,52929,2,0,L|286:285,1,70,2|2,0:0|0:0,0:0:0:0:
371,317,53373,1,8,0:0:0:0:
426,244,53596,1,0,0:0:0:0:
426,244,53707,1,0,0:0:0:0:
426,244,53818,6,0,P|429:183|428:95,1,140,6|8,0:0|0:0,0:0:0:0:
352,54,54484,2,0,P|317:48|283:55,1,70,0|2,0:0|0:0,0:0:0:0:
202,97,54929,1,2,0:0:0:0:
123,50,55151,2,0,P|88:44|54:51,1,70,8|0,0:0|0:0,0:0:0:0:
33,139,55596,6,0,P|20:201|54:274,1,140,2|8,0:0|0:0,0:0:0:0:
121,325,56262,1,0,0:0:0:0:
201,281,56484,2,0,L|289:288,1,70,2|2,0:0|0:0,0:0:0:0:
359,264,56929,2,0,L|447:271,1,70,8|0,0:0|0:0,0:0:0:0:
482,196,57373,5,2,0:0:0:0:
482,196,57595,1,2,0:0:0:0:
459,107,57818,1,8,0:0:0:0:
459,107,58040,1,2,0:0:0:0:
375,70,58262,2,0,L|298:76,1,70,2|2,0:0|0:0,0:0:0:0:
214,70,58707,1,10,0:0:0:0:
214,70,58929,1,0,0:0:0:0:
123,66,59151,6,0,L|110:228,2,140,2|8|2,0:0|0:0|0:0,0:0:0:0:
305,75,60484,1,10,0:0:0:0:
395,86,60707,1,0,0:0:0:0:
395,86,60818,1,0,0:0:0:0:
395,86,60929,6,0,L|480:92,1,70,6|0,0:0|0:0,0:0:0:0:
502,173,61373,2,0,P|512:230|500:300,2,105,8|2|2,0:0|0:0|0:0,0:0:0:0:
464,90,62262,2,0,L|395:86,1,70,8|2,0:0|0:0,0:0:0:0:
303,73,62707,6,0,P|271:65|218:75,1,70,2|0,0:0|0:0,0:0:0:0:
166,128,63151,2,0,L|146:259,2,105,10|2|2,0:0|0:0|0:0,0:0:0:0:
234,68,64040,2,0,P|269:64|303:73,1,70,8|2,0:0|0:0,0:0:0:0:
366,138,64484,6,0,P|380:183|374:235,1,70,2|2,0:0|0:0,0:0:0:0:
363,296,64929,1,8,0:0:0:0:
278,328,65151,2,0,L|132:341,1,140,2|2,0:0|0:0,0:0:0:0:
86,265,65818,2,0,P|93:217|91:192,1,70,10|0,0:0|0:0,0:0:0:0:
23,135,66262,6,0,P|55:154|141:116,1,140,2|8,0:0|0:0,0:0:0:0:
229,92,66929,1,0,0:0:0:0:
316,66,67151,2,0,P|370:25|434:46,1,140,2|8,0:0|0:0,0:0:0:0:
470,139,67818,1,2,0:0:0:0:
470,139,67929,1,0,0:0:0:0:
470,139,68040,6,0,P|485:191|472:229,2,70,6|0|8,0:0|0:0|0:0,0:0:0:0:
394,189,68707,2,0,L|231:200,1,140,6|0,0:0|0:0,0:0:0:0:
163,204,69373,1,8,0:0:0:0:
135,291,69596,6,0,L|274:281,1,140,2|0,0:0|0:0,0:0:0:0:
365,278,70262,1,10,0:0:0:0:
394,189,70484,2,0,P|404:147|314:102,1,140,2|2,0:0|0:0,0:0:0:0:
244,105,71151,2,0,L|161:101,1,70,10|0,0:0|0:0,0:0:0:0:
86,127,71596,6,0,P|67:168|73:210,2,70,6|0|8,0:0|0:0|0:0,0:0:0:0:
157,183,72262,2,0,L|320:194,1,140,4|0,0:0|0:0,0:0:0:0:
387,198,72929,1,10,0:0:0:0:
378,288,73151,6,0,L|238:278,1,140,2|2,0:0|0:0,0:0:0:0:
147,269,73818,1,8,0:0:0:0:
56,259,74040,2,0,P|32:219|67:123,1,140,2|0,0:0|0:0,0:0:0:0:
118,67,74707,2,0,L|201:63,1,70,8|0,0:0|0:0,0:0:0:0:
277,79,75151,6,0,L|362:76,2,70,6|0|8,0:0|0:0|0:0,0:0:0:0:
237,160,75818,2,0,P|259:207|237:306,1,140,6|0,0:0|0:0,0:0:0:0:
310,355,76484,1,10,0:0:0:0:
374,290,76707,6,0,P|358:222|383:158,1,140,2|0,0:0|0:0,0:0:0:0:
436,84,77373,1,10,0:0:0:0:
345,69,77596,2,0,L|199:73,1,140,2|2,0:0|0:0,0:0:0:0:
128,121,78262,2,0,P|118:163|114:193,1,70,10|0,0:0|0:0,0:0:0:0:
44,248,78707,6,0,L|56:336,1,70,6|0,0:0|0:0,0:0:0:0:
134,359,79151,2,0,L|141:289,1,70,10|2,0:0|0:0,0:0:0:0:
215,236,79596,2,0,L|227:324,1,70,2|0,0:0|0:0,0:0:0:0:
305,347,80040,2,0,L|312:277,1,70,8|0,0:0|0:0,0:0:0:0:
401,294,80484,6,0,P|449:287|487:263,1,70,6|0,0:0|0:0,0:0:0:0:
415,202,80929,2,0,L|455:188,2,35,10|0|2,0:0|0:0|0:0,0:0:0:0:
324,192,81373,1,2,0:0:0:0:
255,131,81596,1,2,0:0:0:0:
171,165,81818,2,0,L|78:153,1,70,10|0,0:0|0:0,0:0:0:0:
48,229,82262,6,0,P|28:276|39:326,1,70,2|2,0:0|0:0,0:0:0:0:
116,322,82707,2,0,L|200:330,1,70,10|2,0:0|0:0,0:0:0:0:
229,313,83040,1,0,0:0:0:0:
229,313,83151,2,0,L|223:160,1,140,2|10,0:0|0:0,0:0:0:0:
311,148,83818,1,0,0:0:0:0:
342,234,84040,6,0,P|392:239|464:181,1,140,2|10,0:0|0:0,0:0:0:0:
429,101,84707,2,0,P|379:96|307:154,1,140,2|2,0:0|0:0,0:0:0:0:
223,173,85373,1,8,0:0:0:0:
223,173,85484,1,0,0:0:0:0:
223,173,85596,6,0,L|205:333,1,140,2|2,0:0|0:0,0:0:0:0:
279,367,86262,1,10,0:0:0:0:
359,325,86484,2,0,P|399:332|487:276,1,140,2|2,0:0|0:0,0:0:0:0:
479,193,87151,1,8,0:0:0:0:
398,235,87373,2,0,P|364:231|352:231,1,35,0|2,0:0|0:0,0:0:0:0:
