osu file format v14

[General]
AudioFilename: abyss.mp3
AudioLeadIn: 0
PreviewTime: 45929
Countdown: 0
SampleSet: Soft
StackLeniency: 0.7
Mode: 0
LetterboxInBreaks: 0
WidescreenStoryboard: 0

[Editor]
DistanceSpacing: 2
BeatDivisor: 4
GridSize: 16
TimelineZoom: 1

[Metadata]
Title:Deep in Abyss
TitleUnicode:Deep in Abyss
Artist:Riko (CV: Tomita Miyu), Regu (CV: Mariya Ise)
ArtistUnicode:リコ(CV:富田美憂)、レグ(CV:伊瀬茉莉也)
Creator:Underforest
Version:Insane
Source:メイドインアビス
Tags:opening made in abyss meido in abisu tv size
BeatmapID:1356687
BeatmapSetID:639700

[Difficulty]
HPDrainRate:6
CircleSize:4.3
OverallDifficulty:7
ApproachRate:8.3
SliderMultiplier:1.8
SliderTickRate:1

[Events]
//Background and Video events
0,0,"bg.jpg",0,0
Video,-150,"video.flv"
//Break Periods
//Storyboard Layer 0 (Background)
//Storyboard Layer 1 (Fail)
//Storyboard Layer 2 (Pass)
//Storyboard Layer 3 (Foreground)
//Storyboard Sound Samples

[TimingPoints]
485,444.444444444444,4,2,1,60,1,0
485,-133.333333333333,4,2,1,60,0,0
7596,-100,4,2,1,70,0,0
14707,-133.333333333333,4,2,1,60,0,0
21818,-100,4,2,2,70,0,0
28929,-133.333333333333,4,2,1,60,0,0
36040,-100,4,2,2,70,0,0
46707,-100,4,2,1,80,0,1
80484,-100,4,2,1,70,0,0

[Colours]
Combo1 : 113,122,240
Combo2 : 249,123,230
Combo3 : 242,214,98
Combo4 : 214,240,30
SliderTrackOverride : 30,30,30
SliderBorder : 255,255,250

[HitObjects]
87,41,485,6,0,L|70:192,1,135.000005149842,4|2,0:1|0:0,0:0:0:0:
134,333,1151,1,2,0:0:0:0:
134,333,1262,1,0,0:0:0:0:
134,333,1373,2,0,L|213:325,1,67.5000025749208,2|0,0:0|0:0,0:0:0:0:
312,251,1818,2,0,L|245:258,1,67.5000025749208,2|0,0:0|0:0,0:0:0:0:
353,316,2262,6,0,P|386:271|367:196,1,135.000005149842,2|0,0:0|0:0,0:0:0:0:
245,76,2929,1,2,0:0:0:0:
245,76,3040,1,0,0:0:0:0:
245,76,3151,2,0,L|144:65,1,101.250003862381,2|2,0:0|0:0,0:0:0:0:
79,114,3596,2,0,B|69:146|69:146|75:201,1,67.5000025749208
188,264,4040,6,0,P|233:280|320:240,1,135.000005149842,4|0,0:1|0:0,0:0:0:0:
425,156,4707,1,2,0:0:0:0:
425,156,4818,1,0,0:0:0:0:
425,156,4929,2,0,L|417:223,1,67.5000025749208,2|0,0:0|0:0,0:0:0:0:
354,115,5373,2,0,L|361:47,1,67.5000025749208,2|0,0:0|0:0,0:0:0:0:
240,70,5818,6,0,P|188:62|110:112,1,135.000005149842,2|0,0:0|0:0,0:0:0:0:
111,276,6484,1,2,0:0:0:0:
111,276,6596,1,0,0:0:0:0:
111,276,6707,1,2,0:0:0:0:
132,301,6818,1,0,0:0:0:0:
163,314,6929,1,2,0:0:0:0:
196,311,7040,1,0,0:0:0:0:
228,298,7151,2,0,P|285:298|347:311,1,101.250003862381,2|0,0:0|0:0,0:0:0:0:
362,309,7596,6,0,L|371:217,1,90,4|0,0:0|0:0,0:0:0:0:
282,44,8040,2,0,L|273:133,1,90,8|2,0:0|0:0,0:0:0:0:
268,155,8373,1,0,0:0:0:0:
265,177,8484,1,2,0:0:0:0:
77,147,8707,1,0,0:0:0:0:
144,324,8929,2,0,P|213:338|250:339,1,90,10|0,0:0|0:0,0:0:0:0:
404,258,9373,6,0,P|335:244|298:243,1,90,2|0,0:0|0:0,0:0:0:0:
205,246,9818,1,8,0:0:0:0:
351,339,10040,1,2,0:0:0:0:
392,354,10151,1,2,0:0:0:0:
437,349,10262,1,0,0:0:0:0:
474,325,10373,1,2,0:0:0:0:
497,287,10484,1,0,0:0:0:0:
500,243,10596,1,2,0:0:0:0:
483,201,10707,6,0,L|478:135,1,45,10|2,0:0|0:0,0:0:0:0:
374,62,10929,2,0,L|377:106,1,45
282,213,11151,6,0,P|233:222|188:208,1,90,2|0,0:0|0:0,0:0:0:0:
25,165,11596,1,10,0:0:0:0:
117,327,11818,1,2,0:0:0:0:
242,139,12040,2,0,P|248:86|234:33,1,90,2|0,0:0|0:0,0:0:0:0:
25,165,12484,2,0,P|17:209|23:253,1,90,10|0,0:0|0:0,0:0:0:0:
248,339,12929,5,2,0:0:0:0:
126,213,13151,1,0,0:0:0:0:
102,370,13373,1,10,0:0:0:0:
256,231,13596,1,2,0:0:0:0:
256,231,13707,1,0,0:0:0:0:
256,231,13818,5,2,0:0:0:0:
229,145,14040,1,0,0:0:0:0:
202,59,14262,1,0,0:0:0:0:
121,238,14484,1,2,0:0:0:0:
121,238,14596,1,0,0:0:0:0:
121,238,14707,6,0,L|274:229,1,135.000005149842,4|2,0:0|0:0,0:0:0:0:
384,256,15373,1,2,0:0:0:0:
384,256,15484,1,0,0:0:0:0:
384,256,15596,2,0,L|466:260,1,67.5000025749208,2|0,0:0|0:0,0:0:0:0:
491,197,15929,2,0,P|492:156|484:117,1,67.5000025749208,2|0,0:0|0:0,0:0:0:0:
450,64,16262,1,2,0:0:0:0:
450,64,16373,1,0,0:0:0:0:
450,64,16484,6,0,P|396:58|374:60,1,67.5000025749208,2|0,0:0|0:0,0:0:0:0:
273,115,16929,1,2,0:0:0:0:
167,77,17151,1,0,0:0:0:0:
167,77,17262,1,0,0:0:0:0:
167,77,17373,2,0,P|158:126|172:172,1,67.5000025749208,2|0,0:0|0:0,0:0:0:0:
253,284,17818,2,0,P|255:250|247:218,1,67.5000025749208,2|0,0:0|0:0,0:0:0:0:
191,341,18262,6,0,L|344:322,1,135.000005149842,2|0,0:0|0:0,0:0:0:0:
369,187,18929,2,0,L|379:214,2,22.5000008583069,2|2|2,0:0|0:0|0:0,0:0:0:0:
362,165,19151,1,2,0:0:0:0:
342,137,19262,1,0,0:0:0:0:
315,116,19373,1,2,0:0:0:0:
284,103,19484,1,0,0:0:0:0:
251,99,19596,1,2,0:0:0:0:
218,103,19707,1,0,0:0:0:0:
188,118,19818,6,0,P|159:174|180:250,1,135.000005149842,2|2,0:0|0:0,0:0:0:0:
242,311,20484,1,2,0:0:0:0:
393,184,20707,2,0,L|240:188,1,135.000005149842,6|2,0:0|0:0,0:0:0:0:
328,90,21373,1,2,0:0:0:0:
387,268,21596,1,0,0:0:0:0:
387,268,21707,1,0,0:0:0:0:
387,268,21818,6,0,P|377:315|352:360,1,90,6|0,0:0|0:0,0:0:0:0:
198,258,22262,2,0,P|168:206|168:161,1,90,10|0,0:0|0:0,0:0:0:0:
207,112,22596,1,0,0:0:0:0:
207,112,22707,2,0,P|250:117|306:101,1,90,2|0,0:0|0:0,0:0:0:0:
362,71,23040,1,2,0:0:0:0:
362,71,23151,1,8,0:0:0:0:
480,202,23373,1,2,0:0:0:0:
480,202,23484,1,0,0:0:0:0:
480,202,23596,6,0,P|478:266|475:315,1,90,2|0,0:0|0:0,0:0:0:0:
416,338,23929,1,0,0:0:0:0:
416,338,24040,2,0,P|371:343|321:325,1,90,10|0,0:0|0:0,0:0:0:0:
275,276,24373,1,0,0:0:0:0:
275,276,24484,2,0,P|232:262|187:267,1,90,2|0,0:0|0:0,0:0:0:0:
3,271,24929,1,10,0:0:0:0:
106,359,25151,1,0,0:0:0:0:
94,159,25373,6,0,L|88:54,1,90,2|0,0:0|0:0,0:0:0:0:
161,39,25707,1,0,0:0:0:0:
161,39,25818,2,0,L|166:128,1,90,10|0,0:0|0:0,0:0:0:0:
348,74,26262,1,2,0:0:0:0:
486,219,26484,1,2,0:0:0:0:
486,219,26596,1,0,0:0:0:0:
486,219,26707,1,10,0:0:0:0:
308,281,26929,5,2,0:0:0:0:
265,295,27040,1,0,0:0:0:0:
220,290,27151,1,2,0:0:0:0:
183,264,27262,1,0,0:0:0:0:
163,223,27373,2,0,L|180:120,1,90,2|8,0:0|0:0,0:0:0:0:
209,66,27707,1,0,0:0:0:0:
209,66,27818,6,0,B|303:96|297:35|390:61,1,180,6|0,0:0|0:0,0:0:0:0:
401,81,28373,2,0,L|406:107,3,15,2|2|2|2,0:0|0:0|0:0|0:0,0:0:0:0:
344,181,28707,1,0,0:0:0:0:
344,181,28818,1,0,0:0:0:0:
344,181,28929,6,0,P|351:215|331:284,1,101.250003862381,2|2,0:0|0:0,0:0:0:0:
316,296,29373,2,0,L|225:290,1,67.5000025749208,0|2,0:0|0:0,0:0:0:0:
153,227,29818,2,0,L|36:220,1,101.250003862381,2|2,0:0|0:0,0:0:0:0:
37,200,30262,2,0,P|32:148|43:114,1,67.5000025749208,0|2,0:0|0:0,0:0:0:0:
197,92,30707,6,0,L|275:97,1,67.5000025749208,2|0,0:0|0:0,0:0:0:0:
425,96,31151,1,2,0:0:0:0:
426,106,31262,1,0,0:0:0:0:
426,116,31373,1,0,0:0:0:0:
427,125,31484,1,0,0:0:0:0:
428,135,31596,6,0,L|432:190,1,33.7500012874604,2|0,0:0|0:0,0:0:0:0:
396,246,31818,2,0,L|400:301,1,33.7500012874604,2|0,0:0|0:0,0:0:0:0:
454,344,32040,1,2,0:0:0:0:
314,266,32262,1,0,0:0:0:0:
314,266,32373,1,0,0:0:0:0:
314,266,32484,6,0,P|260:273|199:255,1,101.250003862381,2|2,0:0|0:0,0:0:0:0:
196,249,32929,2,0,L|191:317,2,67.5000025749208,0|2|0,0:0|0:0|0:0,0:0:0:0:
151,110,33596,1,2,0:0:0:0:
264,193,33818,1,2,0:0:0:0:
121,194,34040,1,2,0:0:0:0:
238,111,34262,6,0,L|387:99,1,135.000005149842,2|0,0:0|0:0,0:0:0:0:
455,232,34929,1,2,0:0:0:0:
455,232,35040,1,0,0:0:0:0:
455,232,35151,5,2,0:0:0:0:
461,264,35262,1,0,0:0:0:0:
455,297,35373,1,2,0:0:0:0:
437,325,35484,1,0,0:0:0:0:
410,344,35596,1,2,0:0:0:0:
377,351,35707,1,0,0:0:0:0:
344,345,35818,1,2,0:0:0:0:
316,327,35929,1,0,0:0:0:0:
287,313,36040,6,0,L|157:318,1,90,6|0,0:0|0:0,0:0:0:0:
128,282,36373,1,2,0:0:0:0:
128,282,36484,2,0,P|118:234|129:192,1,90,8|0,0:0|0:0,0:0:0:0:
236,82,36929,2,0,L|336:87,1,90,2|0,0:0|0:0,0:0:0:0:
394,119,37262,1,2,0:0:0:0:
394,119,37373,2,0,P|421:166|399:230,1,90,8|0,0:0|0:0,0:0:0:0:
278,233,37818,6,0,P|312:190|367:176,1,90,2|0,0:0|0:0,0:0:0:0:
446,272,38262,2,0,P|406:276|347:231,1,90,10|2,0:0|0:0,0:0:0:0:
308,308,38596,1,0,0:0:0:0:
308,308,38707,6,0,L|297:357,1,45,2|0,0:0|0:0,0:0:0:0:
201,313,38929,2,0,L|210:269,1,45,2|0,0:0|0:0,0:0:0:0:
316,319,39151,6,0,L|305:368,1,45,10|0,0:0|0:0,0:0:0:0:
189,304,39373,2,0,L|198:260,1,45,2|0,0:0|0:0,0:0:0:0:
122,343,39596,6,0,P|72:322|33:252,1,135,4|2,0:0|0:0,0:0:0:0:
36,221,40040,1,8,0:0:0:0:
124,100,40262,1,0,0:0:0:0:
124,100,40373,1,0,0:0:0:0:
124,100,40484,2,0,L|225:88,1,90,2|0,0:0|0:0,0:0:0:0:
282,60,40818,1,2,0:0:0:0:
282,60,40929,2,0,P|285:106|252:154,1,90
255,314,41373,5,4,0:0:0:0:
255,314,41818,2,0,P|314:305|374:295,1,90,2|0,0:0|0:0,0:0:0:0:
457,238,42262,2,0,P|398:229|313:217,1,135,2|2,0:0|0:0,0:0:0:0:
290,216,42707,1,2,0:0:0:0:
223,329,42929,1,0,0:0:0:0:
109,265,43151,6,0,L|123:90,1,135,2|2,0:0|0:0,0:0:0:0:
137,102,43596,2,0,P|172:87|233:92,1,90,0|2,0:0|0:0,0:0:0:0:
399,113,44040,1,2,0:0:0:0:
191,161,44263,1,0,0:0:0:0:
271,33,44485,1,0,0:0:0:0:
321,243,44707,1,6,0:0:0:0:
321,243,45151,5,10,0:0:0:0:
42,312,45373,1,10,0:0:0:0:
124,35,45596,1,10,0:0:0:0:
124,35,46040,5,0,0:0:0:0:
153,138,46262,1,0,0:0:0:0:
185,239,46484,1,0,0:0:0:0:
185,239,46596,1,0,0:0:0:0:
185,239,46707,6,0,L|77:262,1,90,6|0,0:0|0:0,0:0:0:0:
30,231,47040,1,2,0:0:0:0:
30,231,47151,2,0,P|23:170|37:136,1,90,8|2,0:0|0:0,0:0:0:0:
175,79,47596,1,2,0:0:0:0:
175,79,47707,1,0,0:0:0:0:
175,79,47818,1,2,0:0:0:0:
340,217,48040,1,8,0:0:0:0:
316,45,48262,1,0,0:0:0:0:
171,207,48484,6,0,L|160:319,1,90,2|0,0:0|0:0,0:0:0:0:
217,351,48818,1,2,0:0:0:0:
217,351,48929,2,0,P|267:359|323:337,1,90,8|0,0:0|0:0,0:0:0:0:
340,217,49373,1,2,0:0:0:0:
340,217,49484,1,0,0:0:0:0:
340,217,49596,1,2,0:0:0:0:
476,256,49818,2,0,P|462:192|446:169,1,90,8|0,0:0|0:0,0:0:0:0:
383,137,50151,1,0,0:0:0:0:
383,137,50262,6,0,P|325:126|287:137,1,90,2|2,0:0|0:0,0:0:0:0:
112,232,50707,2,0,P|156:239|199:228,1,90,8|2,0:0|0:0,0:0:0:0:
152,116,51151,1,2,0:0:0:0:
152,116,51262,1,0,0:0:0:0:
152,116,51373,1,2,0:0:0:0:
112,328,51596,1,10,0:0:0:0:
30,205,51818,1,0,0:0:0:0:
254,284,52040,6,0,P|307:294|366:310,1,90,2|0,0:0|0:0,0:0:0:0:
395,249,52373,1,0,0:0:0:0:
395,249,52484,2,0,P|397:215|399:148,1,90,8|2,0:0|0:0,0:0:0:0:
283,57,52929,2,0,P|217:86|202:140,1,90,2|2,0:0|0:0,0:0:0:0:
171,166,53262,1,0,0:0:0:0:
171,166,53373,2,0,L|179:260,1,90,8|0,0:0|0:0,0:0:0:0:
349,296,53818,6,0,L|466:305,1,90,6|0,0:0|0:0,0:0:0:0:
480,240,54151,1,2,0:0:0:0:
480,240,54262,2,0,P|487:179|473:145,1,90,8|0,0:0|0:0,0:0:0:0:
347,94,54707,1,2,0:0:0:0:
347,94,54818,1,0,0:0:0:0:
347,94,54929,1,2,0:0:0:0:
167,209,55151,1,8,0:0:0:0:
196,45,55373,1,0,0:0:0:0:
341,207,55596,6,0,L|352:319,1,90,2|0,0:0|0:0,0:0:0:0:
295,351,55929,1,2,0:0:0:0:
295,351,56040,2,0,P|245:359|189:337,1,90,8|0,0:0|0:0,0:0:0:0:
167,209,56484,1,2,0:0:0:0:
167,209,56596,1,0,0:0:0:0:
167,209,56707,1,2,0:0:0:0:
44,297,56929,2,0,L|42:205,1,90,8|0,0:0|0:0,0:0:0:0:
72,139,57262,1,0,0:0:0:0:
72,139,57373,6,0,P|130:128|168:139,1,90,2|2,0:0|0:0,0:0:0:0:
344,303,57818,1,8,0:0:0:0:
185,271,58040,1,2,0:0:0:0:
299,94,58262,1,2,0:0:0:0:
299,94,58373,1,0,0:0:0:0:
299,94,58484,1,2,0:0:0:0:
476,250,58707,1,10,0:0:0:0:
325,195,58929,1,0,0:0:0:0:
325,195,59151,6,0,L|218:208,1,90,2|0,0:0|0:0,0:0:0:0:
47,180,59596,2,0,L|136:169,1,90,8|0,0:0|0:0,0:0:0:0:
314,75,60040,2,0,L|207:88,1,90,2|0,0:0|0:0,0:0:0:0:
81,89,60484,1,10,0:0:0:0:
325,195,60707,1,0,0:0:0:0:
325,195,60818,1,0,0:0:0:0:
325,195,60929,6,0,P|333:260|329:317,1,90,6|0,0:0|0:0,0:0:0:0:
184,317,61373,2,0,P|141:319|64:319,1,90,8|0,0:0|0:0,0:0:0:0:
50,258,61707,2,0,P|43:177|65:143,1,90,2|2,0:0|0:0,0:0:0:0:
65,95,62040,1,2,0:0:0:0:
65,95,62151,1,2,0:0:0:0:
65,95,62262,1,8,0:0:0:0:
230,35,62484,1,2,0:0:0:0:
192,208,62707,6,0,L|200:308,1,90,2|0,0:0|0:0,0:0:0:0:
372,334,63151,2,0,L|364:244,1,90,10|0,0:0|0:0,0:0:0:0:
402,178,63484,2,0,P|449:178|505:132,1,90,2|2,0:0|0:0,0:0:0:0:
428,105,63818,1,2,0:0:0:0:
428,105,63929,1,2,0:0:0:0:
428,105,64040,1,8,0:0:0:0:
256,47,64262,1,2,0:0:0:0:
147,182,64484,6,0,P|88:184|43:210,1,90,2|2,0:0|0:0,0:0:0:0:
124,306,64929,1,8,0:0:0:0:
241,221,65151,2,0,P|245:171|228:118,1,90,2|0,0:0|0:0,0:0:0:0:
373,213,65596,1,2,0:0:0:0:
373,213,65818,2,0,P|363:256|367:301,1,90,10|0,0:0|0:0,0:0:0:0:
501,267,66262,5,2,0:0:0:0:
241,221,66484,1,0,0:0:0:0:
241,221,66596,1,0,0:0:0:0:
241,221,66707,2,0,P|171:211|120:209,1,90,8|0,0:0|0:0,0:0:0:0:
82,232,67040,1,0,0:0:0:0:
82,232,67151,2,0,P|76:293|72:332,1,90,2|0,0:0|0:0,0:0:0:0:
243,361,67596,1,8,0:0:0:0:
428,247,67818,1,2,0:0:0:0:
428,247,67929,1,0,0:0:0:0:
428,247,68040,6,0,L|432:153,1,90,6|0,0:0|0:0,0:0:0:0:
399,74,68484,1,8,0:0:0:0:
264,144,68707,2,0,P|211:120|168:115,1,90,6|2,0:0|0:0,0:0:0:0:
22,129,69151,1,0,0:0:0:0:
46,288,69373,1,8,0:0:0:0:
46,288,69596,6,0,P|169:330|242:310,1,180,2|0,0:0|0:0,0:0:0:0:
448,247,70262,1,10,0:0:0:0:
359,365,70484,1,2,0:0:0:0:
359,365,70596,1,0,0:0:0:0:
359,365,70707,1,2,0:0:0:0:
333,187,70929,2,0,L|346:97,1,90,2|10,0:0|0:0,0:0:0:0:
209,192,71373,1,0,0:0:0:0:
209,192,71484,1,0,0:0:0:0:
209,192,71596,6,0,P|175:220|143:275,1,90,6|0,0:0|0:0,0:0:0:0:
162,345,72040,1,8,0:0:0:0:
293,266,72262,2,0,P|313:241|333:176,1,90,4|2,0:0|0:0,0:0:0:0:
309,20,72707,1,0,0:0:0:0:
467,86,72929,1,10,0:0:0:0:
467,86,73151,6,0,L|446:273,1,180,2|2,0:0|0:0,0:0:0:0:
217,227,73818,1,8,0:0:0:0:
389,134,74040,1,2,0:0:0:0:
389,134,74151,1,0,0:0:0:0:
389,134,74262,1,2,0:0:0:0:
314,299,74484,1,0,0:0:0:0:
269,115,74707,1,8,0:0:0:0:
446,264,74929,1,0,0:0:0:0:
446,264,75040,1,0,0:0:0:0:
446,264,75151,6,0,P|466:214|468:177,1,90,6|0,0:0|0:0,0:0:0:0:
389,134,75596,1,8,0:0:0:0:
269,229,75818,2,0,L|168:236,1,90,6|2,0:0|0:0,0:0:0:0:
238,363,76262,1,0,0:0:0:0:
390,332,76484,1,10,0:0:0:0:
390,332,76707,6,0,B|518:343|518:343|460:295,1,180,2|0,0:0|0:0,0:0:0:0:
366,180,77373,1,10,0:0:0:0:
212,269,77596,2,0,L|119:253,1,90,2|0,0:0|0:0,0:0:0:0:
47,83,78040,1,2,0:0:0:0:
261,175,78262,1,10,0:0:0:0:
261,175,78373,1,0,0:0:0:0:
261,175,78484,1,0,0:0:0:0:
470,177,78707,5,6,0:0:0:0:
358,20,78929,1,0,0:0:0:0:
261,175,79151,1,10,0:0:0:0:
417,98,79373,1,2,0:0:0:0:
417,98,79484,1,0,0:0:0:0:
417,98,79596,1,2,0:0:0:0:
500,288,79818,1,0,0:0:0:0:
368,176,80040,1,8,0:0:0:0:
260,340,80262,1,0,0:0:0:0:
260,340,80373,1,0,0:0:0:0:
260,340,80484,6,0,L|157:324,1,90,6|0,0:0|0:0,0:0:0:0:
90,173,80929,1,10,0:0:0:0:
90,173,81040,1,0,0:0:0:0:
90,173,81151,1,2,0:0:0:0:
249,98,81373,2,0,P|258:149|271:215,1,90,2|2,0:0|0:0,0:0:0:0:
269,199,81707,1,0,0:0:0:0:
271,212,81818,1,10,0:0:0:0:
172,327,82040,1,0,0:0:0:0:
37,243,82262,6,0,P|93:246|147:206,1,90,2|2,0:0|0:0,0:0:0:0:
135,226,82596,1,0,0:0:0:0:
147,221,82707,1,10,0:0:0:0:
302,311,82929,1,2,0:0:0:0:
409,166,83151,1,2,0:0:0:0:
268,53,83373,1,2,0:0:0:0:
268,53,83484,1,0,0:0:0:0:
268,53,83596,2,0,P|268:110|274:161,1,90,10|0,0:0|0:0,0:0:0:0:
216,296,84040,6,0,P|270:315|318:303,1,90,2|0,0:0|0:0,0:0:0:0:
483,289,84484,1,10,0:0:0:0:
483,289,84707,6,0,L|491:179,1,90,2|0,0:0|0:0,0:0:0:0:
404,67,85151,1,2,0:0:0:0:
404,67,85262,1,0,0:0:0:0:
404,67,85373,1,8,0:0:0:0:
281,164,85596,6,0,P|283:224|260:266,1,90,2|0,0:0|0:0,0:0:0:0:
95,185,86040,1,2,0:0:0:0:
95,185,86151,1,0,0:0:0:0:
95,185,86262,1,10,0:0:0:0:
145,367,86484,5,2,0:0:0:0:
145,367,86596,2,0,L|-2:351,1,135,0|2,0:0|0:0,0:0:0:0:
95,185,87151,1,8,0:0:0:0:
235,321,87373,1,0,0:0:0:0:
235,321,87484,1,2,0:0:0:0:
