osu file format v11

[General]
AudioFilename: Happyaud.mp3
AudioLeadIn: 2000
PreviewTime: 49185
Countdown: 0
SampleSet: Normal
StackLeniency: 0.7
Mode: 0
LetterboxInBreaks: 1

[Editor]
Bookmarks: 11525,33742,50082,70508
DistanceSpacing: 0.8
BeatDivisor: 2
GridSize: 4

[Metadata]
Title:Happy! Lucky! Dochy! (TV Size)
TitleUnicode:Happy! Lucky! Dochy! (TV Size)
Artist:Rika, Satoko, Hanyuu
ArtistUnicode:梨花・沙都子・羽入
Creator:CXu
Version:Easy
Source:Higurashi No Naku Koro Ni Kira
Tags:Tamura Yukari Kanai Mika Horie Yui hiroyuki maezawa opening
BeatmapID:209710
BeatmapSetID:72864

[Difficulty]
HPDrainRate:2
CircleSize:2
OverallDifficulty:2
ApproachRate:3
SliderMultiplier:0.8
SliderTickRate:1

[Events]
//Background and Video events
0,0,"happy.jpg"
Video,0,"happyvid.avi"
//Break Periods
//Storyboard Layer 0 (Background)
//Storyboard Layer 1 (Fail)
//Storyboard Layer 2 (Pass)
//Storyboard Layer 3 (Foreground)
//Storyboard Sound Samples
//Background Colour Transformations
3,100,163,162,255

[TimingPoints]
420,255.31914893617,4,1,1,50,1,0
930,255.31914893617,4,1,1,70,1,0
17270,-100,4,1,2,50,0,0
24419,-100,4,1,1,60,0,0
25440,-100,4,1,2,50,0,0
32334,-100,4,1,1,60,0,0
33610,-100,4,1,1,70,0,0
49951,-100,4,1,1,80,0,1
70376,-100,4,1,1,70,0,0
86717,-100,4,1,1,50,0,0

[Colours]
Combo1 : 78,192,106
Combo2 : 56,87,169
Combo3 : 250,164,69
Combo4 : 190,124,218
Combo5 : 231,231,137

[HitObjects]
372,264,420,6,2,P|401:192|372:120,1,160,2|6,0:0|0:0,0:0:0
256,172,1440,1,8,0:0:0
140,120,1951,2,0,P|111:192|140:264,1,160,2|8,0:0|0:0,0:0:0
256,332,2972,2,0,P|256:160,1,160,2|8,0:0|0:0,0:0:0
212,52,3993,2,0,P|176:28|128:24,2,80,2|2|10,0:0|0:0|0:0,0:0:0
340,64,5015,6,0,P|396:124|380:200,1,160,6|8,0:0|0:0,0:0:0
316,304,6036,2,0,P|260:244|276:168,1,160,2|8,0:0|0:0,0:0:0
236,52,7057,1,2,0:0:0
128,124,7568,1,8,0:0:0
144,252,8078,2,0,P|84:312,2,80,2|2|10,0:0|0:0|0:0,0:0:0
252,324,9100,6,0,P|428:308,1,160,6|8,0:0|0:0,0:0:0
480,200,10121,2,0,P|304:216,1,160,2|8,0:0|0:0,0:0:0
208,152,11142,1,2,0:0:0
256,32,11653,1,8,0:0:0
368,92,12164,2,0,P|412:64|428:32,2,80,2|2|10,0:0|0:0|0:0,0:0:0
240,96,13185,6,0,P|148:96|96:148,1,160,6|8,0:0|0:0,0:0:0
100,267,14206,2,0,P|147:310|239:310,1,160,2|8,0:0|0:0,0:0:0
368,328,15227,2,0,P|380:240|304:192|304:192|380:144|368:56,1,320,6|8,0:0|0:0,0:0:0
244,84,16759,1,0,0:0:0
160,180,17270,6,0,P|92:192|40:108,1,160,4|0,0:0|0:0,0:0:0
40,64,18036,1,8,0:0:0
268,160,19057,2,0,P|320:252|296:304,1,160,8|8,0:0|0:0,0:0:0
244,320,19823,2,0,P|168:348,1,80,0|8,0:0|0:0,0:0:0
404,240,21100,6,0,P|464:176|448:84,1,160,0|8,0:0|0:0,0:0:0
416,64,21866,2,0,P|336:64,1,80,0|8,0:0|0:0,0:0:0
256,164,22632,1,8,0:0:0
176,64,23142,6,0,P|96:64,1,80,8|0,0:0|0:0,0:0:0
48,104,23653,1,0,0:0:0
28,164,23908,2,0,P|52:196|96:212,1,80,0|8,0:0|0:0,0:0:0
148,212,24419,2,2,P|256:256|364:212,1,240,2|0,0:0|0:0,0:0:0
412,168,25440,6,0,P|472:216|456:312,1,160,4|0,0:2|0:0,0:0:0
416,332,26206,1,8,0:0:0
160,332,27227,2,0,P|40:224,1,160,8|8,0:0|0:0,0:0:0
41,160,27993,2,0,P|45:120|73:84,1,80,0|8,0:0|0:0,0:0:0
324,68,29270,5,0,0:0:0
296,124,29525,2,0,P|292:200|364:240,1,160
420,240,30291,1,8,0:0:0
352,348,30802,1,8,0:0:0
232,308,31312,2,0,P|132:344|28:248,1,240,8|0,0:0|0:0,0:0:0
84,228,32334,2,0,P|68:136|120:60,2,160,2|10|10,0:0|0:0|0:0,0:0:0
152,228,33610,5,4,0:0:0
256,152,34121,1,8,0:0:0
360,228,34632,1,0,0:0:0
256,304,35142,1,8,0:0:0
127,320,35653,2,0,P|67:269|79:175,1,160,0|8,0:0|0:0,0:0:0
144,72,36674,2,2,P|200:128|180:220,1,160,2|10,0:0|0:0,0:0:0
300,272,37695,6,0,P|296:212|352:116,1,160,4|8,0:0|0:0,0:0:0
400,240,38717,2,0,P|415:298|499:370,1,160,0|8,0:0|0:0,0:0:0
504,240,39738,2,0,P|504:68,1,160,0|8,0:0|0:0,0:0:0
384,36,40759,2,2,P|324:68|240:28,1,160,2|10,0:0|0:0,0:0:0
128,32,41781,5,6,0:0:0
192,136,42291,1,8,0:0:0
128,248,42802,1,0,0:0:0
192,352,43312,1,8,0:0:0
320,352,43823,5,0,0:0:0
384,248,44333,1,8,0:0:0
320,136,44844,1,2,0:0:0
384,32,45354,1,10,0:0:0
320,136,45866,6,8,P|256:184|256:184|192:136,1,160,14|8,0:0|0:0,0:0:0
188,264,46887,2,8,P|124:216|124:216|60:264,1,160
148,356,47908,5,6,0:0:0
272,324,48419,1,6,0:0:0
396,288,48929,1,2,0:0:0
480,44,49951,6,0,P|392:44|360:120,1,160,6|8,0:0|0:0,0:0:0
300,212,50972,2,0,P|267:267|179:267,1,160,2|8,0:0|0:0,0:0:0
112,156,51993,2,0,P|28:304,1,160,2|8,0:0|0:0,0:0:0
152,344,53015,5,2,0:0:0
184,288,53270,1,2,0:0:0
216,232,53525,1,10,0:0:0
312,144,54036,6,2,P|348:264|264:316,1,240,6|8,0:0|0:0,0:0:0
244,256,55057,2,2,P|132:312|66:238,1,240,2|8,0:0|0:0,0:0:0
72,176,56078,6,0,P|184:44,1,160,2|8,0:0|0:0,0:0:0
232,88,56844,2,0,P|308:132|448:84,1,240,2|8,0:0|0:0,0:0:0
500,204,58121,6,0,P|512:292|436:332,1,160,6|8,0:0|0:0,0:0:0
348,272,59142,2,0,P|180:324,1,160,2|8,0:0|0:0,0:0:0
88,252,60164,2,0,P|256:200,1,160,2|8,0:0|0:0,0:0:0
328,116,61185,5,2,0:0:0
264,112,61440,1,2,0:0:0
200,108,61695,1,10,0:0:0
96,184,62206,6,2,P|68:272|204:336,1,240,6|8,0:0|0:0,0:0:0
200,288,63227,2,2,P|281:330|368:208,1,240,2|8,0:0|0:0,0:0:0
320,204,64249,6,0,P|304:148|364:60,1,160,2|8,0:0|0:0,0:0:0
416,68,65015,2,0,P|176:60,1,240,2|8,0:0|0:0,0:0:0
100,164,66291,5,4,0:0:0
188,260,66802,1,8,0:0:0
256,152,67312,1,0,0:0:0
324,260,67823,1,8,0:0:0
412,164,68334,2,0,P|384:92|304:64,1,160,6|6,0:0|0:0,0:0:0
200,136,69355,2,0,P|127:107|99:35,1,160,6|8,0:0|0:0,0:0:0
228,52,70376,6,0,P|280:96|272:188,1,160,6|8,0:0|0:0,0:0:0
152,228,71398,2,0,P|256:352,1,160,2|8,0:0|0:0,0:0:0
384,340,72419,1,2,0:0:0
432,224,72929,1,8,0:0:0
408,100,73440,2,0,P|424:56|456:32,2,80,2|2|10,0:0|0:0|0:0,0:0:0
324,196,74461,6,0,P|240:244|152:212,1,160,6|8,0:0|0:0,0:0:0
224,112,75483,2,0,P|308:64|396:96,1,160,2|8,0:0|0:0,0:0:0
488,112,76504,1,2,0:0:0
512,236,77015,1,8,0:0:0
412,316,77525,2,0,P|476:376,2,80,2|2|10,0:0|0:0|0:0,0:0:0
328,224,78547,6,0,P|320:136|236:120,1,160,6|8,0:0|0:0,0:0:0
176,208,79568,2,0,P|95:245|39:180,1,160,2|8,0:0|0:0,0:0:0
68,80,80589,1,2,0:0:0
188,36,81100,1,8,0:0:0
300,100,81610,2,0,P|348:112|392:100,2,80,2|2|10,0:0|0:0|0:0,0:0:0
192,172,82632,6,0,P|188:248|236:316,1,160,6|8,0:0|0:0,0:0:0
340,240,83653,2,0,P|424:229|484:164,1,160,2|8,0:0|0:0,0:0:0
392,84,84674,2,0,P|304:96|256:20|256:20|208:96|120:84,1,320,6|8,0:0|0:0,0:0:0
35,178,86206,1,0,0:0:0
256,192,86717,12,0,88759,3:0:0
