osu file format v14

[General]
AudioFilename: Music [Songsx.Pk].mp3
AudioLeadIn: 0
PreviewTime: -1
Countdown: 1
SampleSet: Soft
StackLeniency: 0.7
Mode: 0
LetterboxInBreaks: 1
WidescreenStoryboard: 1

[Editor]
DistanceSpacing: 1.3
BeatDivisor: 4
GridSize: 8
TimelineZoom: 1.4

[Metadata]
Title:Koi no Signal Rin rin rin!
TitleUnicode:恋のシグナルRin rin rin!
Artist:Riho Iida
ArtistUnicode:飯田里穂
Creator:Nickolett
Version:Easy
Source:Love Live! School Idol Project
Tags:Rin Hoshizora SIF
BeatmapID:1234858
BeatmapSetID:527917

[Difficulty]
HPDrainRate:2
CircleSize:3
OverallDifficulty:2
ApproachRate:3
SliderMultiplier:1.2
SliderTickRate:3

[Events]
//Background and Video events
0,0,"thumb-1920-681720.jpg",0,0
//Break Periods
2,52779,54112
//Storyboard Layer 0 (Background)
//Storyboard Layer 1 (Fail)
//Storyboard Layer 2 (Pass)
//Storyboard Layer 3 (Foreground)
//Storyboard Sound Samples

[TimingPoints]
690,540.514285714287,4,2,0,100,1,0

[Colours]
Combo1 : 9,255,175
Combo2 : 255,104,32
Combo3 : 132,0,0
Combo4 : 112,27,254
Combo5 : 234,223,15

[HitObjects]
64,120,7176,6,0,B|112:88|192:72|256:96,1,180
280,152,8257,1,0,0:0:0:0:
280,216,8527,2,0,B|240:224|176:256|176:256|200:272,1,120
288,320,9338,2,0,P|360:312|408:264,2,120
96,280,10959,1,0,0:0:0:0:
216,192,11500,1,0,0:0:0:0:
336,104,12040,6,0,B|384:112|400:192|352:264,2,180
160,256,14202,2,0,P|104:192|120:96,2,180
192,312,16094,6,0,B|224:312|320:296|352:240,1,180
360,136,17445,2,0,P|304:80|264:64,1,120
256,192,18256,12,0,22310,0:0:0:0:
72,160,22580,6,0,P|112:112|224:72,1,180
328,104,23932,2,0,P|384:160|392:264,1,180
296,312,25013,1,0,0:0:0:0:
208,312,25283,1,0,0:0:0:0:
128,288,25553,1,0,0:0:0:0:
88,120,26094,6,0,P|144:88|216:72,1,120
336,80,27175,2,0,P|376:112|400:176,1,120
312,312,28256,1,0,0:0:0:0:
224,280,28526,1,0,0:0:0:0:
144,232,28796,2,0,P|112:176|112:120,1,120
184,80,29877,2,0,P|256:80|288:128,1,120
336,224,30958,1,0,0:0:0:0:
248,296,31499,6,0,P|184:288|136:256,1,120
160,176,32580,2,0,P|112:128|104:64,1,120
232,104,33391,1,0,0:0:0:0:
320,96,33661,1,0,0:0:0:0:
384,160,33931,1,0,0:0:0:0:
304,328,34472,6,0,P|256:320|224:304,1,60
144,256,35282,1,0,0:0:0:0:
216,80,35823,2,0,P|280:80|352:120,1,120
352,312,36904,2,0,P|280:312|216:280,1,120
176,272,37715,1,0,0:0:0:0:
128,216,37985,1,0,0:0:0:0:
112,152,38255,1,0,0:0:0:0:
136,88,38526,6,0,P|176:56|256:56,1,120
336,112,39336,2,0,P|352:144|360:184,1,60
336,304,40147,2,0,P|272:312|208:304,1,120
184,232,41228,2,0,P|120:200|88:152,1,120
256,136,42309,2,0,P|208:96|192:40,1,120
264,48,43120,1,0,0:0:0:0:
328,96,43390,1,0,0:0:0:0:
384,152,43660,1,0,0:0:0:0:
440,200,43931,1,0,0:0:0:0:
216,328,44471,6,0,P|128:296|96:200,1,180
112,128,45552,1,0,0:0:0:0:
216,88,45822,1,0,0:0:0:0:
312,96,46093,2,0,P|376:168|336:248,1,180
288,336,47174,2,0,P|240:312|232:296,2,60
328,312,47985,1,0,0:0:0:0:
368,280,48255,1,0,0:0:0:0:
360,144,48795,6,0,P|320:112|240:96,2,120
256,304,50417,2,0,P|160:264|160:200,1,180
272,208,51498,2,0,B|320:176|400:120|400:120|328:48,1,240,4|4,0:0|0:0,0:0:0:0:
256,192,55552,12,0,56903,0:0:0:0:
56,96,57444,6,0,P|144:72|288:112,3,240
416,136,60957,2,0,L|416:224,2,60
384,272,61768,1,0,0:0:0:0:
264,312,62308,2,0,P|160:328|48:240,3,240
48,152,65821,2,0,P|144:104|168:104,1,120
264,120,66632,2,0,P|336:152|368:208,1,120
424,328,67443,1,4,0:0:0:0:
312,328,67713,1,4,0:0:0:0:
96,264,67984,6,0,P|88:216|160:112,1,180
288,80,69065,1,0,0:0:0:0:
384,128,69335,2,4,L|408:184,2,60
352,304,70146,6,0,P|272:320|224:296,1,120
136,272,70956,2,0,P|104:216|104:160,1,120
272,88,71767,1,0,0:0:0:0:
384,272,72037,2,4,P|312:296|256:264,3,120
256,192,75280,12,0,76362,0:0:0:0:
336,320,76632,6,0,P|408:280|424:176,1,180
384,88,77713,1,0,0:0:0:0:
232,80,77983,2,0,P|176:120|152:192,1,120
160,280,78794,2,0,P|224:328|272:328,1,120
376,288,79605,1,4,0:0:0:0:
448,208,79875,1,4,0:0:0:0:
416,96,80145,1,4,0:0:0:0:
288,64,80415,1,4,0:0:0:0:
176,112,80686,2,0,P|128:160|192:232,1,180
296,240,81767,2,0,B|400:176|288:96,1,180
248,168,82848,2,0,L|248:304,2,120,0|0|4,0:0|0:0|0:0,0:0:0:0:
168,112,84199,1,4,0:0:0:0:
112,208,84469,1,4,0:0:0:0:
168,304,84739,1,4,0:0:0:0:
296,304,85010,6,0,B|344:280|360:224|360:200,1,120
376,136,85821,2,0,P|312:88|256:80,1,120
152,144,86631,2,0,P|104:176|96:192,1,60
96,296,87172,1,4,0:0:0:0:
192,304,87442,2,4,L|272:304,1,60
344,296,87983,1,4,0:0:0:0:
424,232,88253,2,0,B|456:136|456:136|304:88,1,240,4|4,0:0|0:0,0:0:0:0:
160,112,89604,6,0,P|96:144|80:192,1,120
144,288,90415,1,4,0:0:0:0:
256,304,90685,2,0,P|304:272|336:208,1,120
288,96,91496,1,4,0:0:0:0:
160,168,91766,6,0,P|192:248|224:264,1,120
312,184,92577,1,4,0:0:0:0:
376,64,92847,2,0,P|416:104|440:176,1,120
288,192,93658,5,0,0:0:0:0:
200,296,93928,2,0,P|168:248|176:176,1,120
256,168,94739,1,4,0:0:0:0:
352,80,95009,2,0,P|384:144|384:208,1,120
256,192,95820,12,14,100144,0:0:0:0:
