osu file format v9

[General]
AudioFilename: 03 We Found Love.mp3
AudioLeadIn: 0
PreviewTime: -1
Countdown: 0
SampleSet: Normal
StackLeniency: 0.7
Mode: 0
LetterboxInBreaks: 0

[Editor]
DistanceSpacing: 0.8
BeatDivisor: 4
GridSize: 8

[Metadata]
Title:We Found Love
Artist:Rihanna Feat. Calvin Harris
Creator:Lehon
Version:Normal
Source:
Tags:

[Difficulty]
HPDrainRate:5
CircleSize:3
OverallDifficulty:5
ApproachRate:5
SliderMultiplier:1.5
SliderTickRate:1

[Events]
//Background and Video events
0,0,"Rihanna_WeFoundLove_4E8269 (1).jpg"
//Break Periods
2,37642,51477
2,82877,96477
2,127877,133977
2,150377,163977
//Storyboard Layer 0 (Background)
//Storyboard Layer 1 (Fail)
//Storyboard Layer 2 (Pass)
//Storyboard Layer 3 (Foreground)
//Storyboard Sound Samples
//Background Colour Transformations
3,100,163,162,255

[TimingPoints]
7677,468.75,4,1,0,25,1,0
7677,-100,4,2,0,50,0,0
22682,-100,4,1,0,50,0,0
33112,-100,4,1,0,5,0,0
33347,-100,4,1,0,50,0,0
37331,-100,4,1,0,20,0,0
37566,-100,4,1,0,50,0,0
52684,-100,4,1,0,60,0,0
56434,-100,4,1,0,70,0,0
60185,-100,4,1,0,80,0,0
63935,-100,4,1,0,90,0,0
67677,-100,4,1,0,50,0,1
82686,-100,4,1,0,50,0,0
112677,-100,4,1,0,50,0,1
127677,-100,4,1,0,5,0,0
135177,-133.333333333333,4,2,0,40,0,0
142677,-133.333333333333,4,2,0,50,0,0
165177,-100,4,1,0,60,0,0
168927,-100,4,1,0,70,0,0
172677,-100,4,1,0,80,0,0
176427,-100,4,1,0,90,0,0
180177,-100,4,1,0,90,0,1
180411,-100,4,1,0,90,0,0

[Colours]
Combo1 : 0,0,0
Combo2 : 255,255,255
Combo3 : 192,192,192
Combo4 : 128,128,128

[HitObjects]
96,272,7677,2,2,B|112:336|192:352|240:288,2,150,6|2|2
192,192,9083,2,2,B|176:128|96:112|48:176,2,150
192,192,10255,1,0
312,192,10723,1,0
312,192,10958,1,0
360,80,11427,6,2,B|424:112|448:176|424:224,1,150,6|2
312,192,12364,2,2,B|304:224|319:280|383:312,1,150
264,328,13302,2,2,B|152:368|32:320,1,225
152,176,14708,1,0
152,176,14942,1,0
152,176,15177,5,4
232,80,15645,2,0,B|392:80,1,150
448,176,16583,2,0,B|288:176,1,150
376,272,17520,2,0,B|296:320,1,75
311,310,17989,2,0,B|160:272,3,150,0|0|4|0
166,273,19630,5,0
104,320,19864,2,0,B|56:248|128:192|168:192,1,150
88,88,20802,2,2,B|200:40|280:112|272:192,1,225
360,240,21973,2,0,B|288:304,2,75
416,256,22677,6,8,B|336:176|344:104,1,150,12|8
224,104,23614,2,8,B|176:40|96:56|64:96,1,150
56,192,24552,2,8,B|32:280|80:352,3,150
192,312,26427,6,8,B|360:312,1,150,12|8
248,232,27364,2,8,B|88:232,2,150
160,152,28770,2,8,B|328:152,2,150
72,72,30177,6,8,B|144:48|240:80,1,150,12|8
344,72,31114,2,8,B|464:72|408:32|432:144,2,150
336,192,32520,2,8,B|272:128|176:192,1,150
198,178,33223,1,0
198,178,33458,1,8
96,240,33927,6,8,B|192:336|304:320,2,225,12|8|8
208,192,35802,2,8,B|328:96,2,150
328,216,37208,2,8,B|424:192,1,75,8|0
184,264,52677,6,0,B|136:320|56:304,2,112.5,4|0|0
184,264,53614,1,0
264,296,53966,1,0
288,208,54317,1,0
288,208,54552,2,0,B|304:144|360:112,2,112.5
288,208,55489,1,0
368,248,55841,1,0
376,336,56192,1,0
376,336,56427,6,0,B|304:352|264:288,2,112.5,4|0|0
376,336,57364,1,0
424,264,57716,1,0
336,248,58067,1,0
336,248,58302,2,0,B|416:152,2,112.5
336,248,59239,1,0
256,296,59591,1,0
200,224,59942,1,0
200,224,60177,5,4
112,224,60528,1,0
120,136,60880,1,0
120,136,61114,1,4
208,104,61466,1,0
288,136,61817,1,0
288,136,62052,1,4
240,216,62403,1,0
328,240,62755,1,0
328,240,62989,2,0,B|432:336,2,112.5,4|0|0
336,296,63927,6,4,B|256:312|200:288,2,112.5,4|0|0
328,240,64864,2,0,B|320:168|272:128,2,112.5,4|0|0
328,240,65802,5,4
280,320,66153,1,4
200,272,66505,1,4
248,192,66856,1,4
192,120,67208,1,12
192,120,67442,1,0
192,120,67677,6,0,B|312:112,2,112.5,6|0|0
120,168,68731,1,0
176,240,69083,1,0
176,240,69317,1,0
176,240,69552,2,0,B|232:208|296:208,1,112.5,6|0
280,296,70255,2,0,B|330:296|386:264,1,112.5
416,176,70958,2,0,B|456:112,2,75,0|0|6
336,128,71778,6,0,B|288:80|216:96,1,112.5
256,176,72481,2,0,B|208:223|154:210,1,112.5
154,210,73067,1,0
154,210,73302,1,6
112,128,73653,2,0,B|56:168|64:256,2,112.5
168,56,74708,1,0
216,96,74942,2,0,B|208:144,2,37.5,0|0|6
296,64,75528,5,0
376,112,75880,1,0
328,184,76231,1,0
416,216,76583,2,0,B|360:272,1,75
362,269,77052,1,6
304,336,77403,1,0
362,269,77755,1,0
304,200,78106,1,0
216,224,78458,1,0
216,224,78692,1,0
216,224,78927,6,0,B|144:192|136:120,1,112.5,6|0
160,56,79630,2,0,B|232:88|240:160,1,112.5
216,224,80333,2,0,B|176:296,2,75,0|0|6
304,192,81153,1,0
352,272,81505,1,0
400,232,81739,6,0,B|432:264,2,37.5
400,168,82208,2,0,B|368:136,2,37.5
456,200,82677,1,4
104,160,97677,6,0,B|120:240|216:256,1,150,0|8
280,152,98614,6,0,B|296:64,2,75,0|0|8
312,264,99552,2,0,B|400:256|432:176,1,150,0|8
368,72,100489,2,0,B|464:64,2,75,0|0|8
264,128,101427,6,2,B|184:96|104:128,1,150
200,208,102364,2,2,B|136:272|264:272|176:344,2,150
312,240,103770,2,2,B|384:280|480:240,2,150
280,120,105177,6,0,B|376:88|408:176,1,150,0|8
312,240,106114,2,0,B|328:336,2,75,0|0|8
208,296,107052,2,0,B|120:296|88:200,1,150,0|8
200,160,107989,2,0,B|168:80,2,75,0|0|8
200,280,108927,6,4,B|328:280,1,112.5
312,192,109630,2,4,B|176:192,1,112.5
224,104,110333,2,4,B|312:104,1,75,4|0
296,104,110802,5,4
360,40,111153,1,4
416,104,111505,1,4
360,168,111856,1,4
296,232,112208,2,0,B|376:288,1,75,14|0
464,216,112911,6,0,B|520:144,2,75
464,216,113614,1,2
368,280,114083,1,2
368,280,114317,1,2
304,280,114552,2,0,B|232:320|136:272,1,150
160,216,115255,2,0,B|232:176|328:224,1,150
360,200,115958,1,0
408,160,116192,1,0
408,160,116427,5,2
376,112,116661,2,0,B|448:56,2,75
328,72,117364,2,2,B|264:56|216:88|200:160,1,150
207,133,118067,1,2
136,168,118302,2,2,B|128:208|160:248|200:264|256:248|280:208|272:152,2,225,2|2|2
80,272,120177,6,0,B|0:336,2,75,2|0|0
80,272,120880,1,0
136,272,121114,2,2,B|216:320|296:264,1,150
344,176,122052,2,0,B|272:144|176:176,1,150
197,169,122755,1,0
96,104,123223,2,0,B|48:40,2,75
96,168,123927,6,2,B|48:240|96:328,1,150,2|0
176,232,124864,2,2,B|215:161|167:89,1,150,2|0
288,96,125802,6,2,B|384:96,2,75
256,152,126505,2,2,B|168:152,2,75,2|2|2
288,208,127208,2,2,B|384:208,1,75,2|2
363,208,127677,1,2
384,248,135177,6,0,B|333:223|278:263,1,112.499996647239
192,248,136114,6,0,B|140:272|84:232,1,112.499996647239
80,144,137052,2,0,B|192:136|224:104|224:56|192:32|160:56|160:104|200:136|312:152,1,337.499989941716
392,152,138927,1,4
480,176,139395,2,0,B|432:296,1,112.499996647239
352,248,140333,1,0
264,272,140802,2,0,B|152:280|120:312|120:360|152:384|184:360|184:312|144:280|32:264,1,337.499989941716
80,184,142677,1,4
144,120,143145,2,0,B|200:80|256:128,1,112.499996647239
216,208,144083,2,0,B|263:249|319:209,1,112.499996647239
272,136,145020,2,0,B|352:56,2,112.499996647239
360,168,146427,2,0,B|336:224|272:272,1,112.499996647239
224,200,147364,2,0,B|179:232|155:288,1,112.499996647239
88,224,148302,2,0,B|48:128|104:40,2,168.749994970858
88,312,150177,1,0
328,264,165177,6,0,B|376:320|456:304,2,112.5,4|0|0
328,264,166114,1,0
248,296,166466,1,0
224,208,166817,1,0
224,208,167052,2,0,B|208:144|152:112,2,112.5
224,208,167989,1,0
144,248,168341,1,0
136,336,168692,1,0
136,336,168927,6,0,B|208:352|248:288,2,112.5,4|0|0
136,336,169864,1,0
88,264,170216,1,0
176,248,170567,1,0
176,248,170802,2,0,B|96:152,2,112.5
176,248,171739,1,0
256,296,172091,1,0
312,224,172442,1,0
312,224,172677,5,4
400,224,173028,1,0
392,136,173380,1,0
392,136,173614,1,4
304,104,173966,1,0
224,136,174317,1,0
224,136,174552,1,4
272,216,174903,1,0
184,240,175255,1,0
184,240,175489,2,0,B|80:336,2,112.5,4|0|0
176,296,176427,6,4,B|256:312|312:288,2,112.5,4|0|0
184,240,177364,2,0,B|192:168|240:128,2,112.5,4|0|0
184,240,178302,5,4
232,320,178653,1,4
312,272,179005,1,4
264,192,179356,1,4
320,120,179708,1,12
320,120,179942,1,0
