osu file format v13

[General]
AudioFilename: Rihanna - Take A Bow.mp3
AudioLeadIn: 0
PreviewTime: 188345
Countdown: 0
SampleSet: Normal
StackLeniency: 0.7
Mode: 0
LetterboxInBreaks: 0
SkinPreference:Default
WidescreenStoryboard: 0

[Editor]
Bookmarks: 25174,89564,177369,218345
DistanceSpacing: 0.9
BeatDivisor: 4
GridSize: 4
TimelineZoom: 1

[Metadata]
Title:Take A Bow
TitleUnicode:Take A Bow
Artist:Rihanna
ArtistUnicode:Rihanna
Creator:Ylinestra44
Version:Normal
Source:
Tags:Good Girl Gone Bad Reloaded
BeatmapID:517596
BeatmapSetID:221228

[Difficulty]
HPDrainRate:4
CircleSize:4.7
OverallDifficulty:5
ApproachRate:5
SliderMultiplier:1.5
SliderTickRate:2

[Events]
//Background and Video events
0,0,"Rihanna.jpg",0,0
//Break Periods
2,87551,88347
2,177552,186881
//Storyboard Layer 0 (Background)
//Storyboard Layer 1 (Fail)
//Storyboard Layer 2 (Pass)
//Storyboard Layer 3 (Foreground)
//Storyboard Sound Samples
//Background Colour Transformations
3,100,163,162,255

[TimingPoints]
1743,731.707317073171,4,1,1,15,1,0
25889,-100,4,2,1,25,0,0
31011,-100,4,1,1,15,0,0
31742,-100,4,2,1,25,0,0
36864,-100,4,1,1,15,0,0
37230,-100,4,2,1,25,0,0
39791,-100,4,1,1,15,0,0
40157,-100,4,2,1,25,0,0
42718,-100,4,1,1,15,0,0
43450,-100,4,2,1,25,0,0
47474,-100,4,1,1,15,0,0
47840,-100,4,2,1,25,0,0
48571,-100,4,1,1,15,0,0
48937,-100,4,2,1,30,0,0
50401,-100,4,2,1,30,0,0
51498,-100,4,1,1,15,0,0
51864,-100,4,2,1,30,0,0
52230,-100,4,2,2,15,0,0
52596,-100,4,2,1,30,0,0
54425,-100,4,1,1,15,0,0
54791,-100,4,2,1,30,0,0
57352,-100,4,1,1,15,0,0
57718,-100,4,2,1,30,0,0
58450,-100,4,2,1,15,0,0
58815,-100,4,2,1,10,0,0
59181,-100,4,1,1,10,0,0
59547,-100,4,2,1,25,0,0
60279,-100,4,1,1,20,0,1
60645,-100,4,2,1,35,0,1
61742,-100,4,1,1,15,0,1
62108,-100,4,2,1,35,0,1
63206,-100,4,1,1,15,0,1
63571,-100,4,2,1,35,0,1
64669,-100,4,1,1,15,0,1
65035,-100,4,2,1,35,0,1
66132,-100,4,1,1,15,0,1
66498,-100,4,2,1,35,0,1
67596,-100,4,1,1,15,0,1
67962,-100,4,2,1,35,0,1
69059,-100,4,1,1,15,0,1
69425,-100,4,2,1,35,0,1
70523,-100,4,1,1,15,0,1
70889,-100,4,2,1,35,0,1
71986,-100,4,1,1,15,0,1
72352,-100,4,2,1,35,0,1
73450,-100,4,1,1,15,0,1
73815,-100,4,2,1,35,0,1
74913,-100,4,1,1,15,0,1
75279,-100,4,2,1,35,0,1
76376,-100,4,1,1,15,0,1
76742,-100,4,2,1,35,0,1
77840,-100,4,1,1,15,0,1
78571,-100,4,2,1,35,0,1
79303,-100,4,1,1,15,0,1
79669,-100,4,2,1,35,0,1
80767,-100,4,1,1,15,0,1
81498,-100,4,2,1,35,0,1
82230,-100,4,1,1,15,0,1
82596,-100,4,2,1,35,0,1
83693,-100,4,1,1,15,0,1
84059,-100,4,2,1,35,0,1
86620,-100,4,2,1,35,0,0
89547,-100,4,1,1,15,0,0
90279,-100,4,2,1,25,0,0
95401,-100,4,1,1,15,0,0
95767,-100,4,2,1,25,0,0
101254,-100,4,1,1,15,0,0
101620,-100,4,2,1,25,0,0
104181,-100,4,1,1,15,0,0
104547,-100,4,2,1,25,0,0
107108,-100,4,1,1,15,0,0
107840,-100,4,2,1,25,0,0
112962,-100,4,1,1,15,0,0
113328,-100,4,2,1,30,0,0
115889,-100,4,1,1,15,0,0
116254,-100,4,2,1,30,0,0
116620,-100,4,2,2,15,0,0
116986,-100,4,2,1,30,0,0
118815,-100,4,1,1,15,0,0
119181,-100,4,2,1,30,0,0
121742,-100,4,1,1,15,0,0
122108,-100,4,2,1,30,0,0
123571,-100,4,1,1,10,0,0
123937,-100,4,2,1,25,0,0
124669,-100,4,1,1,20,0,1
125035,-100,4,2,1,35,0,1
126132,-100,4,1,1,15,0,1
126498,-100,4,2,1,35,0,1
127596,-100,4,1,1,15,0,1
127962,-100,4,2,1,35,0,1
129059,-100,4,1,1,15,0,1
129425,-100,4,2,1,35,0,1
130523,-100,4,1,1,15,0,1
130889,-100,4,2,1,35,0,1
131986,-100,4,1,1,15,0,1
132352,-100,4,2,1,35,0,1
133450,-100,4,1,1,15,0,1
133815,-100,4,2,1,35,0,1
134913,-100,4,1,1,15,0,1
135279,-100,4,2,1,35,0,1
136376,-100,4,1,1,15,0,1
136742,-100,4,2,1,35,0,1
138206,-100,4,1,1,15,0,1
138571,-100,4,2,1,35,0,1
139303,-100,4,1,1,15,0,1
139669,-100,4,2,1,35,0,1
140767,-100,4,1,1,15,0,1
141132,-100,4,2,1,35,0,1
142230,-100,4,1,1,15,0,1
142962,-100,4,2,1,35,0,1
143693,-100,4,1,1,15,0,1
144059,-100,4,2,1,35,0,1
145157,-100,4,1,1,15,0,1
145523,-100,4,2,1,35,0,1
146620,-100,4,1,1,15,0,1
146986,-100,4,2,1,35,0,1
148084,-100,4,1,1,15,0,1
148450,-100,4,2,1,35,0,1
151011,-100,4,2,1,35,0,0
152108,-100,4,2,1,25,0,0
153937,-100,4,1,1,10,0,0
154303,-100,4,2,1,25,0,0
156864,-100,4,1,1,15,0,0
157230,-100,4,2,1,25,0,0
159059,-100,4,2,2,15,0,0
159425,-100,4,2,1,25,0,0
159791,-100,4,1,1,15,0,0
160157,-100,4,2,1,25,0,0
161620,-100,4,1,1,15,0,0
161986,-100,4,2,2,15,0,0
162169,-100,4,2,1,25,0,0
162718,-100,4,1,1,15,0,0
163084,-100,4,2,1,25,0,0
165645,-100,4,1,1,15,0,0
166376,-100,4,2,1,25,0,0
168571,-100,4,1,1,15,0,0
168937,-100,4,2,1,25,0,0
171498,-100,4,1,1,15,0,0
171864,-100,4,2,1,25,0,0
174425,-100,4,2,1,10,0,0
177352,-100,4,2,1,10,0,0
188328,-100,4,2,1,25,0,0
189059,-100,4,1,1,20,0,1
189425,-100,4,2,1,35,0,1
190523,-100,4,1,1,20,0,1
190889,-100,4,2,1,35,0,1
191986,-100,4,1,1,20,0,1
192352,-100,4,2,1,35,0,1
193450,-100,4,1,1,20,0,1
193815,-100,4,2,1,35,0,1
194913,-100,4,1,1,20,0,1
195096,-100,4,2,1,35,0,1
196742,-100,4,1,1,15,0,1
197108,-100,4,2,1,35,0,1
197840,-100,4,1,1,20,0,1
198206,-100,4,2,1,35,0,1
199303,-100,4,1,1,20,0,1
199669,-100,4,2,1,35,0,1
200767,-100,4,1,1,20,0,1
201132,-100,4,2,1,35,0,1
202230,-100,4,1,1,20,0,1
202596,-100,4,2,1,35,0,1
203693,-100,4,1,1,20,0,1
204059,-100,4,2,1,35,0,1
205157,-100,4,1,1,20,0,1
205523,-100,4,2,1,35,0,1
206620,-100,4,1,1,15,0,1
207352,-100,4,2,1,35,0,1
208084,-100,4,1,1,15,0,1
208450,-100,4,2,1,35,0,1
209547,-100,4,1,1,15,0,1
209913,-100,4,2,1,35,0,1
211011,-100,4,1,1,15,0,1
211376,-100,4,2,1,35,0,1
212474,-100,4,1,1,15,0,1
212840,-100,4,2,1,35,0,1
216864,-100,4,1,1,10,0,1
217230,-100,4,2,1,25,0,1
217962,-100,4,2,1,15,0,1
218328,-100,4,1,1,5,0,0

[Colours]
Combo1 : 113,0,113
Combo2 : 200,200,200
Combo3 : 102,102,102
Combo4 : 0,196,0
SliderTrackOverride : 255,158,62

[HitObjects]
24,128,25157,5,4,0:2:0:0:
156,160,25889,1,8,0:0:0:0:
208,204,26254,2,0,P|256:232|348:220,1,150,2|2,0:0|0:0,0:0:0:0:
408,248,27352,1,8,0:0:0:0:
399,179,27718,2,0,P|476:248|399:317,1,225,2|8,0:0|0:0,0:0:0:0:
340,312,29181,1,2,0:0:0:0:
208,332,29913,2,0,P|176:352|140:356,2,75,2|8|2,0:0|0:0|0:0,0:0:0:0:
248,276,31011,5,4,0:2:0:0:
132,208,31742,2,0,P|95:200|59:208,1,75,8|2,0:0|0:0,0:0:0:0:
95,263,32474,2,0,P|132:271|168:263,1,75,0|2,0:0|0:0,0:0:0:0:
196,204,33206,1,8,0:0:0:0:
164,144,33571,2,0,B|204:96|256:80|256:80|308:96|348:144,1,225,2|8,0:0|0:0,0:0:0:0:
316,204,35035,1,2,0:0:0:0:
432,272,35767,2,0,P|468:288|504:288,2,75,2|8|2,0:0|0:0|0:0,0:0:0:0:
388,220,36864,38,0,P|352:204|316:204,1,75,0|2,0:0|0:0,0:0:0:0:
252,220,37596,1,8,0:0:0:0:
192,252,37962,2,0,P|152:260|116:256,2,75,2|0|2,0:0|0:0|0:0,0:0:0:0:
252,220,39059,2,0,P|288:180|288:124,1,112.5,8|0,0:0|0:0,0:0:0:0:
263,99,39791,6,0,P|224:88|200:65,1,75,0|2,0:0|0:0,0:0:0:0:
260,32,40523,1,8,0:0:0:0:
320,60,40889,1,2,0:0:0:0:
356,116,41255,2,0,P|384:140|420:148,1,75,0|2,0:0|0:0,0:0:0:0:
464,200,41986,2,0,P|400:212|324:176,1,150,8|0,0:0|0:0,0:0:0:0:
204,116,43450,37,8,0:0:0:0:
144,148,43815,2,0,P|80:160|32:144,2,112.5,2|2|8,0:0|0:0|0:0,0:0:0:0:
200,188,45279,2,0,P|288:228|408:188,2,225,2|8|0,0:0|0:0|0:0,0:0:0:0:
144,148,47840,1,8,0:0:0:0:
128,284,48571,6,0,P|92:300|56:300,2,75,4|2|8,0:2|0:0|0:0,0:0:0:0:
184,244,49669,1,2,0:0:0:0:
235,200,50035,2,0,P|269:184|306:189,1,75,0|2,0:0|0:0,0:0:0:0:
280,252,50767,2,0,P|316:260|348:280,1,75,8|2,0:0|0:0,0:0:0:0:
396,328,51498,2,0,B|440:280|376:192|376:192|440:104|396:56,1,300
348,103,53328,2,0,P|316:122|279:123,2,75,2|8|2,0:0|0:0|0:0,0:0:0:0:
296,60,54425,38,0,P|268:44|224:40,1,75,4|2,0:2|0:0,0:0:0:0:
172,80,55157,2,0,P|144:96|100:100,1,75,8|2,0:0|0:0,0:0:0:0:
40,71,55889,2,0,P|64:44|99:32,1,75,0|2,0:0|0:0,0:0:0:0:
102,100,56620,2,0,P|84:132|52:152,1,75,8|2,0:0|0:0,0:0:0:0:
8,204,57352,2,0,P|72:244|144:244,2,150,0|8|0,0:0|0:0|0:0,0:0:0:0:
52,152,59181,1,0,0:0:0:0:
72,88,59547,6,0,P|96:60|132:44,1,75,8|0,0:0|0:0,0:0:0:0:
196,48,60279,22,0,P|232:48|276:32,1,75,4|0,0:2|0:0,0:0:0:0:
288,99,61011,2,0,P|319:81|335:47,1,75,8|0,0:0|0:0,0:0:0:0:
400,64,61742,2,0,P|364:136|292:168,1,150,0|8,0:0|0:0,0:0:0:0:
236,168,62840,1,2,0:0:0:0:
168,156,63206,2,0,P|124:156|96:168,1,75,0|2,0:0|0:0,0:0:0:0:
139,220,63937,2,0,P|105:233|68:229,1,75,8|2,0:0|0:0,0:0:0:0:
28,175,64669,2,0,P|2:242|49:295,1,150,0|8,0:0|0:0,0:0:0:0:
184,320,66133,38,0,P|220:328|252:352,1,75,0|2,0:0|0:0,0:0:0:0:
308,316,66864,2,0,P|348:280|352:220,1,112.5,8|2,0:0|0:0,0:0:0:0:
335,192,67596,2,0,P|354:123|308:68,1,150,0|8,0:0|0:0,0:0:0:0:
240,56,68693,1,2,0:0:0:0:
164,44,69059,2,0,P|140:72|104:72,1,75,0|2,0:0|0:0,0:0:0:0:
36,84,69791,2,0,P|52:116|84:136,1,75,8|2,0:0|0:0,0:0:0:0:
152,140,70523,2,0,P|128:188|40:188,1,150,0|8,0:0|0:0,0:0:0:0:
20,324,71986,6,0,P|56:336|92:336,1,75,0|2,0:0|0:0,0:0:0:0:
160,324,72718,2,0,P|197:323|232:335,1,75,8|2,0:0|0:0,0:0:0:0:
296,360,73450,2,0,P|372:364|440:336,1,150,0|8,0:0|0:0,0:0:0:0:
496,296,74547,1,2,0:0:0:0:
484,228,74913,2,0,P|476:200|448:164,1,75,0|2,0:0|0:0,0:0:0:0:
380,160,75645,2,0,P|388:188|416:224,1,75,8|2,0:0|0:0,0:0:0:0:
443,284,76376,2,0,P|375:312|301:304,2,150,0|8|4,0:0|0:0|0:2,0:0:0:0:
355,179,78572,38,0,P|341:145|313:120,1,75,8|2,0:0|0:0,0:0:0:0:
288,184,79303,2,0,P|232:152|148:164,1,150,0|8,0:0|0:0,0:0:0:0:
92,200,80401,1,2,0:0:0:0:
28,216,80767,1,0,0:0:0:0:
88,336,81498,2,0,P|125:336|158:319,1,75,8|2,0:0|0:0,0:0:0:0:
212,276,82230,2,0,P|252:248|352:236,1,150,0|8,0:0|0:0,0:0:0:0:
416,256,83328,1,2,0:0:0:0:
464,304,83693,6,0,P|496:328|532:336,2,75,0|2|8,0:0|0:0|0:0,0:0:0:0:
416,256,84791,2,0,P|348:240|400:320,1,225,2|8,0:0|0:0,0:0:0:0:
464,304,86254,2,0,L|248:244,1,225,2|8,0:0|0:0,0:0:0:0:
247,243,89547,5,4,0:2:0:0:
132,312,90279,2,0,P|92:324|60:320,2,75,8|2|0,0:0|0:0|0:0,0:0:0:0:
188,276,91376,1,2,0:0:0:0:
252,260,91742,1,8,0:2:0:0:
320,264,92108,2,0,P|409:218|357:132,1,225,2|8,0:0|0:0,0:0:0:0:
344,200,93571,1,2,0:0:0:0:
460,272,94303,2,0,P|474:241|478:200,2,75,2|8|2,0:0|0:0|0:0,0:0:0:0:
416,324,95401,6,0,P|380:344|304:352,1,112.5
276,348,96133,2,0,P|236:348|204:360,1,75,8|2,0:0|0:0,0:0:0:0:
164,308,96864,2,0,P|151:272|151:235,1,75,0|2,0:0|0:0,0:0:0:0:
176,172,97596,1,8,0:0:0:0:
160,108,97962,2,0,B|208:96|256:52|256:52|304:96|352:108,2,225,2|8|2,0:0|0:0|0:0,0:0:0:0:
92,120,100523,2,0,P|56:128|24:148,1,75,8|2,0:0|0:0,0:0:0:0:
32,216,101255,38,0,P|44:252|68:280,1,75,0|2,0:0|0:0,0:0:0:0:
132,304,101986,2,0,P|164:320|188:352,1,75,8|2,0:0|0:0,0:0:0:0:
256,344,102718,1,0,0:0:0:0:
312,308,103084,1,2,0:0:0:0:
344,248,103450,1,8,0:0:0:0:
460,319,104181,6,0,P|478:288|480:250,1,75,0|2,0:0|0:0,0:0:0:0:
444,192,104913,1,8,0:0:0:0:
480,133,105279,2,0,P|478:95|460:64,1,75,2|0,0:0|0:0,0:0:0:0:
416,116,106011,2,0,P|360:136|316:168,2,112.5,2|2|0,0:0|0:0|0:0,0:0:0:0:
296,56,107840,37,8,0:0:0:0:
228,68,108206,1,2,0:0:0:0:
176,111,108571,2,0,P|109:143|35:137,1,150,2|8,0:0|0:0,0:0:0:0:
35,68,109669,2,0,P|104:141|25:204,1,225,2|8,0:0|0:0,0:0:0:0:
32,272,111132,2,0,P|124:244|172:132,1,225,2|8,0:0|0:0,0:0:0:0:
156,68,112596,1,2,0:0:0:0:
220,52,112962,6,0,P|260:52|304:64,1,75,4|2,0:2|0:0,0:0:0:0:
360,80,113694,2,0,P|396:88|433:88,1,75,8|2,0:2|0:0,0:0:0:0:
500,76,114425,1,0,0:0:0:0:
480,140,114791,1,2,0:0:0:0:
420,168,115157,2,0,P|392:192|376:228,1,75,8|2,0:0|0:0,0:0:0:0:
392,292,115889,2,0,B|348:308|256:240|256:240|164:308|120:292,1,300
135,226,117718,2,0,P|120:192|92:168,2,75,2|8|2,0:0|0:0|0:0,0:0:0:0:
68,232,118815,37,4,0:2:0:0:
24,180,119181,1,2,0:0:0:0:
44,116,119547,2,0,P|48:88|36:44,1,75,8|2,0:0|0:0,0:0:0:0:
99,20,120279,2,0,P|137:16|172:28,1,75,0|2,0:0|0:0,0:0:0:0:
232,63,121011,2,0,P|204:88|167:95,1,75,8|2,0:0|0:0,0:0:0:0:
108,132,121742,2,0,B|120:168|120:168|196:156|236:188,1,150,0|8,0:0|0:0,0:0:0:0:
256,208,122657,2,0,B|300:152|392:168|392:168|404:132,1,187.5,2|0,0:0|0:0,0:0:0:0:
472,140,123937,6,0,L|452:212,1,75,8|2,0:0|0:0,0:0:0:0:
424,272,124669,22,0,P|392:296|352:300,1,75,4|2,0:2|0:0,0:0:0:0:
292,288,125401,1,8,0:0:0:0:
240,248,125767,1,2,0:0:0:0:
204,192,126132,2,0,P|164:152|72:144,1,150,0|8,0:0|0:0,0:0:0:0:
12,172,127230,1,2,0:0:0:0:
36,236,127596,2,0,P|40:268|24:308,1,75,0|2,0:0|0:0,0:0:0:0:
60,364,128328,2,0,P|88:336|100:304,1,75,8|2,0:0|0:0,0:0:0:0:
115,240,129059,2,0,P|161:181|232:164,1,150,0|8,0:0|0:0,0:0:0:0:
236,300,130523,38,0,P|272:308|312:308,1,75,0|2,0:0|0:0,0:0:0:0:
376,296,131254,2,0,B|412:288|412:288|416:244|440:216,1,112.5,8|2,0:0|0:0,0:0:0:0:
464,192,131986,2,0,B|416:156|412:96|412:96|376:88,1,150,0|8,0:0|0:0,0:0:0:0:
309,75,133084,1,2,0:0:0:0:
244,64,133450,2,0,P|208:52|180:28,1,75,0|2,0:0|0:0,0:0:0:0:
112,20,134181,2,0,P|120:60|144:88,1,75,8|2,0:0|0:0,0:0:0:0:
195,123,134913,2,0,P|204:189|138:188,1,150,0|8,0:0|0:0,0:0:0:0:
51,84,136377,6,0,P|21:105|11:140,1,75,0|2,0:0|0:0,0:0:0:0:
4,208,137108,2,0,P|56:195|80:145,2,112.5,8|0|0,0:0|0:0|0:0,0:0:0:0:
12,276,138571,1,8,0:0:0:0:
68,312,138937,1,2,0:0:0:0:
136,308,139303,2,0,P|172:312|208:328,1,75,0|2,0:0|0:0,0:0:0:0:
268,356,140035,2,0,P|304:360|340:344,1,75,8|2,0:0|0:0,0:0:0:0:
380,292,140767,2,0,P|420:252|512:240,2,150,0|8|4,0:0|0:0|0:2,0:0:0:0:
275,207,142962,38,0,P|242:191|205:191,1,75,8|2,0:0|0:0,0:0:0:0:
227,256,143693,2,0,P|156:240|140:172,1,150,0|8,0:0|0:0,0:0:0:0:
187,120,144791,1,2,0:0:0:0:
236,72,145157,2,0,P|258:139|208:188,1,150,0|8,0:0|0:0,0:0:0:0:
139,173,146254,1,2,0:0:0:0:
72,155,146620,2,0,P|118:102|187:120,1,150,0|8,0:0|0:0,0:0:0:0:
207,188,147718,1,2,0:0:0:0:
188,252,148084,6,0,P|164:280|128:292,2,75,0|2|8,0:0|0:0|0:0,0:0:0:0:
207,188,149181,2,0,P|248:144|248:240,1,225,2|8,0:0|0:0,0:0:0:0:
188,252,150645,2,0,L|360:100,1,225,2|8,0:0|0:0,0:0:0:0:
408,56,152108,1,2,0:0:0:0:
476,172,152840,2,0,P|492:212|484:248,2,75,2|8|2,0:0|0:0|0:0,0:0:0:0:
424,216,153937,6,0,P|364:216|288:168,1,150,4|8,0:2|0:0,0:0:0:0:
222,169,155035,2,0,P|161:212|88:216,1,150,2|2,0:2|0:0,0:0:0:0:
24,240,156133,2,0,P|24:188|68:148,1,112.5,8|0,0:0|0:0,0:0:0:0:
103,147,156864,2,0,P|170:121|192:52,1,150,0|8,0:0|0:0,0:0:0:0:
256,76,157962,2,0,L|256:228,2,150,2|2|2,0:0|0:0|0:0,0:0:0:0:
319,52,159791,6,0,P|341:121|408:147,1,150,0|8,0:0|0:0,0:0:0:0:
399,79,160889,2,0,P|452:92|476:141,1,112.5,2|0,0:0|0:0,0:0:0:0:
472,176,161620,2,0,P|448:204|376:212,1,112.5,0|0,0:0|0:0,0:0:0:0:
344,200,162352,1,2,0:0:0:0:
280,180,162718,2,0,P|208:176|140:212,1,150,0|8,0:0|0:0,0:0:0:0:
96,264,163815,1,2,0:0:0:0:
68,204,164181,2,0,P|64:164|72:128,1,75,0|2,0:0|0:0,0:0:0:0:
120,84,164913,2,0,P|152:68|192:64,1,75,8|2,0:0|0:0,0:0:0:0:
256,72,165645,37,0,0:0:0:0:
392,84,166376,2,0,P|360:68|320:64,2,75,8|2|0,0:0|0:0|0:0,0:0:0:0:
440,130,167474,1,2,0:0:0:0:
432,196,167840,2,0,P|412:232|384:252,1,75,8|2,0:0|0:0,0:0:0:0:
324,280,168571,1,0,0:0:0:0:
256,288,168937,1,2,0:0:0:0:
188,280,169303,2,0,P|152:272|120:248,2,75,8|2|0,0:0|0:0|0:0,0:0:0:0:
304,212,170767,6,0,P|336:176|336:112,1,112.5,8|0,0:0|0:0,0:0:0:0:
316,88,171498,2,0,B|272:80|256:48|256:48|244:68|228:76,1,112.5
196,88,172230,2,0,P|172:124|188:192,1,112.5,8|0,0:0|0:0,0:0:0:0:
208,212,172962,1,0,0:0:0:0:
188,276,173328,2,0,P|256:304|324:276,1,150,2|2,0:0|0:0,0:0:0:0:
256,192,174425,12,4,177352,0:0:0:0:
84,308,188328,38,0,P|120:300|152:276,1,75,8|2,0:0|0:0,0:0:0:0:
200,232,189059,38,0,P|232:212|272:208,1,75,4|2,0:2|0:0,0:0:0:0:
336,220,189791,2,0,P|376:224|420:216,1,75,8|2,0:0|0:0,0:0:0:0:
476,204,190523,2,0,P|504:176|456:96,1,150,0|8,0:0|0:0,0:0:0:0:
388,104,191620,1,2,0:0:0:0:
324,120,191986,2,0,P|284:124|248:112,1,75,0|2,0:0|0:0,0:0:0:0:
184,100,192718,1,8,0:0:0:0:
204,164,193084,1,2,0:0:0:0:
138,149,193450,2,0,P|76:144|0:184,2,150,0|8|0,0:0|0:0|0:0,0:0:0:0:
172,160,195096,38,0,P|208:172|244:172,1,75,2|0,0:0|0:0,0:0:0:0:
280,164,195645,2,0,P|317:163|352:175,1,75,8|2,0:0|0:0,0:0:0:0:
384,192,196194,2,0,P|428:204|492:188,1,112.5,0|0,0:0|0:0,0:0:0:0:
512,124,197108,2,0,P|480:120|440:136,1,75,8|2,0:0|0:0,0:0:0:0:
376,120,197840,2,0,P|344:100|324:68,1,75,0|2,0:0|0:0,0:0:0:0:
292,8,198571,1,8,0:0:0:0:
256,64,198937,1,2,0:0:0:0:
220,7,199303,2,0,P|188:71|232:127,1,150,0|8,0:0|0:0,0:0:0:0:
296,144,200401,1,2,0:0:0:0:
364,152,200767,6,0,P|400:164|428:192,1,75,0|2,0:0|0:0,0:0:0:0:
456,248,201498,1,8,0:0:0:0:
504,296,201863,1,2,0:0:0:0:
440,312,202230,2,0,P|392:316|304:272,1,150,0|8,0:0|0:0,0:0:0:0:
264,216,203328,1,2,0:0:0:0:
252,148,203694,2,0,P|236:116|204:88,1,75,0|2,0:0|0:0,0:0:0:0:
140,92,204425,2,0,P|104:84|76:60,1,75,8|2,0:0|0:0,0:0:0:0:
16,92,205157,2,0,P|36:156|8:232,2,150,0|8|4,0:0|0:0|0:2,0:0:0:0:
140,144,207352,37,8,0:0:0:0:
208,156,207718,1,2,0:0:0:0:
276,144,208084,2,0,P|320:140|416:180,1,150,0|8,0:0|0:0,0:0:0:0:
460,232,209181,1,2,0:0:0:0:
478,297,209547,1,0,0:0:0:0:
412,308,209913,1,2,0:0:0:0:
348,308,210279,2,0,P|308:316|276:332,1,75,8|2,0:0|0:0,0:0:0:0:
216,360,211011,2,0,P|156:368|120:296,1,150,0|8,0:0|0:0,0:0:0:0:
156,240,212108,1,2,0:0:0:0:
88,236,212474,6,0,P|52:240|16:256,2,75,0|2|8,0:0|0:0|0:0,0:0:0:0:
155,239,213571,2,0,P|205:164|115:176,1,225,2|8,0:0|0:0,0:0:0:0:
88,236,215035,2,0,L|280:120,1,225,2|8,0:0|0:0,0:0:0:0:
336,84,216498,1,2,0:0:0:0:
404,96,216864,2,0,P|440:132|388:200,1,150,0|8,0:0|0:0,0:0:0:0:
324,196,217962,1,2,0:0:0:0:
256,192,218328,5,4,0:2:0:0:
