osu file format v7

[General]
AudioFilename: rihanna - shut up and drive.mp3
AudioLeadIn: 0
PreviewTime: 43039
Countdown: 0
SampleSet: Normal
StackLeniency: 0.4
Mode: 0
LetterboxInBreaks: 1

[Editor]
DistanceSpacing: 1
BeatDivisor: 2
GridSize: 8

[Metadata]
Title:Shut Up and Drive
Artist:Rihanna
Creator:sohuhard
Version:Sleepy
Source:
Tags:

[Difficulty]
HPDrainRate:5
CircleSize:4
OverallDifficulty:4
SliderMultiplier:0.9
SliderTickRate:1

[Events]
//Background and Video events
0,0,"bike-vs-red-car-wallpapers_12039_1024x768.jpg"
//Break Periods
2,70757,78260
2,144742,150440
//Storyboard Layer 0 (Background)
//Storyboard Layer 1 (Fail)
//Storyboard Layer 2 (Pass)
//Storyboard Layer 3 (Foreground)
//Storyboard Sound Samples
//Background Colour Transformations
3,100,0,0,0

[TimingPoints]
182,451.127819548872,4,2,0,50,1,0
28603,-100,4,1,0,50,0,0
41685,-100,4,1,0,50,0,1
43264,-100,4,1,0,50,0,0
64242,-100,4,1,0,50,0,1
67851,-100,4,1,0,50,0,1
70557,-100,4,1,0,50,0,0
79129,-100,4,2,0,50,0,0
86347,-100,4,1,0,50,0,0
121986,-100,4,1,0,50,0,1
125595,-100,4,1,0,50,0,1
128302,-100,4,1,0,50,0,0
129655,-100,4,2,0,50,0,0
142738,-100,4,1,0,30,0,1
143189,-100,4,1,0,45,0,1
143640,-100,4,1,0,60,0,1
144091,-100,4,1,0,75,0,1
144542,-100,4,1,0,90,0,0
151309,-100,4,2,0,50,0,0
166197,-200,4,2,0,70,0,0
173415,-100,4,1,0,50,0,1
186948,-100,4,1,0,50,0,1
190557,-100,4,1,0,50,0,1
193264,-100,4,1,0,50,0,0

[Colours]
Combo1 : 255,255,255
Combo2 : 0,255,255
Combo3 : 128,128,255
Combo4 : 255,0,128
Combo5 : 0,255,0

[HitObjects]
257,46,7400,1,2
166,201,8302,1,0
345,201,9204,1,2
256,357,10106,2,0,L|256:247,1,90,0|0
256,176,11009,5,2
169,18,11911,1,0
348,18,12813,1,2
256,172,13715,2,0,L|256:278,1,90
343,282,14618,6,0,L|387:203|336:121,1,180,8|0
159,126,16422,2,0,L|115:205|166:287,1,180,8|0
254,126,18227,2,0,L|254:233,1,90,8|0
254,305,19129,1,8
384,181,20031,2,0,L|443:124,2,67.5,4|0|4
254,141,21385,5,2
211,220,21836,2,0,L|316:220,1,90,8|0
311,309,22738,2,0,L|212:310,1,90,8|0
134,284,23640,2,0,L|57:252,2,67.5,4|0|4
257,229,24994,5,2
215,149,25445,2,0,L|315:150,1,90,8|0
320,61,26347,2,0,L|214:60,1,90,8|0
143,84,27249,2,0,L|68:118,2,67.5,4|0|4
255,278,29054,5,4
255,98,29956,1,4
97,185,30858,2,0,L|232:184,2,135
142,107,32663,5,4
357,107,33565,1,4
249,294,34467,2,0,L|249:154,2,135
346,247,36272,5,4
346,121,37174,1,4
177,185,38076,2,0,L|321:185,2,135
86,185,39881,5,4
229,185,40783,1,0
372,185,41685,2,0,L|464:185,3,90
464,184,43490,5,8
326,68,44392,1,0
190,186,45294,1,8
51,70,46197,1,0
52,249,47099,6,0,L|137:289|233:243,1,180,8|0
262,78,48903,2,0,L|339:40|424:80,1,180,8|0
424,170,50257,1,0
334,170,50708,6,0,L|228:169,1,90,8|0
154,169,51610,1,0
154,348,52512,2,0,L|259:348,1,90,8|0
334,348,53415,1,0
255,186,54317,5,8
75,186,55219,1,0
170,33,56121,2,2,L|171:120,2,67.5,2|0|2
305,33,57475,1,0
304,120,57926,6,0,L|304:228,1,90,8|0
305,301,58828,1,0
125,301,59730,2,0,L|126:192,1,90,8|0
125,120,60633,1,0
289,193,61535,5,8
378,193,61986,1,0
449,111,62437,2,2,L|489:195|446:275,1,180,2|0
256,192,64016,12,0,66948
256,192,67625,12,4,70557
185,115,79580,6,0,L|157:197|185:309,1,180,2|0
327,115,81385,2,0,L|354:197|327:309,1,180,2|0
255,125,83189,1,8
255,304,84091,1,8
255,123,84994,2,0,L|256:47,2,67.5,4|0|4
255,348,86798,5,0
163,193,87700,1,0
255,38,88603,2,0,L|256:180,2,135
255,38,90407,5,0
341,195,91309,1,0
254,352,92212,2,0,L|104:352,2,135
343,352,94016,5,0
429,194,94918,1,0
347,33,95821,2,0,L|483:33,2,135
257,33,97625,5,0
169,190,98527,1,0
252,349,99430,2,0,L|252:253,3,90
255,169,101234,6,0,L|339:136|433:178,1,180,8|0
257,169,103039,2,0,L|173:136|79:178,1,180,8|0
91,172,104392,1,0
91,262,104843,6,0,L|172:298|256:265,1,180,8|0
421,262,106648,2,0,L|339:298|255:265,1,180,8|0
255,175,108001,1,0
214,94,108452,6,0,L|321:94,1,90,8|0
258,16,109354,1,0
301,190,110257,2,0,L|209:191,1,90,8|0
257,268,111159,1,0
77,279,112061,6,0,L|121:200|67:116,1,180,8|0
252,126,113866,2,0,L|207:205|254:285,1,180,8|0
296,203,115219,1,0
385,203,115670,6,0,L|488:205,1,90,8|0
474,204,116572,1,0
474,24,117475,2,0,L|366:24,1,90,8|0
384,24,118377,1,0
314,189,119279,5,0
224,189,119730,1,0
172,115,120181,2,2,L|129:193|178:279,1,180,2|0
256,192,121760,12,0,124693
256,192,125369,12,0,128302
256,179,130106,6,0,L|174:241,1,90,2|0
112,287,131009,1,2
256,179,131911,1,0
395,292,132813,2,0,L|320:231,1,90,2|0
256,179,133715,1,2
256,179,135520,1,2
106,118,137324,6,0,L|63:196|106:284,1,180,2|0
406,118,139129,2,0,L|449:196|406:284,1,180,2|0
255,183,140933,1,2
255,183,142738,2,0,L|256:81,4,90,0|0|0|0|4
258,186,151760,5,2
258,186,152663,1,2
166,341,153565,2,0,L|60:252,2,135,2|0|2
255,341,155369,5,2
255,341,156272,1,2
328,176,157174,2,0,L|440:262,2,135,2|0|2
238,176,158978,5,2
238,176,159881,1,2
126,34,160783,2,0,L|11:116,2,135,2|0|2
216,34,162588,5,2
216,213,163490,1,2
372,123,164392,2,0,L|471:123,3,90,2|2|2|2
462,123,166197,6,0,B|480:220|404:291,1,180
329,329,168903,1,0
243,299,169806,2,0,B|275:196|200:127,1,180
128,87,172512,1,0
117,266,173415,6,0,B|224:244,1,90,8|0
293,230,174317,1,0
293,50,175219,2,0,B|185:79,1,90,8|0
119,99,176121,1,0
119,279,177024,6,0,L|198:324|290:269,1,180,8|0
274,98,178828,2,0,L|353:53|445:108,1,180,8|0
429,188,180181,1,0
429,278,180633,6,0,L|332:277,1,90,8|0
249,277,181535,1,0
323,113,182437,2,0,L|219:114,1,90,8|0
143,113,183339,1,0
71,278,184242,5,8
160,278,184693,1,0
249,278,185144,2,0,L|342:277,1,90
428,277,186046,1,12
256,192,186723,12,0,189655
256,192,190332,12,0,193264
225,88,194166,6,0,B|163:152|163:276,1,180
200,335,195520,2,0,B|254:301|330:298,2,135
287,88,197775,6,0,B|349:152|349:276,1,180
312,335,199129,2,0,B|257:301|182:298,2,135
404,237,201159,6,0,B|353:193|348:112,1,135
226,60,202512,2,0,B|230:134|180:200,1,135
279,287,203866,2,0,L|378:176,1,135
338,54,205219,2,0,B|278:102|200:108,1,135
148,223,206572,2,0,L|291:260,1,135
389,178,207926,2,0,L|246:131,1,135
174,109,209054,5,4
