osu file format v5

[General]
AudioFilename: Rihanna-Disturbia.mp3
AudioLeadIn: 0
PreviewTime: -1
Countdown: 1
SampleSet: Soft
StackLeniency: 0.7
Mode: 0
LetterboxInBreaks: 1

[Metadata]
Title:Disturbia
Artist:Rihanna
Creator:kiken
Version:Normal
Source:
Tags:

[Difficulty]
HPDrainRate:5
CircleSize:5
OverallDifficulty:5
SliderMultiplier:1.4
SliderTickRate:1

[Events]
//Background and Video events
0,0,"DisTurbiA_no_osu.jpg"
//Break Periods
2,46536,62176
2,125416,138496
2,155255,170256
//Storyboard Layer 0 (Background)
//Storyboard Layer 1 (Failing)
//Storyboard Layer 2 (Passing)
//Storyboard Layer 3 (Foreground)
//Storyboard Sound Samples
//Background Colour Transformations
3,100,163,162,255

[TimingPoints]
1986,480,4,2,0,100

[HitObjects]
128,96,2013,1,0
224,96,2482,1,0
320,96,2872,2,0,B|320:192,1,93.3333333333333
320,256,3654,1,0
384,256,4122,1,0
448,256,4591,2,0,B|448:128,2,116.666666666667
448,96,5841,5,0
352,96,6310,1,0
256,96,6700,2,0,B|160:96,1,93.3333333333333
192,192,7482,1,0
192,192,8029,1,0
288,192,8497,2,0,B|384:192,2,93.3333333333333
416,320,9669,5,0
320,320,10138,1,0
256,320,10529,2,0,B|160:320,1,93.3333333333333
96,320,11310,1,0
64,256,11779,1,0
128,224,12325,1,0
128,224,12638,1,0
128,224,13029,1,0
128,96,13497,6,0,B|288:96,2,140
64,96,14669,1,0
64,192,15216,1,0
96,256,15685,1,0
160,288,16154,1,0
160,288,16388,1,0
256,288,16857,1,0
160,64,17560,6,0,B|288:96|384:224,2,256.666666666667
128,160,19776,5,0
128,224,20256,1,0
128,288,20736,1,0
128,352,21696,2,0,B|288:320|320:160,2,280
48,304,24016,5,0
88,176,24576,1,0
96,64,25456,2,0,B|256:64,1,140
320,160,26496,2,0,B|384:320,1,163.333333333333
288,320,27456,5,0
176,320,27936,1,0
64,352,28336,1,0
64,352,28576,1,0
96,288,29376,6,0,B|64:128|160:64|320:64|384:160|384:320,1,560
96,96,33216,6,0,B|352:96|384:320,2,396.666666666667
64,160,37056,2,0,B|128:288|416:320,2,396.666666666667
64,288,40816,2,0,B|96:160|224:64|416:160|448:320,1,536.666666666667
416,320,44256,5,0
384,224,44736,1,0
320,160,45216,1,0
224,128,45696,1,0
128,128,46016,1,0
64,128,46336,1,0
384,64,63376,6,0,B|384:352,1,280
288,352,65296,1,0
224,352,65776,1,0
160,352,66256,1,0
96,352,66736,1,0
64,320,67216,6,0,B|64:32,1,280
128,32,68736,1,0
192,32,69186,1,0
256,32,69666,1,0
320,32,70146,1,0
384,32,70626,1,0
416,96,71136,6,0,B|96:96,1,303.333333333333
96,160,73056,1,0
96,160,73456,1,0
192,160,74016,1,0
192,160,74416,1,0
96,256,74896,6,0,B|384:256,1,280
384,288,76896,6,0,B|96:288,1,280
128,96,78816,5,0
224,96,79285,1,0
320,96,79675,2,0,B|320:192,1,93.3333333333333
320,256,80457,1,0
384,256,80925,1,0
448,256,81394,2,0,B|448:128,2,116.666666666667
448,96,82644,5,0
352,96,83113,1,0
288,96,83503,2,0,B|192:96,1,93.3333333333333
192,192,84285,1,0
192,192,84832,1,0
288,192,85300,2,0,B|384:192,2,93.3333333333333
416,320,86472,5,0
320,320,86941,1,0
256,320,87332,2,0,B|160:320,1,93.3333333333333
96,320,88113,1,0
64,256,88582,1,0
128,224,89128,1,0
128,224,89441,1,0
128,224,89832,1,0
128,96,90300,6,0,B|288:96,2,140
64,96,91472,1,0
64,192,92019,1,0
96,256,92488,1,0
160,288,92957,1,0
160,288,93191,1,0
256,288,93660,1,0
352,288,94656,5,0
352,224,95136,1,0
352,160,95616,1,0
352,96,96096,1,0
288,96,96576,2,0,B|128:96,2,140
96,96,98416,5,0
96,160,98896,1,0
96,224,99376,1,0
96,288,99856,1,0
96,352,100336,2,0,B|256:352,3,140
288,320,102336,5,0
352,320,102816,1,0
416,320,103296,1,0
480,320,103776,1,0
480,256,104256,1,0
480,192,104736,2,0,B|480:128|384:128,1,116.666666666667
256,96,105696,5,0
160,96,106176,1,0
160,192,106656,1,0
160,288,107136,1,0
192,288,107376,1,0
256,288,107856,1,0
320,288,108176,2,0,B|288:160|128:128,1,256.666666666667
64,128,109936,5,0
64,224,110496,2,0,B|192:320,1,140
256,320,111376,1,0
352,320,111856,1,0
352,224,112336,1,0
448,224,113856,1,0
448,128,114336,1,0
448,32,114816,1,0
352,32,115296,1,0
320,128,115776,1,0
256,32,116256,1,0
224,128,116736,1,0
128,32,117216,6,0,B|128:160,1,116.666666666667
96,224,118096,2,0,B|192:288|384:224,3,280
448,224,121536,1,0
480,128,122016,1,0
448,32,122496,1,0
352,32,122816,1,0
288,32,123136,1,0
288,96,123456,2,0,B|288:224|96:256,2,256.666666666667
384,96,139696,6,0,B|352:224|256:128|96:320,1,373.333333333333
32,224,141696,1,0
32,128,142176,1,0
96,64,142656,1,0
160,64,143136,6,0,B|288:64,1,116.666666666667
320,64,144096,2,0,B|416:128|320:192|416:320,1,280
352,352,145456,1,0
288,352,145936,1,0
224,352,146416,1,0
160,352,146896,1,0
96,352,147936,6,0,B|32:288|96:224,2,140
224,352,149376,2,0,B|384:352|256:256|448:256,1,256.666666666667
448,192,150736,1,0
448,128,151216,1,0
448,32,151776,5,0
352,32,152256,1,0
256,32,152736,1,0
128,32,153696,2,0,B|-23:159|309:217|0:384,1,420
256,32,170976,5,0
160,64,171456,1,0
256,128,171936,1,0
160,160,172416,1,0
256,224,172896,1,0
160,256,173376,1,0
256,320,173856,1,0
160,352,174336,1,0
480,320,175776,5,0
480,256,176256,1,0
480,192,176736,1,0
480,128,177616,2,0,B|384:256|96:32,1,420
96,128,179616,5,0
96,192,180096,1,0
96,256,180496,2,0,B|128:352|288:352|384:320|480:256,1,420
480,192,182496,5,0
448,128,182976,1,0
416,64,183456,1,0
352,32,183936,1,0
288,32,184416,2,0,B|128:64|224:256,2,280
256,64,187216,5,0
256,64,187696,1,0
256,160,188176,1,0
256,160,188656,1,0
256,224,189216,2,0,B|256:352,1,116.666666666667
192,352,190176,1,0
128,352,190576,1,0
96,288,191056,2,0,B|32:224|96:160,4,140
192,288,194016,5,0
256,288,194466,1,0
256,224,194896,1,0
256,352,195376,1,0
320,224,195856,1,0
320,352,196336,1,0
384,352,196816,2,0,B|512:352|513:252|513:252,1,163.333333333333
480,224,197856,5,0
448,160,198336,1,0
384,128,198816,1,0
320,128,199296,2,0,B|256:128|256:224|320:224,2,140
320,64,200736,5,0
256,64,201216,1,0
192,64,201696,2,0,B|-11:60|64:224,1,256.666666666667
96,256,203616,2,0,B|160:320,6,70
96,224,205536,6,0,B|96:96|320:96,1,280
320,128,207456,1,0
320,224,207936,1,0
416,256,208416,1,0
480,192,208896,1,0
448,128,209376,2,0,B|416:32|256:256,1,256.666666666667
256,320,211216,5,0
192,320,211696,2,0,B|96:320,1,93.3333333333333
64,288,212256,1,0
64,224,212736,1,0
64,160,213216,6,0,B|128:64|320:128,1,256.666666666667
352,128,215136,6,0,B|480:192|288:224|448:384,1,280
256,192,217056,12,4,222736
