osu file format v12

[General]
AudioFilename: Rihanna - Diamond.mp3
AudioLeadIn: 0
PreviewTime: 70708
Countdown: 0
SampleSet: Soft
StackLeniency: 0.7
Mode: 0
LetterboxInBreaks: 0
StoryFireInFront: 0
SkinPreference:osu!
EpilepsyWarning: 1
WidescreenStoryboard: 0

[Editor]
Bookmarks: 10826,125596
DistanceSpacing: 1
BeatDivisor: 4
GridSize: 4

[Metadata]
Title:Diamonds
TitleUnicode:Diamonds
Artist:Rihanna
ArtistUnicode:Rihanna
Creator:Helios_Zul
Version:Normal
Source:
Tags:unapologetic diamond guest diff collab jonathanlfj alarido new album mathiasxii
BeatmapID:256257
BeatmapSetID:95402

[Difficulty]
HPDrainRate:4
CircleSize:4
OverallDifficulty:4
ApproachRate:3
SliderMultiplier:1.5
SliderTickRate:0.5

[Events]
//Background and Video events
0,0,"background.jpg",0,0
//Break Periods
2,95152,103507
2,168195,173942
//Storyboard Layer 0 (Background)
//Storyboard Layer 1 (Fail)
//Storyboard Layer 2 (Pass)
//Storyboard Layer 3 (Foreground)
//Storyboard Sound Samples
Sample,76891,0,"normal-hitfinish2.wav",65
Sample,79500,0,"normal-hitfinish2.wav",65
Sample,87326,0,"normal-hitfinish2.wav",65
Sample,89935,0,"normal-hitfinish2.wav",65
Sample,149935,0,"normal-hitfinish2.wav",65
Sample,152543,0,"normal-hitfinish2.wav",65
Sample,160369,0,"normal-hitfinish2.wav",65
Sample,162978,0,"normal-hitfinish2.wav",65
Sample,202108,0,"normal-hitfinish2.wav",65
Sample,204717,0,"normal-hitfinish2.wav",65
Sample,212543,0,"normal-hitfinish2.wav",65
Sample,215152,0,"normal-hitfinish2.wav",65
//Background Colour Transformations
3,100,163,162,255

[TimingPoints]
600,652.173913043478,4,2,2,55,1,0
52773,-100,4,2,2,65,0,1
52936,-100,4,2,2,55,0,0
73642,-100,4,2,2,65,0,1
95164,-100,4,2,2,55,0,0
105599,-100,4,2,2,55,0,0
112773,-100,4,2,2,40,0,0
113099,-100,4,2,2,55,0,0
125816,-100,4,2,2,65,0,1
125979,-100,4,2,2,55,0,0
146686,-100,4,2,2,65,0,1
168207,-100,4,2,2,40,0,0
175381,-100,4,2,2,25,0,0
176033,-100,4,2,2,20,0,0
176686,-100,4,2,2,15,0,0
177338,-100,4,2,2,10,0,0
177990,-100,4,2,2,65,0,1
178153,-100,4,2,2,55,0,0
198860,-100,4,2,2,65,0,1
219729,-100,4,2,2,50,0,0
220381,-100,4,2,2,40,0,0
221033,-100,4,2,2,30,0,0
221686,-100,4,2,2,20,0,0
222338,-100,4,2,2,10,0,0

[Colours]
Combo1 : 186,117,255
Combo2 : 155,247,251
Combo3 : 194,241,245
Combo4 : 255,146,36
Combo5 : 247,180,89
Combo6 : 185,0,185
SliderBorder : 42,42,42
SliderTrackOverride : 215,229,213

[HitObjects]
88,344,11034,1,0,0:0:0:0:
88,268,11360,1,2,0:0:0:0:
88,192,11686,2,0,P|116:136|200:124,2,150,8|0|8,0:0|0:0|0:0,0:0:0:0:
236,188,13643,5,0,0:0:0:0:
208,256,13969,1,2,0:0:0:0:
168,320,14295,2,0,P|264:296|280:256,2,150,8|0|8,0:0|0:0|0:0,0:0:0:0:
56,224,16252,69,4,0:0:0:0:
48,80,16904,6,0,B|120:80|120:80|136:16|200:32,1,150,8|0,0:0|0:0,0:0:0:0:
320,32,18208,2,0,B|355:19|371:83|371:83|443:83,2,150,8|0|8,0:0|0:0|0:0,0:0:0:0:
256,192,20165,12,4,22121,0:0:0:0:
108,176,22773,70,0,B|172:176|172:176|192:120|248:112,1,150,0|8,0:0|0:0,0:0:0:0:
256,192,23752,1,2,0:0:0:0:
280,264,24078,2,0,B|317:260|337:204|337:204|401:204,1,150,0|8,0:0|0:0,0:0:0:0:
332,340,25382,2,0,P|256:348|192:296,1,150,0|8,0:0|0:0,0:0:0:0:
52,280,26686,6,0,P|80:212|144:172,1,150,0|8,0:0|0:0,0:0:0:0:
128,100,27665,1,2,0:0:0:0:
192,52,27991,2,0,P|264:72|340:56,1,150,0|8,0:0|0:0,0:0:0:0:
396,100,28969,1,2,0:0:0:0:
376,172,29295,2,0,P|438:211|466:279,1,150,0|8,0:0|0:0,0:0:0:0:
256,192,30599,12,4,31904,0:0:0:0:
432,192,32556,69,0,0:0:0:0:
432,80,33208,2,0,P|376:120|344:192,1,150,8|0,0:0|0:0,0:0:0:0:
432,304,34513,2,0,P|376:264|344:192,1,150,8|0,0:0|0:0,0:0:0:0:
256,80,35817,2,0,P|312:120|344:192,1,150,8|0,0:0|0:0,0:0:0:0:
256,304,37121,2,0,P|312:264|344:192,1,150,8|0,0:0|0:0,0:0:0:0:
192,192,38426,5,8,0:0:0:0:
128,152,38752,1,0,0:0:0:0:
128,224,39078,1,2,0:0:0:0:
64,192,39404,1,0,0:0:0:0:
64,264,39730,2,0,P|144:296|192:256,1,150,8|0,0:0|0:0,0:0:0:0:
320,192,41034,69,8,0:0:0:0:
384,232,41360,1,0,0:0:0:0:
384,160,41686,1,2,0:0:0:0:
448,192,42013,1,0,0:0:0:0:
448,120,42339,2,0,P|368:88|320:128,3,150,8|0|8|0,0:0|0:0|0:0|0:0,0:0:0:0:
256,256,44947,5,8,0:0:0:0:
256,328,45273,2,0,P|208:312|176:272,1,75
40,280,46252,2,0,B|120:280|120:280|136:224|200:224,1,150,8|0,0:0|0:0,0:0:0:0:
256,112,47556,1,8,0:0:0:0:
256,40,47882,2,0,P|304:56|336:96,1,75,2|0,0:0|0:0,0:0:0:0:
472,88,48860,70,0,B|392:88|392:88|376:144|312:144,1,150,8|0,0:0|0:0,0:0:0:0:
320,68,49839,1,0,0:0:0:0:
252,40,50165,6,0,P|220:80|212:112,2,75,8|2|0,0:0|0:0|0:0,0:0:0:0:
288,184,51469,1,8,0:0:0:0:
256,252,51795,2,0,P|224:212|216:164,1,75,2|0,0:0|0:0,0:0:0:0:
144,40,52773,70,0,P|120:112|144:192,2,150,4|8|0,0:0|0:0|0:0,0:0:0:0:
216,40,54404,1,0,0:0:0:0:
288,40,54730,6,0,B|288:96|288:96|208:104|216:176,2,150,8|0|8,0:0|0:0|0:0,0:0:0:0:
440,40,56686,1,0,0:0:0:0:
296,80,57339,70,0,B|328:96|368:112|368:112|328:136|352:176,1,150,8|0,0:0|0:0,0:0:0:0:
424,184,58317,1,2,0:0:0:0:
384,248,58643,2,0,B|288:248|288:248|248:240|224:192,1,150,8|0,0:0|0:0,0:0:0:0:
128,128,59947,5,8,0:0:0:0:
128,128,60273,1,0,0:0:0:0:
128,128,60599,2,0,B|184:120|200:72|200:72|256:72,1,150,0|8,0:0|0:0,0:0:0:0:
256,144,61578,1,0,0:0:0:0:
256,216,61904,2,0,B|309:216|309:216|325:168|381:160,2,150,0|8|4,0:0|0:0|0:0,0:0:0:0:
408,224,63860,70,0,P|448:160|408:96,1,150,8|0,0:0|0:0,0:0:0:0:
368,160,64839,1,0,0:0:0:0:
296,160,65165,2,0,P|304:200|336:224,1,75,2|0,0:0|0:0,0:0:0:0:
336,296,65817,2,0,B|240:288|184:192|216:72|312:80,1,300,8|0,0:0|0:0,0:0:0:0:
328,144,67447,5,0,0:0:0:0:
360,216,67773,2,0,P|384:200|408:152,1,75,2|0,0:0|0:0,0:0:0:0:
392,88,68426,70,0,P|320:56|248:120,2,150,8|0|8,0:0|0:0|0:0,0:0:0:0:
392,88,70056,1,2,0:0:0:0:
392,88,70382,1,0,0:0:0:0:
468,88,70708,6,0,P|464:128|444:156,1,75,0|8,0:0|0:0,0:0:0:0:
392,88,71360,2,0,P|356:80|316:88,2,75
352,152,72339,2,0,P|312:160|280:152,1,75,8|0,0:0|0:0,0:0:0:0:
204,148,72991,2,0,P|192:108|204:64,2,75,0|0|4,0:0|0:0|0:0,0:0:0:0:
256,308,74621,70,0,L|256:228,1,75
184,232,75273,1,0,0:0:0:0:
224,168,75599,1,8,0:0:0:0:
296,168,75926,1,0,0:0:0:0:
336,232,76252,1,0,0:0:0:0:
256,24,77230,6,0,L|256:112,1,75
184,104,77882,1,0,0:0:0:0:
224,168,78208,1,8,0:0:0:0:
296,168,78534,1,0,0:0:0:0:
336,104,78860,1,0,0:0:0:0:
188,276,79839,70,0,P|212:300|252:308,1,75
316,276,80491,2,0,P|292:300|252:308,1,75,0|8,0:0|0:0,0:0:0:0:
252,236,81143,1,0,0:0:0:0:
184,208,81469,2,0,B|192:168|256:152|256:152|256:96,1,150
328,96,82447,1,0,0:0:0:0:
368,32,82773,2,0,B|408:72|408:128|368:168,2,150,8|0|4,0:0|0:0|0:0,0:0:0:0:
232,96,84730,5,0,0:0:0:0:
160,104,85056,2,0,P|176:144|216:168,1,75,0|8,0:0|0:0,0:0:0:0:
272,168,85708,2,0,P|304:192|312:224,1,75,0|2,0:0|0:0,0:0:0:0:
240,232,86360,2,0,P|224:272|256:304,1,75
40,296,87665,70,0,L|120:264,1,75
80,200,88317,2,0,P|120:192|160:208,1,75,0|8,0:0|0:0,0:0:0:0:
184,272,88969,2,0,P|176:312|136:336,1,75
352,232,90273,6,0,L|352:152,1,75
424,160,90926,1,0,0:0:0:0:
392,88,91252,1,8,0:0:0:0:
320,88,91578,1,0,0:0:0:0:
280,24,91904,70,0,P|248:64|248:96,2,75
320,88,92882,1,0,0:0:0:0:
320,160,93208,6,0,B|216:160|216:160|192:160|168:128,2,150,8|0|4,0:0|0:0|0:0,0:0:0:0:
256,192,104947,5,4,0:0:0:0:
256,192,105273,1,2,0:0:0:0:
256,192,105599,2,0,B|184:192|184:192|152:216|152:216|96:216,2,150,8|0|8,0:0|0:0|0:0,0:0:0:0:
256,120,107230,2,0,P|304:136|328:176,1,75
256,288,108208,6,0,B|256:208|256:208|192:200|184:152,1,150,8|0,0:0|0:0,0:0:0:0:
256,136,109186,1,2,0:0:0:0:
284,68,109513,2,0,B|328:64|348:124|348:124|416:124,1,150,8|0,0:0|0:0,0:0:0:0:
404,200,110491,69,0,0:0:0:0:
404,200,110817,1,8,0:0:0:0:
404,200,111143,2,0,B|316:200|316:200|284:232|284:232|180:232,1,225,0|8,0:0|0:0,0:0:0:0:
180,308,112447,2,0,P|124:276|116:236,2,75,0|2|0,0:0|0:0|0:0,0:0:0:0:
256,308,113426,5,8,0:0:0:0:
256,192,114078,12,4,115382,0:0:0:0:
120,128,116034,70,0,B|120:184|120:184|96:184|96:208|120:208|120:208|120:280,1,150,0|8,0:0|0:0,0:0:0:0:
268,268,117339,2,0,B|196:268|196:268|172:324|124:324,1,150,0|8,0:0|0:0,0:0:0:0:
4,264,118643,2,0,B|76:264|76:264|100:208|148:208,1,150,0|8,0:0|0:0,0:0:0:0:
276,236,119947,2,0,B|280:280|204:284|204:284|132:284,1,150,0|8,0:0|0:0,0:0:0:0:
88,320,120926,1,2,0:0:0:0:
88,248,121252,5,0,0:0:0:0:
232,208,121904,69,8,0:0:0:0:
296,160,122230,1,0,0:0:0:0:
296,232,122556,1,2,0:0:0:0:
360,192,122882,1,0,0:0:0:0:
360,268,123208,6,0,P|292:304|224:252,1,150,8|0,0:0|0:0,0:0:0:0:
296,232,124186,1,0,0:0:0:0:
232,192,124513,2,0,P|296:160|368:200,2,150,8|0|4,0:0|0:0|0:0,0:0:0:0:
84,204,126469,70,0,B|156:204|156:204|172:260|236:268,2,150,0|8|0,0:0|0:0|0:0,0:0:0:0:
104,276,128099,1,0,0:0:0:0:
28,280,128426,2,0,P|52:336|156:328,2,150,8|0|0,0:0|0:0|0:0,0:0:0:0:
28,280,130056,1,2,0:0:0:0:
28,280,130382,1,0,0:0:0:0:
16,112,131034,6,0,B|16:184|16:184|72:192|96:240,2,150,8|0|0,0:0|0:0|0:0,0:0:0:0:
88,112,132665,70,0,B|88:72|88:72|72:48|32:40,2,75,2|8|0,0:0|0:0|0:0,0:0:0:0:
160,120,133643,6,0,B|160:192|160:192|104:200|96:248,1,150
168,264,134621,1,0,0:0:0:0:
244,264,134947,2,0,B|268:292|268:348|268:348|360:348,2,150,0|8|0,0:0|0:0|0:0,0:0:0:0:
392,232,136904,2,0,B|320:232|320:232|312:184|264:144,1,150
280,88,137882,1,0,0:0:0:0:
280,16,138208,70,0,P|344:40|344:120,2,150,8|0|0,0:0|0:0|0:0,0:0:0:0:
200,144,140165,1,0,0:0:0:0:
200,144,140491,1,0,0:0:0:0:
144,96,140817,6,0,P|128:152|192:216,2,150,8|0|8,0:0|0:0|0:0,0:0:0:0:
296,88,142773,69,0,0:0:0:0:
360,136,143099,1,0,0:0:0:0:
296,176,143426,1,8,0:0:0:0:
232,136,143752,1,0,0:0:0:0:
232,208,144078,2,0,P|176:184|168:96,2,150,0|8|0,0:0|0:0|0:0,0:0:0:0:
304,208,145708,6,0,P|312:256|272:272,1,75,2|8,0:0|0:0,0:0:0:0:
224,280,146360,2,0,P|216:320|256:352,1,75,0|4,0:0|0:0,0:0:0:0:
408,200,147665,70,0,L|408:288,1,75
336,280,148317,1,0,0:0:0:0:
376,344,148643,1,8,0:0:0:0:
448,344,148969,1,0,0:0:0:0:
488,280,149295,1,0,0:0:0:0:
280,192,150273,6,0,L|280:104,1,75
208,112,150926,1,0,0:0:0:0:
248,48,151252,1,8,0:0:0:0:
320,48,151578,1,0,0:0:0:0:
360,112,151904,1,0,0:0:0:0:
136,152,152882,70,0,P|112:176|104:216,1,75
132,280,153534,2,0,P|108:256|100:216,1,75,0|8,0:0|0:0,0:0:0:0:
176,220,154186,1,0,0:0:0:0:
200,152,154513,6,0,B|240:160|256:224|256:224|312:224,1,150
312,296,155491,1,0,0:0:0:0:
376,336,155817,2,0,B|336:376|280:376|240:336,2,150,0|8|4,0:0|0:0|0:0,0:0:0:0:
416,112,158099,70,0,P|448:144|464:176,1,75
384,176,158752,2,0,P|400:208|440:240,2,75,0|8|0,0:0|0:0|0:0,0:0:0:0:
312,176,159730,1,0,0:0:0:0:
96,112,160708,6,0,P|64:144|48:176,1,75
128,176,161360,2,0,P|112:208|72:240,2,75,0|8|0,0:0|0:0|0:0,0:0:0:0:
200,176,162339,1,0,0:0:0:0:
320,368,163317,70,0,P|344:336|352:296,1,75
276,308,163969,2,0,P|244:276|236:236,1,75,0|8,0:0|0:0,0:0:0:0:
312,232,164621,1,0,0:0:0:0:
384,240,164947,6,0,P|376:192|280:168,2,150
456,256,166578,2,0,P|432:296|400:312,1,75,0|8,0:0|0:0,0:0:0:0:
376,376,167230,2,0,P|344:344|336:296,1,75,0|4,0:0|0:0,0:0:0:0:
256,192,175382,12,4,177991,0:0:0:0:
128,192,178643,6,0,B|128:144|128:144|192:120|208:64,1,150,0|8,0:0|0:0,0:0:0:0:
352,80,179947,1,0,0:0:0:0:
416,216,180599,2,0,B|416:264|416:264|352:288|336:344,1,150,8|0,0:0|0:0,0:0:0:0:
192,328,181904,1,8,0:0:0:0:
136,280,182230,1,0,0:0:0:0:
208,256,182556,6,0,P|168:208|128:208,1,75
136,136,183208,2,0,P|264:200|256:344,1,300,8|0,0:0|0:0,0:0:0:0:
424,344,185165,1,8,0:0:0:0:
424,344,185491,1,0,0:0:0:0:
496,344,185817,70,0,P|464:288|432:280,1,75
384,272,186469,2,0,B|400:216|464:208|464:208|464:144,2,150,8|0|8,0:0|0:0|0:0,0:0:0:0:
384,272,188099,1,2,0:0:0:0:
384,272,188426,1,0,0:0:0:0:
232,272,189078,5,8,0:0:0:0:
104,192,189730,69,0,0:0:0:0:
232,112,190382,5,8,0:0:0:0:
296,72,190708,1,0,0:0:0:0:
296,144,191034,2,0,P|232:184|168:136,2,150,0|8|0,0:0|0:0|0:0,0:0:0:0:
368,144,192665,1,0,0:0:0:0:
344,216,192991,70,0,P|320:240|280:256,1,75,8|0,0:0|0:0,0:0:0:0:
208,256,193643,2,0,P|88:176|48:24,1,300
168,120,195599,1,8,0:0:0:0:
168,120,195926,5,2,0:0:0:0:
168,120,196252,2,0,B|216:120|216:120|256:144|256:144|344:144,2,150,0|8|0,0:0|0:0|0:0,0:0:0:0:
168,48,197882,1,0,0:0:0:0:
104,88,198208,1,8,0:0:0:0:
104,160,198534,1,0,0:0:0:0:
168,200,198860,69,4,0:0:0:0:
352,328,199839,6,0,L|352:240,1,75
432,240,200491,1,0,0:0:0:0:
392,176,200817,1,8,0:0:0:0:
320,176,201143,1,0,0:0:0:0:
280,240,201469,1,0,0:0:0:0:
160,48,202447,70,0,L|160:128,1,75
240,152,203099,1,0,0:0:0:0:
192,208,203426,1,8,0:0:0:0:
120,208,203752,1,0,0:0:0:0:
80,144,204078,1,0,0:0:0:0:
184,344,205056,6,0,P|160:320|160:272,1,75
232,288,205708,2,0,L|256:280|304:264,1,75,0|8,0:0|0:0,0:0:0:0:
348,204,206360,2,0,P|372:236|380:276,1,75
308,264,207013,1,0,0:0:0:0:
276,196,207339,1,8,0:0:0:0:
240,132,207665,70,0,B|192:132|120:184|120:184|120:220|120:220|120:260|120:260|120:296|120:296|200:356|264:356,1,375,0|4,0:0|0:0,0:0:0:0:
432,224,210273,6,0,P|456:256|456:296,1,75
432,360,210926,2,0,P|456:328|456:288,1,75,0|8,0:0|0:0,0:0:0:0:
384,288,211578,2,0,L|296:288,1,75
248,72,212882,70,0,B|248:96|248:96|248:152,1,75
184,184,213534,2,0,P|224:216|248:220,1,75,0|8,0:0|0:0,0:0:0:0:
312,184,214186,2,0,P|272:216|248:220,1,75
24,256,215491,5,0,0:0:0:0:
80,312,215817,1,0,0:0:0:0:
136,256,216143,1,0,0:0:0:0:
80,200,216469,1,8,0:0:0:0:
48,136,216795,2,0,P|96:128|144:152,1,75
192,144,217447,69,0,0:0:0:0:
256,104,217773,1,0,0:0:0:0:
256,176,218099,1,0,0:0:0:0:
320,144,218426,1,8,0:0:0:0:
384,104,218752,2,0,P|400:144|384:184,2,75,0|0|2,0:0|0:0|0:0,0:0:0:0:
256,192,219730,12,0,222339,0:0:0:0:
