osu file format v12

[General]
AudioFilename: Rihanna - Diamond.mp3
AudioLeadIn: 0
PreviewTime: 70708
Countdown: 0
SampleSet: Soft
StackLeniency: 0.7
Mode: 0
LetterboxInBreaks: 0
StoryFireInFront: 0
SkinPreference:osu!
EpilepsyWarning: 1
WidescreenStoryboard: 0

[Editor]
Bookmarks: 10826,125596
DistanceSpacing: 1
BeatDivisor: 4
GridSize: 4
TimelineZoom: 1

[Metadata]
Title:Diamonds
TitleUnicode:Diamonds
Artist:Rihanna
ArtistUnicode:Rihanna
Creator:Helios_Zul
Version:Hard
Source:
Tags:unapologetic diamond guest diff collab jonathanlfj alarido new album mathiasxii
BeatmapID:256833
BeatmapSetID:95402

[Difficulty]
HPDrainRate:6
CircleSize:4
OverallDifficulty:6
ApproachRate:6
SliderMultiplier:2
SliderTickRate:1

[Events]
//Background and Video events
0,0,"background.jpg",0,0
//Break Periods
2,95365,102593
2,168408,174332
//Storyboard Layer 0 (Background)
//Storyboard Layer 1 (Fail)
//Storyboard Layer 2 (Pass)
//Storyboard Layer 3 (Foreground)
//Storyboard Sound Samples
Sample,167543,0,"normal-hitfinish2",65
//Background Colour Transformations
3,100,163,162,255

[TimingPoints]
600,652.173913043478,4,2,2,55,1,0
33860,-100,4,2,2,55,0,0
35164,-100,4,2,2,55,0,0
36468,-100,4,2,2,55,0,0
52773,-100,4,2,2,65,0,1
52936,-100,4,2,2,55,0,0
63860,-100,4,2,2,25,0,0
64023,-100,4,2,2,55,0,0
68425,-133.333333333333,4,2,2,55,0,0
69729,-100,4,2,2,55,0,0
73642,-100,4,2,2,65,0,1
73805,-100,4,2,2,65,0,1
94512,-133.333333333333,4,2,2,65,0,1
95164,-100,4,2,2,5,0,0
103642,-100,4,2,2,55,0,0
107881,-100,4,2,2,5,0,0
108207,-100,4,2,2,55,0,0
111142,-200,4,2,2,55,0,0
112120,-100,4,2,2,55,0,0
117338,-100,4,2,2,55,0,0
118642,-100,4,2,2,55,0,0
119947,-100,4,2,2,55,0,0
125816,-100,4,2,2,65,0,1
125979,-100,4,2,2,55,0,0
146686,-100,4,2,2,65,0,1
166903,-133.333333333333,4,2,2,65,0,1
168207,-100,4,2,2,5,0,0
175381,-100,4,2,2,25,0,0
176033,-100,4,2,2,20,0,0
176686,-100,4,2,2,15,0,0
177338,-100,4,2,2,10,0,0
177990,-100,4,2,2,65,0,1
178153,-100,4,2,2,55,0,0
198860,-100,4,2,2,65,0,1
208316,-100,4,2,2,5,0,1
208968,-100,4,2,2,5,0,1
209294,-100,4,2,2,65,0,1
219729,-100,4,2,2,50,0,0
220381,-100,4,2,2,40,0,0
221033,-100,4,2,2,30,0,0
221686,-100,4,2,2,20,0,0
222338,-100,4,2,2,10,0,0

[Colours]
Combo1 : 186,117,255
Combo2 : 155,247,251
Combo3 : 194,241,245
Combo4 : 255,146,36
Combo5 : 247,180,89
Combo6 : 185,0,185
SliderBorder : 42,42,42
SliderTrackOverride : 215,229,213

[HitObjects]
64,192,11034,5,0,0:0:0:0:
128,272,11360,1,2,0:0:0:0:
184,352,11686,2,0,P|232:272|168:192,2,200,8|0|8,0:0|0:0|0:0,0:0:0:0:
376,304,13643,5,0,0:0:0:0:
448,232,13969,1,2,0:0:0:0:
496,144,14295,2,0,P|384:144|352:240,2,200,8|2|8,0:0|0:0|0:0,0:0:0:0:
328,40,16252,1,4,0:0:0:0:
176,168,16904,69,0,0:0:0:0:
272,168,17230,1,2,0:0:0:0:
120,224,17556,2,0,P|96:176|200:96,1,200,8|0,0:0|0:0,0:0:0:0:
288,96,18534,1,2,0:0:0:0:
196,24,18860,2,0,P|104:40|36:116,1,200,8|0,0:0|0:0,0:0:0:0:
256,192,20165,12,4,21469,0:0:0:0:
424,192,22121,5,0,0:0:0:0:
352,264,22447,1,0,0:0:0:0:
248,264,22773,2,0,B|248:208|248:208|344:184|364:128,1,200,8|0,0:0|0:0,0:0:0:0:
436,72,23752,1,2,0:0:0:0:
344,40,24078,2,0,B|304:40|304:40|296:128|176:112,1,200,8|0,0:0|0:0,0:0:0:0:
88,112,25056,69,0,0:0:0:0:
84,24,25382,2,0,P|4:84|28:180,2,200,8|0|8,0:0|0:0|0:0,0:0:0:0:
88,112,27013,1,2,0:0:0:0:
184,140,27339,2,0,B|152:204|96:204|96:204|96:308,1,200,0|8,0:0|0:0,0:0:0:0:
196,280,28317,1,0,0:0:0:0:
252,364,28643,2,0,B|320:384|328:276|328:276|420:276,2,200,0|8|0,0:0|0:0|0:0,0:0:0:0:
256,192,30599,12,4,31904,0:0:0:0:
432,192,32556,6,0,B|432:128|432:128|352:120|312:72|312:40,1,200,0|8,0:0|0:0,0:0:0:0:
256,192,33534,1,2,0:0:0:0:
80,192,33860,2,0,B|80:128|80:128|160:120|200:72|200:40,1,200,0|8,0:0|0:0,0:0:0:0:
256,192,34839,1,2,0:0:0:0:
432,192,35165,2,0,B|432:256|432:256|352:264|312:312|312:344,1,200,0|8,0:0|0:0,0:0:0:0:
256,192,36143,1,2,0:0:0:0:
80,192,36469,2,0,B|80:256|80:256|160:264|200:312|200:344,1,200,0|8,0:0|0:0,0:0:0:0:
280,368,37447,2,0,P|296:320|272:272,1,100
400,192,38263,69,0,0:0:0:0:
400,192,38426,1,10,0:0:0:0:
328,120,38752,1,0,0:0:0:0:
256,192,39078,1,0,0:0:0:0:
328,264,39404,1,0,0:0:0:0:
424,304,39730,6,0,P|336:344|240:304,1,200,8|0,0:0|0:0,0:0:0:0:
112,192,40871,1,0,0:0:0:0:
112,192,41034,1,10,0:0:0:0:
184,120,41360,1,0,0:0:0:0:
256,192,41686,1,0,0:0:0:0:
184,264,42013,1,0,0:0:0:0:
96,312,42339,70,0,P|184:352|280:312,1,200,8|0,0:0|0:0,0:0:0:0:
352,248,43317,1,0,0:0:0:0:
440,192,43643,2,0,P|348:156|260:196,2,200,8|0|8,0:0|0:0|0:0,0:0:0:0:
352,248,45273,1,2,0:0:0:0:
352,344,45599,2,0,B|280:320|256:272|256:272|184:240,3,200,0|8|0|8,0:0|0:0|0:0|0:0,0:0:0:0:
144,328,47882,1,2,0:0:0:0:
96,240,48208,1,0,0:0:0:0:
176,112,48697,5,0,0:0:0:0:
176,112,48860,1,10,0:0:0:0:
264,64,49186,2,0,P|280:112|264:160,1,100
176,112,49839,1,0,0:0:0:0:
88,64,50165,2,0,P|72:112|88:160,2,100,8|2|0,0:0|0:0|0:0,0:0:0:0:
240,192,51469,2,0,P|258:247|240:306,2,100,8|2|0,0:0|0:0|0:0,0:0:0:0:
160,248,52447,2,0,L|48:248,1,100,0|4,0:0|0:0,0:0:0:0:
56,48,53426,70,0,B|56:152|56:152|96:176|128:176|176:160,2,200,0|8|0,0:0|0:0|0:0,0:0:0:0:
152,88,55056,1,0,0:0:0:0:
248,120,55382,2,0,B|248:224|248:224|208:248|176:248|128:232,2,200,8|0|8,0:0|0:0|0:0,0:0:0:0:
347,112,57013,1,0,0:0:0:0:
389,30,57339,2,0,P|437:62|445:134,1,100
384,208,57991,2,0,P|280:176|264:64,2,200,8|0|8,0:0|0:0|0:0,0:0:0:0:
384,112,59621,6,0,P|448:144|464:192,1,100
464,264,60273,1,0,0:0:0:0:
408,344,60599,2,0,B|366:310|368:256|368:256|248:256,1,200,8|0,0:0|0:0,0:0:0:0:
224,344,61578,1,0,0:0:0:0:
175,256,61904,2,0,B|75:256|75:256|77:310|35:344,2,200,8|2|8,0:0|0:0|0:0,0:0:0:0:
256,128,63697,69,0,0:0:0:0:
256,128,63860,1,2,0:0:0:0:
256,224,64186,2,0,B|256:200|256:200|304:192|328:152,1,100,0|8,0:0|0:0,0:0:0:0:
360,72,64839,1,0,0:0:0:0:
424,152,65165,1,0,0:0:0:0:
424,248,65491,1,0,0:0:0:0:
352,320,65817,6,0,B|280:320|208:368|304:368|272:320|160:320,2,200,8|0|8,0:0|0:0|0:0,0:0:0:0:
424,248,67447,1,0,0:0:0:0:
480,168,67773,2,0,P|448:120|400:80,1,100
328,48,68426,70,0,B|280:48|256:168|256:168|224:48|176:48,1,300.000011444092,8|8,0:0|0:0,0:0:0:0:
100,92,70056,6,0,P|60:124|37:168,1,100
48,264,70708,1,0,0:0:0:0:
64,360,71034,70,0,B|128:328|144:264|144:264|248:264,1,200,8|0,0:0|0:0,0:0:0:0:
256,352,72013,1,0,0:0:0:0:
296,264,72339,2,0,B|366:264|366:264|382:328|446:360,2,200,8|0|4,0:0|0:0|0:0,0:0:0:0:
112,192,74295,5,0,0:0:0:0:
52,112,74621,2,0,P|76:56|124:24,1,100,0|8,0:0|0:0,0:0:0:0:
156,120,75273,1,0,0:0:0:0:
156,120,75436,1,0,0:0:0:0:
156,120,75599,2,0,P|196:192|108:280,2,200,2|4|0,0:0|0:0|0:0,0:0:0:0:
344,264,77230,70,0,P|368:320|416:352,1,100,0|8,0:0|0:0,0:0:0:0:
440,264,77882,1,0,0:0:0:0:
440,264,78045,1,0,0:0:0:0:
440,264,78208,2,0,P|480:192|392:104,2,200,2|4|0,0:0|0:0|0:0,0:0:0:0:
296,316,79839,6,0,B|256:284|256:284|216:316,1,100,0|8,0:0|0:0,0:0:0:0:
136,260,80491,1,0,0:0:0:0:
172,232,80654,1,0,0:0:0:0:
208,204,80817,2,0,B|256:180|256:180|312:212,1,100,2|0,0:0|0:0,0:0:0:0:
376,260,81469,70,0,B|376:176|376:176|344:132|272:100,1,200,8|0,0:0|0:0,0:0:0:0:
244,20,82447,1,0,0:0:0:0:
200,108,82773,2,0,B|142:133|110:173|110:173|110:261,2,200,8|0|4,0:0|0:0|0:0,0:0:0:0:
400,96,84730,5,0,0:0:0:0:
492,96,85056,2,0,B|478:180|478:180|472:184|437:189,1,100,0|8,0:0|0:0,0:0:0:0:
400,264,85708,1,0,0:0:0:0:
400,264,85871,1,0,0:0:0:0:
400,264,86034,2,0,B|368:184|368:184|305:161|303:89,2,200,2|4|0,0:0|0:0|0:0,0:0:0:0:
328,336,87665,70,0,L|216:336,1,100,0|8,0:0|0:0,0:0:0:0:
160,264,88317,1,0,0:0:0:0:
160,264,88480,1,0,0:0:0:0:
160,264,88643,2,0,B|192:184|192:184|255:161|257:89,2,200,2|4|0,0:0|0:0|0:0,0:0:0:0:
96,336,90273,6,0,P|64:296|72:240,1,100,0|8,0:0|0:0,0:0:0:0:
160,216,90926,1,0,0:0:0:0:
160,216,91089,1,0,0:0:0:0:
160,216,91252,2,0,P|192:256|184:312,1,100,2|0,0:0|0:0,0:0:0:0:
288,304,91904,70,0,P|264:192|176:120,1,200,8|0,0:0|0:0,0:0:0:0:
128,72,92882,1,0,0:0:0:0:
48,136,93208,2,0,B|88:184|88:184|192:192|200:272,1,200,8|0,0:0|0:0,0:0:0:0:
256,336,94186,1,0,0:0:0:0:
368,336,94513,2,0,P|336:260|256:228,1,150.000005722046,4|4,0:0|0:0,0:0:0:0:
256,192,103643,12,4,104947,0:0:0:0:
256,192,105599,21,0,0:0:0:0:
160,192,105926,2,0,B|160:160|192:136|192:136|200:96,1,100,0|8,0:0|0:0,0:0:0:0:
256,24,106578,1,2,0:0:0:0:
312,104,106904,2,0,B|318:136|318:136|350:160|350:192,1,100
312,284,107556,2,0,B|318:251|318:251|350:227|350:195,1,100,8|2,0:0|0:0,0:0:0:0:
424,136,108208,1,0,0:0:0:0:
512,192,108534,5,0,0:0:0:0:
424,248,108860,2,0,B|424:216|424:216|368:216|312:200|304:112,2,200,8|0|8,0:0|0:0|0:0,0:0:0:0:
416,344,110491,1,0,0:0:0:0:
344,280,110817,1,0,0:0:0:0:
280,344,111143,70,0,B|256:304|248:280|248:280|152:248,1,150,0|8,0:0|0:0,0:0:0:0:
88,304,112447,5,0,0:0:0:0:
88,208,112773,2,0,B|160:176|160:176|240:176|272:88,1,200,2|0,0:0|0:0,0:0:0:0:
256,192,114078,12,4,115382,0:0:0:0:
80,192,116034,70,0,B|80:128|80:128|160:120|200:72|200:40,1,200,0|8,0:0|0:0,0:0:0:0:
256,192,117013,1,2,0:0:0:0:
432,192,117339,2,0,B|432:128|432:128|352:120|312:72|312:40,1,200,0|8,0:0|0:0,0:0:0:0:
256,192,118317,1,2,0:0:0:0:
80,192,118643,2,0,B|80:256|80:256|160:264|200:312|200:344,1,200,0|8,0:0|0:0,0:0:0:0:
256,192,119621,1,2,0:0:0:0:
432,192,119947,2,0,B|432:256|432:256|352:264|312:312|312:344,1,200,0|8,0:0|0:0,0:0:0:0:
232,368,120926,2,0,P|216:320|240:256,1,100,2|0,0:0|0:0,0:0:0:0:
88,208,121741,5,0,0:0:0:0:
88,208,121904,1,8,0:0:0:0:
160,136,122230,1,0,0:0:0:0:
232,208,122556,1,0,0:0:0:0:
160,280,122882,1,0,0:0:0:0:
76,332,123208,70,0,P|164:380|252:324,1,200
160,280,124186,1,0,0:0:0:0:
232,208,124513,2,0,P|184:124|228:39,2,200,8|0|4,0:0|0:0|0:0,0:0:0:0:
372,352,126469,6,0,B|372:240|372:240|348:184|316:216|276:248,2,200,0|8|0,0:0|0:0|0:0,0:0:0:0:
256,368,128099,1,0,0:0:0:0:
156,352,128426,2,0,B|156:240|156:240|180:184|212:216|252:248,2,200,8|0|8,0:0|0:0|0:0,0:0:0:0:
56,312,130056,1,0,0:0:0:0:
0,232,130382,2,0,B|32:208|64:200|64:200|64:160,1,100,0|0,0:0|0:0,0:0:0:0:
28,80,131034,2,0,P|96:80|156:196,2,200,0|0|8,0:0|0:0|0:0,0:0:0:0:
152,24,132665,1,2,0:0:0:0:
248,24,132991,1,0,0:0:0:0:
344,24,133317,1,0,0:0:0:0:
440,64,133643,70,0,B|440:88|440:88|400:96|344:104|360:224,2,200,8|0|8,0:0|0:0|0:0,0:0:0:0:
344,24,135273,1,0,0:0:0:0:
256,80,135599,1,0,0:0:0:0:
168,24,135926,1,0,0:0:0:0:
88,96,136252,2,0,B|152:176|256:264|368:176|424:96,1,400,8|8,0:0|0:0,0:0:0:0:
464,192,137882,5,0,0:0:0:0:
384,252,138208,2,0,P|364:300|304:332,1,100
276,248,138860,2,0,B|292:180|364:168|364:168|364:88,2,200,8|0|8,0:0|0:0|0:0,0:0:0:0:
221,331,140491,1,0,0:0:0:0:
133,323,140817,2,0,P|149:275|205:247,1,100
168,176,141469,2,0,P|80:232|48:328,2,200,8|0|8,0:0|0:0|0:0,0:0:0:0:
128,84,143099,1,0,0:0:0:0:
228,84,143426,1,0,0:0:0:0:
328,84,143752,69,0,0:0:0:0:
328,84,143915,1,0,0:0:0:0:
328,84,144078,2,0,B|328:164|328:164|352:196|352:196|352:276,1,200,8|0,0:0|0:0,0:0:0:0:
256,296,145056,1,0,0:0:0:0:
160,276,145382,2,0,B|160:196|160:196|184:164|184:164|184:84,2,200,8|0|4,0:0|0:0|0:0,0:0:0:0:
344,192,147339,5,0,0:0:0:0:
440,192,147665,2,0,P|408:128|376:112,1,100,0|8,0:0|0:0,0:0:0:0:
288,120,148317,1,0,0:0:0:0:
256,160,148480,1,0,0:0:0:0:
248,208,148643,2,0,P|304:272|416:256,2,200,0|4|0,0:0|0:0|0:0,0:0:0:0:
152,200,150273,70,0,P|168:248|208:296,1,100,0|8,0:0|0:0,0:0:0:0:
256,368,150926,1,0,0:0:0:0:
256,368,151089,1,0,0:0:0:0:
256,368,151252,2,0,B|208:386|140:380|110:343|84:290,2,200,0|4|0,0:0|0:0|0:0,0:0:0:0:
256,264,152882,6,0,P|304:248|336:192,1,100,0|8,0:0|0:0,0:0:0:0:
320,120,153534,1,0,0:0:0:0:
320,120,153697,1,0,0:0:0:0:
320,120,153860,2,0,P|272:152|272:208,1,100
168,192,154513,1,8,0:0:0:0:
104,264,154839,1,0,0:0:0:0:
8,248,155165,2,0,B|40:200|40:200|104:200|104:136|104:136|168:104,2,200,0|8|0,0:0|0:0|0:0,0:0:0:0:
64,328,156795,1,0,0:0:0:0:
152,368,157121,2,0,B|176:312|176:312|216:304|248:256|224:200,1,200,4|0,0:0|0:0,0:0:0:0:
128,224,158099,70,0,P|112:168|176:128,1,100,0|8,0:0|0:0,0:0:0:0:
216,80,158752,1,0,0:0:0:0:
216,80,158915,1,0,0:0:0:0:
216,80,159078,2,0,B|296:80|296:80|312:128|328:144|392:144,2,200,0|4|0,0:0|0:0|0:0,0:0:0:0:
208,176,160708,6,0,B|256:176|256:176|280:208|304:208,1,100,0|8,0:0|0:0,0:0:0:0:
392,216,161360,1,0,0:0:0:0:
376,264,161523,1,0,0:0:0:0:
336,288,161686,2,0,B|272:288|224:248|224:248|136:248,2,200,0|4|0,0:0|0:0|0:0,0:0:0:0:
424,240,163317,69,0,0:0:0:0:
360,160,163643,1,8,0:0:0:0:
432,88,163969,2,0,P|408:72|368:64,1,50
336,56,164295,2,0,P|288:88|264:136,1,100
208,208,164947,2,0,B|272:256|328:240|296:216|304:280|368:312,1,200,8|0,0:0|0:0,0:0:0:0:
456,264,165926,1,0,0:0:0:0:
496,176,166252,1,8,0:0:0:0:
456,80,166578,1,0,0:0:0:0:
376,24,166904,2,0,B|356:84|256:88|256:88|356:112|380:176,1,300.000011444092,0|0,0:0|0:0,0:0:0:0:
256,192,175382,12,4,177991,0:0:0:0:
168,144,178643,22,0,B|120:184|120:184|120:272|24:272,2,200,0|8|0,0:0|0:0|0:0,0:0:0:0:
256,192,180273,1,2,0:0:0:0:
344,144,180599,6,0,B|392:184|392:184|392:272|488:272,2,200,0|0|8,0:0|0:0|0:0,0:0:0:0:
304,56,182230,1,2,0:0:0:0:
208,56,182556,2,0,B|208:96|208:96|248:96|272:160,1,100
224,223,183208,70,0,B|276:242|320:215|336:191|336:191|416:191,2,200,8|0|8,0:0|0:0|0:0,0:0:0:0:
120,168,184839,1,0,0:0:0:0:
120,264,185165,1,0,0:0:0:0:
32,216,185491,1,0,0:0:0:0:
48,316,185817,6,0,B|120:380|184:324|184:324|272:316,2,200,8|0|8,0:0|0:0|0:0,0:0:0:0:
120,264,187447,1,0,0:0:0:0:
32,216,187773,1,0,0:0:0:0:
120,164,188099,1,0,0:0:0:0:
48,92,188426,2,0,B|120:28|184:84|184:84|272:92,2,200,8|0|8,0:0|0:0|0:0,0:0:0:0:
124,156,190056,69,0,0:0:0:0:
80,244,190382,2,0,P|128:268|168:236,1,100
264,232,191034,2,0,P|216:312|104:352,2,200,8|0|8,0:0|0:0|0:0,0:0:0:0:
264,120,192665,5,0,0:0:0:0:
360,120,192991,2,0,B|360:80|360:80|320:64|304:32,1,100
216,40,193643,2,0,P|168:120|224:200,2,200,8|0|8,0:0|0:0|0:0,0:0:0:0:
272,120,195273,1,0,0:0:0:0:
368,120,195599,1,0,0:0:0:0:
368,216,195926,1,0,0:0:0:0:
472,216,196252,70,0,P|432:296|328:304,2,200,8|0|8,0:0|0:0|0:0,0:0:0:0:
460,116,197882,1,0,0:0:0:0:
372,72,198208,1,0,0:0:0:0:
372,172,198534,2,0,P|316:160|284:120,1,100,0|4,0:0|0:0,0:0:0:0:
176,216,199513,1,0,0:0:0:0:
80,232,199839,6,0,B|88:288|144:304|144:304,1,100,0|8,0:0|0:0,0:0:0:0:
240,296,200491,1,0,0:0:0:0:
260,252,200654,1,0,0:0:0:0:
272,208,200817,2,0,P|240:144|96:152,2,200,0|4|0,0:0|0:0|0:0,0:0:0:0:
272,312,202447,70,0,P|336:280|352:248,1,100,0|8,0:0|0:0,0:0:0:0:
352,160,203099,1,0,0:0:0:0:
352,160,203263,1,0,0:0:0:0:
352,160,203426,2,0,B|408:160|408:160|416:224|448:264|512:264,2,200,0|4|0,0:0|0:0|0:0,0:0:0:0:
344,64,205056,6,0,P|296:88|272:128,1,100,0|8,0:0|0:0,0:0:0:0:
256,224,205708,1,0,0:0:0:0:
208,200,205871,1,0,0:0:0:0:
176,160,206034,2,0,B|136:120|136:120|152:64|256:8,2,200,0|4|0,0:0|0:0|0:0,0:0:0:0:
264,120,207665,2,0,B|320:160|260:176|260:176|384:192|384:192|384:268|384:268|260:284|260:284|312:312|240:344,1,500,2|4,0:0|0:0,0:0:0:0:
56,296,209947,1,0,0:0:0:0:
144,344,210273,70,0,P|160:280|136:232,1,100,0|8,0:0|0:0,0:0:0:0:
56,216,210926,1,0,0:0:0:0:
56,216,211089,1,0,0:0:0:0:
56,216,211252,2,0,B|56:160|56:160|128:160|160:120|160:64,2,200,0|4|0,0:0|0:0|0:0,0:0:0:0:
56,312,212882,6,0,P|128:272|128:216,1,100,0|8,0:0|0:0,0:0:0:0:
232,264,213534,1,0,0:0:0:0:
232,264,213697,1,0,0:0:0:0:
232,264,213860,2,0,B|232:224|232:224|232:208|232:200|232:192|232:160|232:160|232:56,2,200,0|4|0,0:0|0:0|0:0,0:0:0:0:
248,360,215491,70,0,P|304:336|320:280,1,100,0|8,0:0|0:0,0:0:0:0:
320,200,216143,1,0,0:0:0:0:
320,200,216306,1,0,0:0:0:0:
320,200,216469,2,0,B|384:200|384:200|392:256|416:304|480:312,1,200
512,160,217447,5,0,0:0:0:0:
512,160,217773,1,8,0:0:0:0:
452,30,218099,1,0,0:0:0:0:
452,30,218263,1,0,0:0:0:0:
452,28,218426,2,0,B|412:30|388:78|380:134|380:134|316:134,1,200,2|10,0:0|0:0,0:0:0:0:
240,192,219404,1,2,0:0:0:0:
256,192,219730,12,0,222339,0:0:0:0:
