osu file format v12

[General]
AudioFilename: Rihanna - Diamond.mp3
AudioLeadIn: 0
PreviewTime: 70708
Countdown: 0
SampleSet: Soft
StackLeniency: 0.7
Mode: 0
LetterboxInBreaks: 0
StoryFireInFront: 0
EpilepsyWarning: 1
WidescreenStoryboard: 0

[Editor]
Bookmarks: 10826,112773,146686,198860
DistanceSpacing: 1.2
BeatDivisor: 4
GridSize: 4

[Metadata]
Title:Diamonds
TitleUnicode:Diamonds
Artist:Rihanna
ArtistUnicode:Rihanna
Creator:Helios_Zul
Version:Easy
Source:
Tags:unapologetic diamond guest diff collab jonathanlfj alarido new album mathiasxii
BeatmapID:256256
BeatmapSetID:95402

[Difficulty]
HPDrainRate:2
CircleSize:3
OverallDifficulty:2
ApproachRate:2
SliderMultiplier:1
SliderTickRate:1

[Events]
//Background and Video events
0,0,"background.jpg",0,0
//Break Periods
2,94712,103387
2,167755,173822
//Storyboard Layer 0 (Background)
//Storyboard Layer 1 (Fail)
//Storyboard Layer 2 (Pass)
//Storyboard Layer 3 (Foreground)
//Storyboard Sound Samples
//Background Colour Transformations
3,100,163,162,255

[TimingPoints]
600,652.173913043478,4,2,2,55,1,8
50490,-100,4,2,2,40,0,8
50816,-100,4,2,2,55,0,8
51794,-100,4,2,2,40,0,8
52120,-100,4,2,2,55,0,8
52773,-100,4,2,2,65,0,9
52936,-100,4,2,2,65,0,8
73642,-100,4,2,2,65,0,9
94512,-100,4,2,2,65,0,8
105599,-100,4,2,2,55,0,8
125816,-100,4,2,2,65,0,9
125979,-100,4,2,2,55,0,8
146686,-100,4,2,2,65,0,9
167555,-100,4,2,2,65,0,8
175381,-100,4,2,2,25,0,8
176033,-100,4,2,2,20,0,8
176686,-100,4,2,2,15,0,8
177338,-100,4,2,2,10,0,8
177990,-100,4,2,2,65,0,9
178153,-100,4,2,2,55,0,8
198860,-100,4,2,2,65,0,9
219729,-100,4,2,2,50,0,8
220381,-100,4,2,2,40,0,8
221033,-100,4,2,2,30,0,8
221686,-100,4,2,2,20,0,8
222338,-100,4,2,2,10,0,8

[Colours]
Combo1 : 186,117,255
Combo2 : 155,247,251
Combo3 : 194,241,245
Combo4 : 255,146,36
Combo5 : 247,180,89
Combo6 : 185,0,185
SliderBorder : 42,42,42
SliderTrackOverride : 215,229,213

[HitObjects]
152,200,11034,2,0,B|240:120|240:120|336:120,2,200,0|2|0,0:0|0:0|0:0,0:0:0:0:
200,304,14295,2,0,B|312:304|312:304|376:240,2,200,0|2|0,0:0|0:0|0:0,0:0:0:0:
248,192,17556,5,2,0:0:0:0:
200,80,18208,2,0,B|312:80|312:80|376:144,1,200,0|2,0:0|0:0,0:0:0:0:
264,192,20165,1,0,0:0:0:0:
344,288,20817,2,0,B|304:328|304:328|216:328|216:328|176:288,1,200,0|4,0:0|0:0,0:0:0:0:
184,168,22773,70,0,B|256:96|256:96|328:168,1,200
256,264,24730,1,2,0:0:0:0:
348,328,25382,2,0,B|308:352|308:352|308:352|308:352|256:344|256:344|200:352|200:352|160:328,1,200,0|4,0:0|0:0,0:0:0:0:
104,224,27339,6,0,B|72:184|72:184|72:128,1,100,0|0,0:0|0:0,0:0:0:0:
168,64,28643,2,0,B|224:64|224:64|256:96|256:96|288:64|288:64|344:64,1,200,2|0,0:0|0:0,0:0:0:0:
440,135,30599,2,0,B|440:184|440:184|408:224,1,100,2|0,0:0|0:0,0:0:0:0:
344,328,31904,1,4,0:0:0:0:
256,248,32556,69,0,0:0:0:0:
168,328,33208,1,8,0:0:0:0:
72,248,33860,2,0,B|40:208|40:208|40:152,3,100,0|8|0|8,0:0|0:0|0:0|0:0,0:0:0:0:
112,64,36469,1,0,0:0:0:0:
208,132,37121,6,0,B|248:108|248:108|248:52,1,100,8|0,0:0|0:0,0:0:0:0:
144,128,39730,70,0,L|256:128,1,100,8|0,0:0|0:0,0:0:0:0:
376,192,41034,1,8,0:0:0:0:
288,272,41686,2,0,B|248:312|248:312|248:360,1,100,0|8,0:0|0:0,0:0:0:0:
188,364,42665,1,2,0:0:0:0:
132,352,42991,6,0,B|52:272|52:272|52:176,1,200,0|2,0:0|0:0,0:0:0:0:
60,64,44947,1,8,0:0:0:0:
108,88,45273,1,2,0:0:0:0:
152,112,45599,2,0,B|216:88|216:88|284:88|284:88|356:116,1,200,0|2,0:0|0:0,0:0:0:0:
460,88,47556,69,8,0:0:0:0:
444,144,47882,1,2,0:0:0:0:
424,192,48208,2,0,B|424:264|424:264|376:312|376:312|304:312,1,200
192,304,50165,6,0,L|152:256,2,50,8|2|0,0:0|0:0|0:0,0:0:0:0:
272,216,51469,2,0,L|304:168,2,50,8|2|0,0:0|0:0|0:0,0:0:0:0:
152,216,52773,70,0,B|96:216|96:216|40:160|40:160|40:80,1,200,4|0,0:0|0:0,0:0:0:0:
160,88,54730,1,8,0:0:0:0:
264,28,55382,2,0,B|308:92|264:156|264:156|264:232,1,200
228,332,57339,1,8,0:0:0:0:
344,368,57991,6,0,B|344:305|344:305|392:249|392:249|456:249,1,200,0|0,0:0|0:0,0:0:0:0:
396,124,59947,1,8,0:0:0:0:
284,88,60599,70,0,P|196:96|152:192,1,200
264,232,62556,2,0,P|308:324|396:332,1,200,8|0,0:0|0:0,0:0:0:0:
396,224,64513,1,8,0:0:0:0:
464,136,65165,5,0,0:0:0:0:
344,128,65817,2,0,B|272:128|272:128|224:72|224:72|224:0,1,200,2|0,0:0|0:0,0:0:0:0:
128,92,67773,69,8,0:0:0:0:
48,180,68426,2,0,B|120:180|120:180|168:236|168:236|168:290,1,200,2|0,0:0|0:0,0:0:0:0:
260,212,70382,1,8,0:0:0:0:
336,304,71034,6,0,P|412:312|392:212,2,200,0|0|4,0:0|0:0|0:0,0:0:0:0:
260,212,74295,1,2,0:0:0:0:
168,136,74947,70,0,B|128:96|128:96|64:96,2,100,0|8|0,0:0|0:0|0:0,0:0:0:0:
276,192,76904,1,4,0:0:0:0:
168,256,77556,6,0,B|128:296|128:296|64:296,2,100,0|8|0,0:0|0:0|0:0,0:0:0:0:
272,192,79513,1,4,0:0:0:0:
368,128,80165,2,0,B|408:88|408:88|472:88,2,100,0|8|0,0:0|0:0|0:0,0:0:0:0:
248,128,82121,70,0,P|232:216|400:332,1,300,0|4,0:0|0:0,0:0:0:0:
496,304,84730,1,2,0:0:0:0:
488,192,85382,6,0,B|488:168|488:168|448:152|456:88,2,100,0|8|0,0:0|0:0|0:0,0:0:0:0:
368,192,87339,1,4,0:0:0:0:
248,192,87991,70,0,B|248:168|248:168|288:152|280:88,2,100,0|8|0,0:0|0:0|0:0,0:0:0:0:
128,192,89947,1,4,0:0:0:0:
188,296,90599,2,0,P|236:312|284:296,2,100,0|8|0,0:0|0:0|0:0,0:0:0:0:
236,184,92556,2,0,P|344:116|492:208,1,300,0|4,0:0|0:0,0:0:0:0:
176,192,104947,21,4,0:0:0:0:
256,104,105599,6,0,B|320:144|256:192|320:224|264:288,1,200,0|8,0:0|0:0,0:0:0:0:
192,192,107556,1,0,0:0:0:0:
112,104,108208,70,0,B|48:144|112:192|48:224|104:288,1,200,2|8,0:0|0:0,0:0:0:0:
200,312,110165,2,0,B|232:260|232:260|232:204,2,100,0|0|2,0:0|0:0|0:0,0:0:0:0:
344,312,112121,2,0,B|312:264|312:264|312:200,2,100,8|0|2,0:0|0:0|0:0,0:0:0:0:
436,220,114078,2,0,B|436:128|436:128|424:96|404:72|344:60,1,200,0|4,0:0|0:0,0:0:0:0:
352,184,116034,5,0,0:0:0:0:
352,304,116686,1,8,0:0:0:0:
256,240,117339,1,0,0:0:0:0:
148,184,117991,69,0,0:0:0:0:
152,244,118317,1,2,0:0:0:0:
160,304,118643,2,0,B|192:304|192:304|256:348|316:304|316:304|352:304,1,200,8|8,0:0|0:0,0:0:0:0:
440,236,120599,5,0,0:0:0:0:
388,208,120926,1,2,0:0:0:0:
344,184,121252,2,0,B|316:184|316:184|256:144|192:184|192:184|152:184,1,200,8|8,0:0|0:0,0:0:0:0:
80,276,123208,69,0,0:0:0:0:
0,192,123860,1,8,0:0:0:0:
80,104,124513,1,0,0:0:0:0:
164,192,125165,1,8,0:0:0:0:
232,288,125817,6,0,B|232:240|232:240|260:188|232:144|232:144|232:88,1,200,4|0,0:0|0:0,0:0:0:0:
324,192,127773,1,8,0:0:0:0:
412,288,128426,2,0,B|412:232|412:232|388:192|412:152|412:152|412:88,1,200
480,192,130382,69,8,0:0:0:0:
488,312,131034,2,0,P|416:364|332:304,1,200
296,192,132991,1,8,0:0:0:0:
256,304,133643,6,0,B|192:288|172:260|172:260|152:288|80:312,1,200
68,192,135599,2,0,P|124:112|52:48,2,200,0|8|0,0:0|0:0|0:0,0:0:0:0:
152,260,138860,70,0,B|208:260|208:260|268:232|268:232|308:160,1,200
424,164,140817,1,8,0:0:0:0:
304,164,141469,6,0,B|270:102|270:102|210:74|210:74|146:74,1,200
60,156,143426,1,8,0:0:0:0:
172,212,144078,69,0,0:0:0:0:
68,272,144730,1,8,0:0:0:0:
176,328,145382,2,0,P|244:304|268:264,2,100,0|8|4,0:0|0:0|0:0,0:0:0:0:
72,304,147339,5,2,0:0:0:0:
16,208,147991,2,0,B|112:208|112:208|168:176|216:216,1,200,8|0,0:0|0:0,0:0:0:0:
256,320,149947,1,4,0:0:0:0:
304,208,150599,70,0,B|345:173|401:205|401:205|497:205,1,200,8|0,0:0|0:0,0:0:0:0:
496,88,152556,1,4,0:0:0:0:
384,40,153208,2,0,P|360:88|384:136,2,100,8|0|0,0:0|0:0|0:0,0:0:0:0:
264,40,155165,2,0,P|288:88|264:136,2,100,0|8|0,0:0|0:0|0:0,0:0:0:0:
152,88,157121,1,4,0:0:0:0:
56,168,157773,6,0,B|112:168|152:208|192:168|256:168,1,200,8|8,0:0|0:0,0:0:0:0:
368,200,159730,1,0,0:0:0:0:
256,248,160382,70,0,B|194:248|154:208|114:248|58:248,1,200,4|8,0:0|0:0,0:0:0:0:
152,320,162339,1,0,0:0:0:0:
232,232,162991,1,4,0:0:0:0:
152,144,163643,1,0,0:0:0:0:
64,232,164295,1,8,0:0:0:0:
152,316,164947,2,0,P|240:368|312:320,2,200,0|2|4,0:0|0:0|0:0,0:0:0:0:
256,192,175382,12,4,177991,0:0:0:0:
88,192,178643,22,0,B|136:192|136:192|176:144,1,100,0|8,0:0|0:0,0:0:0:0:
240,52,179947,1,0,0:0:0:0:
300,156,180599,2,0,B|324:192|324:192|380:192,1,100,8|0,0:0|0:0,0:0:0:0:
488,248,181904,1,8,0:0:0:0:
408,352,182556,70,0,B|408:296|408:296|376:288|352:264,1,100,0|8,0:0|0:0,0:0:0:0:
256,232,183860,1,0,0:0:0:0:
144,280,184513,2,0,B|136:290|104:298|104:298|104:354,1,100,8|2,0:0|0:0,0:0:0:0:
24,264,185817,5,8,0:0:0:0:
112,184,186469,1,0,0:0:0:0:
24,104,187121,1,8,0:0:0:0:
128,164,187773,2,0,B|180:88|180:88|236:188|236:188|176:276|176:276|128:204,1,400
80,320,191034,70,0,B|40:264|40:264|40:216,1,100,8|0,0:0|0:0,0:0:0:0:
40,112,192339,2,0,B|40:80|40:80|80:24,1,100,8|0,0:0|0:0,0:0:0:0:
160,112,193643,1,8,0:0:0:0:
280,112,194295,2,0,B|280:80|280:80|240:24,1,100,0|8,0:0|0:0,0:0:0:0:
160,112,195599,1,0,0:0:0:0:
64,192,196252,6,0,B|108:192|108:192|160:224|212:192|212:192|264:192,1,200,8|8,0:0|0:0,0:0:0:0:
368,168,198208,2,0,B|400:144|400:144|440:192|440:192|400:232|400:232|368:208,1,200,0|4,0:0|0:0,0:0:0:0:
320,96,200165,2,0,L|204:96,1,100,0|8,0:0|0:0,0:0:0:0:
152,204,201469,69,0,0:0:0:0:
224,300,202121,2,0,L|328:300,1,100,4|0,0:0|0:0,0:0:0:0:
412,208,203426,1,8,0:0:0:0:
452,96,204078,2,0,P|412:72|364:96,1,100,0|4,0:0|0:0,0:0:0:0:
264,160,205382,5,0,0:0:0:0:
160,104,206034,2,0,P|112:80|72:104,1,100,8|0,0:0|0:0,0:0:0:0:
96,216,207339,2,0,P|256:320|416:216,1,400,8|4,0:0|0:0,0:0:0:0:
328,136,210599,69,0,0:0:0:0:
256,40,211252,1,8,0:0:0:0:
184,136,211904,1,0,0:0:0:0:
256,232,212556,2,0,B|216:272|216:272|152:272,1,100,4|0,0:0|0:0,0:0:0:0:
88,192,213860,5,8,0:0:0:0:
176,112,214513,2,0,B|219:112|219:112|259:152,1,100,0|4,0:0|0:0,0:0:0:0:
368,192,215817,2,0,P|416:192|440:136,2,100,0|8|0,0:0|0:0|0:0,0:0:0:0:
336,140,217447,69,2,0:0:0:0:
300,92,217773,2,0,P|228:76|212:100,2,100,8|0|8,0:0|0:0|0:0,0:0:0:0:
256,192,219730,1,0,0:0:0:0:
256,192,219893,12,0,222339,0:0:0:0:
