osu file format v14

[General]
AudioFilename: Rig - Darudolph - Snowstorm.mp3
AudioLeadIn: 0
PreviewTime: -1
Countdown: 0
SampleSet: Soft
StackLeniency: 0.7
Mode: 0
LetterboxInBreaks: 0
WidescreenStoryboard: 0

[Editor]
Bookmarks: 15070
DistanceSpacing: 1
BeatDivisor: 4
GridSize: 8
TimelineZoom: 1

[Metadata]
Title:Darudolph - Snowstorm
TitleUnicode:Darudolph - Snowstorm
Artist:Rig
ArtistUnicode:Rig
Creator:Kyshiro
Version:Avalanche
Source:
Tags:darude sandstorm merry christmas cloudchaser
BeatmapID:849118
BeatmapSetID:389415

[Difficulty]
HPDrainRate:6.9
CircleSize:4.4
OverallDifficulty:8.7
ApproachRate:9.3
SliderMultiplier:1.8
SliderTickRate:1

[Events]
//Background and Video events
0,0,"Christmas-Wallpaper-48A.jpg",0,0
//Break Periods
//Storyboard Layer 0 (Background)
//Storyboard Layer 1 (Fail)
//Storyboard Layer 2 (Pass)
//Storyboard Layer 3 (Foreground)
//Storyboard Sound Samples

[TimingPoints]
1785,428.571428571429,4,2,0,100,1,0
29213,-83.3333333333333,4,2,0,100,0,0
56642,-66.6666666666667,4,2,0,100,0,1
77213,-66.6666666666667,4,2,0,100,0,0
80642,-66.6666666666667,4,2,0,5,0,0

[Colours]
Combo1 : 190,237,239
Combo2 : 249,213,245
Combo3 : 170,208,255
Combo4 : 247,172,174

[HitObjects]
184,111,15070,5,0,0:0:0:0:
184,111,15499,2,0,L|190:161,1,45
95,290,15713,2,0,L|135:259,1,45
261,263,15927,1,0,0:0:0:0:
98,179,16142,1,0,0:0:0:0:
235,37,16356,2,0,P|241:84|212:170,2,135
59,133,17213,6,0,L|52:233,1,90
79,293,17535,2,0,P|132:307|178:296,1,90
231,255,17856,1,0,0:0:0:0:
319,108,18070,2,0,P|309:167|345:233,1,135
422,238,18499,2,0,L|515:229,1,90
228,147,18927,5,0,0:0:0:0:
205,144,19035,1,0,0:0:0:0:
182,142,19142,1,0,0:0:0:0:
159,140,19249,1,0,0:0:0:0:
136,138,19356,1,0,0:0:0:0:
183,37,19570,1,0,0:0:0:0:
77,86,19785,2,0,L|105:219,2,135
16,213,20642,6,0,L|5:306,1,90
78,337,20963,2,0,P|142:321|177:324,1,90
246,348,21285,1,0,0:0:0:0:
358,271,21499,2,0,P|375:215|357:155,1,90
307,135,21820,2,0,P|251:129|177:180,1,135
46,162,22356,5,0,0:0:0:0:
54,184,22463,1,0,0:0:0:0:
62,206,22570,1,0,0:0:0:0:
70,228,22677,1,0,0:0:0:0:
78,250,22785,1,0,0:0:0:0:
159,190,22999,1,0,0:0:0:0:
202,345,23213,5,0,0:0:0:0:
210,323,23320,1,0,0:0:0:0:
218,301,23427,1,0,0:0:0:0:
226,279,23534,1,0,0:0:0:0:
234,257,23642,1,0,0:0:0:0:
314,327,23856,1,0,0:0:0:0:
467,238,24070,5,0,0:0:0:0:
438,224,24177,1,0,0:0:0:0:
406,219,24285,1,0,0:0:0:0:
374,219,24392,1,0,0:0:0:0:
344,228,24499,1,0,0:0:0:0:
265,161,24713,1,0,0:0:0:0:
360,0,24927,5,0,0:0:0:0:
369,30,25035,1,0,0:0:0:0:
372,61,25142,1,0,0:0:0:0:
370,92,25249,1,0,0:0:0:0:
364,123,25356,1,0,0:0:0:0:
476,102,25570,1,0,0:0:0:0:
264,50,25785,5,0,0:0:0:0:
237,45,25892,1,0,0:0:0:0:
210,45,25999,1,0,0:0:0:0:
183,49,26106,1,0,0:0:0:0:
153,59,26213,1,0,0:0:0:0:
123,69,26320,1,0,0:0:0:0:
91,74,26427,1,0,0:0:0:0:
59,74,26535,1,0,0:0:0:0:
24,62,26642,5,0,0:0:0:0:
50,86,26749,1,0,0:0:0:0:
70,115,26856,1,0,0:0:0:0:
82,148,26963,1,0,0:0:0:0:
83,188,27070,1,0,0:0:0:0:
74,227,27177,1,0,0:0:0:0:
72,267,27285,1,0,0:0:0:0:
83,305,27392,1,0,0:0:0:0:
114,336,27499,5,0,0:0:0:0:
155,352,27606,1,0,0:0:0:0:
199,345,27713,1,0,0:0:0:0:
232,315,27820,1,0,0:0:0:0:
245,272,27927,2,0,L|249:236,7,22.5
303,194,28356,2,0,L|324:185,7,22.5
224,174,28785,2,0,L|206:161,7,22.5
169,237,29213,5,0,0:0:0:0:
126,251,29320,1,0,0:0:0:0:
81,245,29427,1,0,0:0:0:0:
42,220,29535,1,0,0:0:0:0:
26,177,29642,1,0,0:0:0:0:
119,38,29856,2,0,L|127:99,1,53.9999983520508
161,290,30070,2,0,L|168:236,1,53.9999983520508
249,136,30285,1,0,0:0:0:0:
291,129,30392,1,0,0:0:0:0:
333,122,30499,1,0,0:0:0:0:
503,274,30713,1,0,0:0:0:0:
433,265,30820,1,0,0:0:0:0:
363,257,30927,5,0,0:0:0:0:
323,293,31035,1,0,0:0:0:0:
270,307,31142,1,0,0:0:0:0:
216,305,31249,1,0,0:0:0:0:
167,281,31356,1,0,0:0:0:0:
152,96,31570,2,0,L|157:155,1,53.9999983520508
0,258,31785,2,0,L|48:224,1,53.9999983520508
216,305,31999,2,0,L|162:279,1,53.9999983520508
282,204,32213,1,0,0:0:0:0:
14,121,32427,1,0,0:0:0:0:
83,108,32535,1,0,0:0:0:0:
152,96,32642,5,0,0:0:0:0:
195,127,32749,1,0,0:0:0:0:
247,139,32856,1,0,0:0:0:0:
300,134,32963,1,0,0:0:0:0:
347,108,33070,1,0,0:0:0:0:
501,260,33285,1,0,0:0:0:0:
463,229,33392,1,0,0:0:0:0:
416,216,33499,1,0,0:0:0:0:
367,218,33606,1,0,0:0:0:0:
321,234,33713,1,0,0:0:0:0:
285,267,33820,1,0,0:0:0:0:
267,312,33927,1,0,0:0:0:0:
267,312,34142,6,0,P|247:284|226:263,1,53.9999983520508
44,186,34356,1,0,0:0:0:0:
87,207,34463,1,0,0:0:0:0:
135,211,34570,1,0,0:0:0:0:
182,199,34677,1,0,0:0:0:0:
220,169,34785,1,0,0:0:0:0:
129,74,34999,2,0,L|70:68,1,53.9999983520508
220,169,35213,2,0,L|279:163,1,53.9999983520508
87,207,35427,1,0,0:0:0:0:
69,252,35535,1,0,0:0:0:0:
67,300,35642,1,0,0:0:0:0:
426,269,35856,1,0,0:0:0:0:
414,199,35963,1,0,0:0:0:0:
402,129,36070,5,0,0:0:0:0:
351,148,36177,1,0,0:0:0:0:
296,146,36285,1,0,0:0:0:0:
249,119,36392,1,0,0:0:0:0:
227,69,36499,1,0,0:0:0:0:
26,192,36713,1,0,0:0:0:0:
61,153,36820,1,0,0:0:0:0:
114,153,36927,1,0,0:0:0:0:
149,192,37034,1,0,0:0:0:0:
144,244,37141,1,0,0:0:0:0:
102,276,37248,1,0,0:0:0:0:
50,266,37355,1,0,0:0:0:0:
265,145,37570,1,0,0:0:0:0:
333,159,37677,1,0,0:0:0:0:
402,173,37785,5,0,0:0:0:0:
421,122,37892,1,0,0:0:0:0:
474,127,37999,1,0,0:0:0:0:
487,179,38106,1,0,0:0:0:0:
442,208,38213,1,0,0:0:0:0:
225,47,38427,6,0,L|157:35,1,53.9999983520508
44,176,38642,2,0,L|56:108,1,53.9999983520508
164,152,38856,1,0,0:0:0:0:
191,191,38963,1,0,0:0:0:0:
219,231,39070,1,0,0:0:0:0:
76,319,39285,1,0,0:0:0:0:
395,323,39499,5,0,0:0:0:0:
345,300,39606,1,0,0:0:0:0:
291,300,39713,1,0,0:0:0:0:
240,320,39820,1,0,0:0:0:0:
206,362,39927,1,0,0:0:0:0:
113,121,40142,2,0,P|103:86|89:60,1,53.9999983520508
236,175,40356,2,0,P|224:199|218:225,1,53.9999983520508
316,66,40570,1,0,0:0:0:0:
263,54,40677,1,0,0:0:0:0:
210,67,40785,1,0,0:0:0:0:
68,237,40999,1,0,0:0:0:0:
47,169,41106,1,0,0:0:0:0:
27,101,41213,5,0,0:0:0:0:
79,111,41320,1,0,0:0:0:0:
132,102,41427,1,0,0:0:0:0:
180,76,41535,1,0,0:0:0:0:
204,28,41642,1,0,0:0:0:0:
387,133,41856,2,0,L|391:203,1,53.9999983520508
194,297,42070,2,0,L|197:243,1,53.9999983520508
282,142,42285,1,0,0:0:0:0:
287,195,42392,1,0,0:0:0:0:
292,248,42499,1,0,0:0:0:0:
468,61,42713,1,0,0:0:0:0:
398,52,42820,1,0,0:0:0:0:
328,43,42927,5,0,0:0:0:0:
280,70,43035,1,0,0:0:0:0:
227,82,43142,1,0,0:0:0:0:
173,79,43249,1,0,0:0:0:0:
122,58,43356,1,0,0:0:0:0:
7,207,43570,1,0,0:0:0:0:
56,184,43677,1,0,0:0:0:0:
109,176,43785,1,0,0:0:0:0:
161,187,43892,1,0,0:0:0:0:
208,212,43999,1,0,0:0:0:0:
241,254,44106,1,0,0:0:0:0:
259,304,44213,1,0,0:0:0:0:
492,185,44427,1,0,0:0:0:0:
423,203,44535,1,0,0:0:0:0:
355,221,44642,5,0,0:0:0:0:
313,186,44749,1,0,0:0:0:0:
295,134,44856,1,0,0:0:0:0:
296,80,44963,1,0,0:0:0:0:
318,30,45070,1,0,0:0:0:0:
473,262,45285,2,0,L|467:320,1,53.9999983520508
374,146,45499,2,0,L|368:92,1,53.9999983520508
238,204,45713,1,0,0:0:0:0:
228,257,45820,1,0,0:0:0:0:
218,310,45927,1,0,0:0:0:0:
19,140,46142,1,0,0:0:0:0:
87,126,46249,1,0,0:0:0:0:
155,112,46356,6,0,L|220:119,1,53.9999983520508
400,222,46570,2,0,L|335:229,1,53.9999983520508
154,238,46785,1,0,0:0:0:0:
322,47,46999,1,0,0:0:0:0:
374,34,47106,1,0,0:0:0:0:
416,68,47213,1,0,0:0:0:0:
416,122,47320,1,0,0:0:0:0:
374,156,47427,1,0,0:0:0:0:
321,144,47535,1,0,0:0:0:0:
298,95,47642,1,0,0:0:0:0:
99,155,47856,1,0,0:0:0:0:
120,221,47963,1,0,0:0:0:0:
141,288,48070,5,0,0:0:0:0:
180,250,48177,1,0,0:0:0:0:
233,236,48285,1,0,0:0:0:0:
285,251,48392,1,0,0:0:0:0:
322,290,48499,1,0,0:0:0:0:
99,155,48713,2,0,P|95:123|98:92,1,53.9999983520508
294,19,48927,2,0,P|295:45|291:72,1,53.9999983520508
203,139,49142,1,0,0:0:0:0:
194,85,49249,1,0,0:0:0:0:
186,31,49356,1,0,0:0:0:0:
9,236,49570,1,0,0:0:0:0:
77,222,49677,1,0,0:0:0:0:
146,208,49785,5,0,0:0:0:0:
184,245,49892,1,0,0:0:0:0:
232,268,49999,1,0,0:0:0:0:
285,274,50106,1,0,0:0:0:0:
338,265,50213,1,0,0:0:0:0:
458,83,50427,2,0,L|390:90,1,53.9999983520508
203,139,50642,2,0,L|271:146,1,53.9999983520508
465,182,50856,1,0,0:0:0:0:
411,187,50963,1,0,0:0:0:0:
357,192,51070,1,0,0:0:0:0:
106,230,51285,1,0,0:0:0:0:
175,240,51392,1,0,0:0:0:0:
244,251,51499,5,0,0:0:0:0:
228,199,51606,1,0,0:0:0:0:
239,146,51713,1,0,0:0:0:0:
271,103,51820,1,0,0:0:0:0:
319,79,51927,1,0,0:0:0:0:
371,312,52142,1,0,0:0:0:0:
328,345,52249,1,0,0:0:0:0:
275,357,52356,1,0,0:0:0:0:
221,358,52463,1,0,0:0:0:0:
169,341,52570,1,0,0:0:0:0:
125,308,52677,1,0,0:0:0:0:
102,258,52785,1,0,0:0:0:0:
280,129,52999,1,0,0:0:0:0:
130,34,53213,5,0,0:0:0:0:
145,85,53320,1,0,0:0:0:0:
160,136,53427,1,0,0:0:0:0:
175,188,53535,1,0,0:0:0:0:
190,239,53642,1,0,0:0:0:0:
40,174,53856,2,0,P|34:146|35:107,1,53.9999983520508
190,239,54070,2,0,P|189:265|183:292,1,53.9999983520508
307,155,54285,1,0,0:0:0:0:
358,137,54392,1,0,0:0:0:0:
411,140,54499,1,0,0:0:0:0:
252,326,54713,1,0,0:0:0:0:
182,319,54820,1,0,0:0:0:0:
112,312,54927,5,0,0:0:0:0:
137,263,55035,1,0,0:0:0:0:
137,209,55142,1,0,0:0:0:0:
120,157,55249,1,0,0:0:0:0:
81,119,55356,1,0,0:0:0:0:
226,252,55570,1,0,0:0:0:0:
273,277,55677,1,0,0:0:0:0:
326,286,55785,1,0,0:0:0:0:
379,282,55892,1,0,0:0:0:0:
429,262,55999,1,0,0:0:0:0:
466,223,56106,1,0,0:0:0:0:
487,173,56213,1,0,0:0:0:0:
306,24,56427,1,0,0:0:0:0:
315,94,56535,1,0,0:0:0:0:
323,165,56642,6,0,P|279:175|247:176,1,67.5000025749208
35,107,56856,2,0,P|68:109|101:118,1,67.5000025749208
138,251,57070,1,0,0:0:0:0:
223,41,57285,1,0,0:0:0:0:
279,18,57392,1,0,0:0:0:0:
339,20,57499,1,0,0:0:0:0:
395,42,57606,1,0,0:0:0:0:
435,86,57713,1,0,0:0:0:0:
454,143,57820,1,0,0:0:0:0:
443,202,57927,1,0,0:0:0:0:
199,310,58142,1,0,0:0:0:0:
272,301,58249,1,0,0:0:0:0:
345,292,58356,5,0,0:0:0:0:
288,270,58463,1,0,0:0:0:0:
231,248,58570,1,0,0:0:0:0:
174,226,58677,1,0,0:0:0:0:
116,203,58785,1,0,0:0:0:0:
356,174,58999,2,0,L|428:168,1,67.5000025749208
201,105,59213,2,0,L|129:99,1,67.5000025749208
276,16,59427,1,0,0:0:0:0:
280,77,59535,1,0,0:0:0:0:
284,137,59642,1,0,0:0:0:0:
42,216,59856,1,0,0:0:0:0:
336,268,60070,5,0,0:0:0:0:
279,245,60177,1,0,0:0:0:0:
217,247,60285,1,0,0:0:0:0:
162,274,60392,1,0,0:0:0:0:
127,323,60499,1,0,0:0:0:0:
100,133,60713,6,0,P|93:91|81:61,1,67.5000025749208
232,181,60927,2,0,P|220:212|216:246,1,67.5000025749208
329,338,61142,1,0,0:0:0:0:
389,330,61249,1,0,0:0:0:0:
449,322,61356,1,0,0:0:0:0:
289,109,61570,1,0,0:0:0:0:
215,98,61677,1,0,0:0:0:0:
140,87,61785,5,0,0:0:0:0:
158,144,61892,1,0,0:0:0:0:
109,180,61999,1,0,0:0:0:0:
59,145,62106,1,0,0:0:0:0:
78,87,62213,1,0,0:0:0:0:
316,263,62427,1,0,0:0:0:0:
375,277,62535,1,0,0:0:0:0:
422,239,62642,1,0,0:0:0:0:
422,178,62749,1,0,0:0:0:0:
375,140,62856,1,0,0:0:0:0:
316,154,62963,1,0,0:0:0:0:
289,209,63070,1,0,0:0:0:0:
498,104,63285,1,0,0:0:0:0:
132,60,63499,5,0,0:0:0:0:
186,87,63606,1,0,0:0:0:0:
246,94,63713,1,0,0:0:0:0:
305,79,63820,1,0,0:0:0:0:
350,38,63927,1,0,0:0:0:0:
359,214,64142,2,0,L|349:285,1,67.5000025749208
153,217,64356,2,0,L|224:227,1,67.5000025749208
163,326,64570,1,0,0:0:0:0:
103,335,64677,1,0,0:0:0:0:
42,344,64785,1,0,0:0:0:0:
282,171,64999,1,0,0:0:0:0:
34,99,65213,5,0,0:0:0:0:
88,125,65320,1,0,0:0:0:0:
148,131,65427,1,0,0:0:0:0:
204,106,65535,1,0,0:0:0:0:
245,61,65642,1,0,0:0:0:0:
490,213,65856,1,0,0:0:0:0:
436,183,65963,1,0,0:0:0:0:
377,168,66070,1,0,0:0:0:0:
316,172,66177,1,0,0:0:0:0:
258,194,66285,1,0,0:0:0:0:
211,233,66392,1,0,0:0:0:0:
181,285,66499,1,0,0:0:0:0:
350,300,66713,1,0,0:0:0:0:
422,94,66927,6,0,P|426:57|422:21,1,67.5000025749208
258,194,67142,2,0,P|255:227|259:261,1,67.5000025749208
385,226,67356,1,0,0:0:0:0:
227,60,67570,1,0,0:0:0:0:
168,44,67677,1,0,0:0:0:0:
107,49,67785,1,0,0:0:0:0:
58,86,67892,1,0,0:0:0:0:
31,140,67999,1,0,0:0:0:0:
37,200,68106,1,0,0:0:0:0:
67,252,68213,1,0,0:0:0:0:
386,98,68427,1,0,0:0:0:0:
196,144,68642,5,0,0:0:0:0:
189,204,68749,1,0,0:0:0:0:
182,264,68856,1,0,0:0:0:0:
176,324,68963,1,0,0:0:0:0:
170,384,69070,1,0,0:0:0:0:
81,232,69285,2,0,P|43:218|7:214,1,67.5000025749208
196,144,69499,2,0,P|210:106|214:70,1,67.5000025749208
281,255,69713,1,0,0:0:0:0:
339,270,69820,1,0,0:0:0:0:
399,260,69928,1,0,0:0:0:0:
121,107,70142,1,0,0:0:0:0:
367,20,70356,5,0,0:0:0:0:
375,80,70463,1,0,0:0:0:0:
383,140,70570,1,0,0:0:0:0:
391,200,70677,1,0,0:0:0:0:
399,260,70785,2,0,P|443:264|479:260,1,67.5000025749208
273,152,70999,2,0,P|229:148|193:152,1,67.5000025749208
79,292,71213,1,0,0:0:0:0:
133,319,71320,1,0,0:0:0:0:
193,323,71427,1,0,0:0:0:0:
251,303,71535,1,0,0:0:0:0:
293,259,71642,1,0,0:0:0:0:
86,143,71856,1,0,0:0:0:0:
356,88,72070,6,0,L|282:80,1,67.5000025749208
86,143,72285,2,0,L|160:135,1,67.5000025749208
274,195,72499,1,0,0:0:0:0:
105,44,72713,1,0,0:0:0:0:
427,46,72927,1,0,0:0:0:0:
453,101,73035,1,0,0:0:0:0:
457,161,73142,1,0,0:0:0:0:
438,218,73249,1,0,0:0:0:0:
391,256,73356,2,0,L|323:250,1,67.5000025749208
101,194,73570,2,0,L|169:188,1,67.5000025749208
336,70,73785,5,0,0:0:0:0:
290,84,73892,1,0,0:0:0:0:
242,82,73999,1,0,0:0:0:0:
199,61,74106,1,0,0:0:0:0:
174,20,74213,5,0,0:0:0:0:
180,66,74320,1,0,0:0:0:0:
161,110,74427,1,0,0:0:0:0:
128,145,74534,1,0,0:0:0:0:
85,165,74641,5,0,0:0:0:0:
129,182,74749,1,0,0:0:0:0:
150,224,74856,1,0,0:0:0:0:
156,272,74963,1,0,0:0:0:0:
143,318,75070,5,0,0:0:0:0:
188,304,75177,1,0,0:0:0:0:
233,315,75284,1,0,0:0:0:0:
274,341,75391,1,0,0:0:0:0:
301,381,75498,5,0,0:0:0:0:
308,334,75606,1,0,0:0:0:0:
346,305,75713,1,0,0:0:0:0:
392,291,75820,1,0,0:0:0:0:
440,296,75927,5,0,0:0:0:0:
410,259,76035,1,0,0:0:0:0:
413,212,76142,1,0,0:0:0:0:
432,167,76249,1,0,0:0:0:0:
466,134,76356,5,0,0:0:0:0:
420,124,76463,1,0,0:0:0:0:
386,92,76570,1,0,0:0:0:0:
364,49,76677,1,0,0:0:0:0:
361,1,76785,5,0,0:0:0:0:
299,30,76892,5,0,0:0:0:0:
234,49,76999,5,0,0:0:0:0:
166,48,77106,5,0,0:0:0:0:
100,32,77213,5,0,0:0:0:0:
256,192,77320,12,0,80642,0:0:0:0:
