osu file format v9

[General]
AudioFilename: 10 Hourou musuko ED - For You by Rie fu.mp3
AudioLeadIn: 0
PreviewTime: 57166
Countdown: 0
SampleSet: Soft
StackLeniency: 0.7
Mode: 0
LetterboxInBreaks: 0

[Editor]
Bookmarks: 9726,19326,28944,38544,48126,57744,67344,76926
DistanceSpacing: 0.9
BeatDivisor: 4
GridSize: 8

[Metadata]
Title:For You (TV size)
Artist:Rie fu
Creator:EvianBubble
Version:Smile
Source:Hourou Musuko
Tags:wandering son Funakoshi

[Difficulty]
HPDrainRate:5
CircleSize:4
OverallDifficulty:4
ApproachRate:5
SliderMultiplier:1.3
SliderTickRate:1

[Events]
//Background and Video events
0,0,"415093 scaled.jpg"
Video,0,"hurou_karaoke_ED.flv"
//Break Periods
//Storyboard Layer 0 (Background)
//Storyboard Layer 1 (Fail)
//Storyboard Layer 2 (Pass)
//Storyboard Layer 3 (Foreground)
//Storyboard Sound Samples
//Background Colour Transformations
3,100,163,162,255

[TimingPoints]
136,599.9400059994,4,2,0,61,1,0
19176,-100,4,2,0,51,0,0
19626,-100,4,2,0,61,0,0
29076,-100,4,2,0,51,0,0
38226,-100,4,2,0,70,0,0
47076,-100,4,2,0,45,0,0
47526,-100,4,2,0,71,0,0
55026,-100,4,2,0,84,0,0
57730,-100,4,2,0,80,0,1
62376,-100,4,2,0,60,0,1
62826,-100,4,2,0,81,0,1
64626,-100,4,2,0,65,0,1
65226,-100,4,2,0,81,0,1
65676,-100,4,2,0,70,0,1
66126,-100,4,2,0,80,0,1
71826,-100,4,2,0,61,0,1
72426,-100,4,2,0,80,0,1
73176,-100,4,1,0,49,0,1
73776,-100,4,2,0,80,0,1
76626,-100,4,2,0,73,0,1
76928,-100,4,2,0,69,0,0
77226,-100,4,2,0,51,0,0
85978,606.060606060606,4,2,0,69,1,0

[Colours]
Combo1 : 128,128,255
Combo2 : 149,215,77
Combo3 : 226,169,222
Combo4 : 102,194,225

[HitObjects]
112,104,8835,1,0
176,72,9135,2,0,B|240:48|312:80,1,130,0|2
336,320,10934,2,0,B|272:352|208:328,1,130,2|0
150,287,11834,5,0
96,240,12134,2,0,B|48:192|96:112,1,130,2|0
160,88,13034,1,0
232,96,13334,2,0,B|280:152|360:120,1,130,2|0
432,224,14534,6,0,B|376:192|296:272|232:208,1,195,2|0
176,192,15734,2,0,B|160:240|184:288|240:296,1,130,2|0
296,320,16634,1,0
368,336,16934,2,0,B|384:376,2,32.5,2|0|0
440,320,17534,1,2
488,264,17834,1,4
416,168,18434,5,0
384,104,18734,1,2
312,96,19034,1,0
256,48,19334,2,0,B|208:72|176:8|128:48,1,130,4|0
40,120,20533,2,0,B|-8:176|32:256,1,130,2|0
112,320,21733,6,0,B|168:352|248:336,1,130,0|2
206,267,22633,1,0
176,200,22933,2,0,B|224:152|320:136,1,130,0|2
320,208,23833,1,0
352,272,24133,6,0,B|402:288|394:176|472:208,2,130,2|0|2
224,280,25933,1,0
104,280,26533,2,0,B|56:336,2,65,2|0|0
75,214,27433,1,2
112,152,27733,2,0,B|96:96|40:96,2,97.5,2|2|2
168,200,28933,1,4
240,184,29233,5,0
208,120,29533,2,0,B|256:72|328:104,1,130,2|0
416,184,30732,1,2
304,320,31632,5,0
376,336,31932,2,0,B|392:288|352:240|304:248,1,130,2|0
240,248,32832,1,2
200,312,33132,2,0,B|152:344|128:272|64:320,1,130,2|0
40,248,34032,5,2
40,248,34332,1,2
80,136,34932,2,0,B|48:104,2,32.5,2|0|2
144,168,35532,2,0,B|208:192|288:160,1,130,2|0
368,104,36732,5,2
256,72,37332,1,2
184,64,37632,1,0
120,96,37932,1,2
48,192,38532,5,4
120,176,38832,2,0,B|168:200|208:136|256:184,1,130
288,232,39732,1,2
320,120,40331,1,0
408,40,40931,6,0,B|472:40|488:88|472:136,1,130,2|0
424,176,41831,1,0
424,176,42131,1,2
376,280,42731,1,2
376,280,43031,1,0
272,344,43631,5,0
272,344,43931,1,2
152,328,44531,2,0,B|120:360|72:320,1,65,2|0
40,280,45131,2,0,B|24:240|72:216,1,65,2|0
128,256,45731,6,0,B|176:240|136:168|192:152,1,130,2|0
264,149,46631,1,0
288,80,46931,1,2
224,40,47231,1,4
104,48,47831,6,0,B|40:80|40:152,1,130,2|0
88,208,48731,1,0
144,256,49031,1,2
80,288,49331,2,2,B|96:352,1,65
208,328,50230,5,0
280,336,50530,2,0,B|328:360|384:328,2,97.5,2|2|2
264,264,51730,2,0,B|328:224|392:264,1,130,2|0
480,336,52930,6,0,B|504:264|472:208,1,130,2|0
424,152,53830,2,0,B|368:136|416:72|344:56,1,130,2|0
312,120,54730,1,2
200,88,55330,6,0,B|152:136,2,65,4|2|0
240,152,56230,1,2
296,200,56530,2,0,B|272:240|208:240|184:200,1,130,2|0
80,144,57730,6,0,B|16:208|48:272,1,130,4|8
144,320,58930,1,2
210,287,59230,1,0
256,344,59530,1,8
328,328,59830,1,0
402,341,60130,6,0,B|476:344|489:263,1,130,2|8
413,263,61029,1,2
360,208,61329,2,0,B|336:144,2,65,2|0|8
304,256,62229,1,2
248,208,62529,6,0,B|200:168|104:192,1,130,4|8
56,216,63429,1,2
24,152,63729,2,0,B|24:80|112:56,1,130,2|8
224,64,64929,2,0,B|272:80|232:128|280:144,2,97.5,4|2|4
344,48,66429,5,2
410,81,66729,1,8
448,144,67029,1,2
440,216,67329,2,0,B|400:272|312:256,1,130,4|8
328,184,68229,1,2
288,120,68529,2,0,B|248:96|200:160|160:120,1,130,2|8
120,64,69429,1,0
56,96,69729,6,0,B|16:152|56:232,1,130,2|8
119,196,70628,1,0
200,216,70928,2,0,B|152:272,1,65,0|2
104,320,71528,1,8
232,328,72128,6,0,B|288:280|360:352|424:296,1,195,4|2
472,248,73328,2,0,B|496:168|408:128,1,130,0|8
320,184,74528,6,0,B|288:232|232:224,1,97.5,4|8
144,224,75428,2,0,B|72:216|56:152,1,97.5,4|2
48,88,76328,2,0,B|96:120|128:40|176:88,1,130,4|4
288,88,77528,6,0,B|352:48,2,65,2|0|2
392,152,78728,1,0
464,248,79328,2,0,B|408:328|312:344|216:304,1,260,2|0
112,312,81127,6,0,B|72:272|144:248|112:192,1,130,2|2
48,96,82327,1,0
144,56,82927,1,2
256,32,83527,2,0,B|328:8|384:32,1,130,0|2
424,216,85027,5,2
352,304,85627,1,0
272,304,85978,2,0,B|208:248,1,65,2|0
256,192,86584,1,4
