osu file format v9

[General]
AudioFilename: toradora ED 2.mp3
AudioLeadIn: 2000
PreviewTime: 45486
Countdown: 0
SampleSet: Soft
StackLeniency: 0.7
Mode: 0
LetterboxInBreaks: 0

[Editor]
Bookmarks: 2200,3271,6271,6700,31771
DistanceSpacing: 0.8
BeatDivisor: 4
GridSize: 4

[Metadata]
Title:Orange (TV Size)
Artist:Rie Kugimiya, Eri Kitamura & Yui Horie
Creator:Weezy
Version:Ryuji-Easy
Source:Toradora!
Tags:medi-chan net45291 Saten-san

[Difficulty]
HPDrainRate:2
CircleSize:3
OverallDifficulty:1
ApproachRate:3
SliderMultiplier:1
SliderTickRate:2

[Events]
//Background and Video events
Video,0,"Toradora! Ending 2.avi"
0,0,"bg.jpg"
//Break Periods
//Storyboard Layer 0 (Background)
//Storyboard Layer 1 (Fail)
//Storyboard Layer 2 (Pass)
//Storyboard Layer 3 (Foreground)
//Storyboard Sound Samples
//Background Colour Transformations
3,100,163,162,255

[TimingPoints]
486,428.571428571429,4,2,1,70,1,0
46771,-100,4,2,1,70,0,1
58771,-100,4,2,1,70,0,0
60486,-100,4,2,1,70,0,1
74200,-100,4,2,1,70,0,0

[Colours]
Combo1 : 255,62,62
Combo2 : 253,82,0
Combo3 : 255,0,128
Combo4 : 66,160,255
Combo5 : 211,174,24
SliderBorder : 255,255,255

[HitObjects]
96,232,486,2,0,B|32:180|32:96|108:52,1,200,4|0
184,64,1771,2,0,B|240:64,1,50,0|2
308,92,2414,1,2
352,160,2843,1,2
352,240,3271,2,0,B|352:272|332:292,1,50,2|0
260,280,3914,6,0,B|172:192|80:284,1,200
32,220,5200,1,2
48,144,5628,2,0,B|64:88|128:72,3,100,0|2|0|2
192,52,7343,6,0,B|248:12|348:36|364:100,1,200,4|0
360,176,8628,2,0,B|308:176|308:176,1,50,0|2
228,176,9271,1,2
228,176,9700,1,2
224,256,10128,2,0,B|184:256|160:240,1,50,2|0
96,244,10771,6,0,B|28:192|28:116|108:72,1,200
180,72,12057,1,2
260,88,12486,1,0
340,76,12914,1,2
312,152,13343,1,0
392,156,13771,1,2
344,224,14200,1,4
276,264,14628,6,0,B|188:352|96:260,1,200
64,192,15914,2,0,B|64:132|116:100,2,100,0|2|0
144,200,17200,2,0,B|186:174|186:114,1,100
264,104,18057,6,0,B|320:128|324:188,2,100,2|0|2
200,152,19343,1,0
208,272,19986,2,0,B|360:244,1,150
480,144,21486,6,0,B|400:68|292:124,1,200,0|2
260,196,22771,1,0
260,196,23200,2,0,B|380:196,1,100,2|0
428,152,24057,2,0,B|428:88|372:68,1,100,0|2
300,60,24914,6,0,B|184:52|140:164,1,200,0|2
160,236,26200,1,4
232,200,26628,1,2
308,220,27057,1,4
356,156,27486,1,2
304,96,27914,5,4
224,88,28343,2,0,B|72:88,1,150,0|2
52,164,29414,2,0,B|12:216|60:252,2,100,0|2|0
300,300,31771,6,0,B|300:132|300:132,1,150,0|2
232,108,32843,1,0
300,64,33271,1,2
364,108,33700,1,0
376,188,34128,2,0,B|396:276|312:320,1,150,0|4
240,312,35200,6,0,B|200:256|248:200,1,100,0|2
196,104,36271,1,0
272,76,36700,1,2
344,108,37128,1,0
256,192,37771,12,0,40771
116,148,41628,2,0,B|116:232|248:232|248:144,1,200,0|0
248,72,42914,1,2
256,192,43343,12,4,45057
356,232,46771,5,4
356,312,47200,2,0,B|308:356|256:308,1,100,0|2
184,316,48057,2,0,B|141:355|93:311,2,100
160,236,49343,1,0
108,176,49771,1,2
148,108,50200,6,0,B|252:80|356:152,1,200,0|2
416,156,51486,2,0,B|380:248|380:248,1,100
300,268,52343,2,0,B|188:328|116:220,1,200,0|2
140,148,53628,6,0,B|208:72|340:116,1,200,4|2
388,164,54914,2,0,B|448:180|452:240,2,100,0|2|0
308,160,56200,1,0
236,192,56628,1,2
280,256,57057,6,0,B|296:384|140:364,1,200,0|0
108,300,58343,1,2
124,220,58771,6,0,B|184:188,1,50,0|2
240,168,59414,1,0
312,204,59843,2,0,B|312:276|312:276,1,50,2|0
376,304,60486,5,4
376,304,60914,2,0,B|492:280,2,100,0|2|0
300,284,62200,1,2
236,236,62628,2,0,B|104:192|172:68,1,200,0|2
240,56,63914,6,0,B|312:32|400:80,1,150,0|2
356,148,64986,1,0
356,148,65414,1,2
292,196,65843,1,0
212,196,66271,2,0,B|60:196,1,150,0|2
48,116,67343,5,4
124,96,67771,2,0,B|220:48,2,100
164,164,69057,1,2
236,128,69486,1,0
304,172,69914,2,0,B|352:196|404:172,1,100,2|0
448,240,70771,5,2
392,300,71200,2,0,B|344:340,1,50
272,332,71843,1,0
192,332,72271,2,0,B|120:392|36:320,1,150,2|0
52,252,73343,6,0,B|52:196,3,50
256,192,74200,12,0,75914
188,184,76771,6,0,B|140:212|140:272,1,100
220,276,77628,2,0,B|388:276|388:20|212:20,1,400
136,156,80200,6,0,B|80:172|52:216,1,100,2|2
128,244,81057,2,0,B|128:412|384:412|384:236,1,400
304,104,83628,6,0,B|248:119|223:159,1,100,2|2
256,192,84486,12,0,86200
