osu file format v9

[General]
AudioFilename: toradora ED 2.mp3
AudioLeadIn: 2000
PreviewTime: 45486
Countdown: 0
SampleSet: Soft
StackLeniency: 0.7
Mode: 0
LetterboxInBreaks: 0

[Editor]
Bookmarks: 2200,6271,6700
DistanceSpacing: 0.8
BeatDivisor: 4
GridSize: 4

[Metadata]
Title:Orange (TV Size)
Artist:Rie Kugimiya, Eri Kitamura & Yui Horie
Creator:Weezy
Version:Ami-Hard
Source:Toradora!
Tags:medi-chan net45291 Saten-san

[Difficulty]
HPDrainRate:6
CircleSize:4
OverallDifficulty:5
ApproachRate:7
SliderMultiplier:1.6
SliderTickRate:2

[Events]
//Background and Video events
Video,0,"Toradora! Ending 2.avi"
0,0,"bg.jpg"
//Break Periods
//Storyboard Layer 0 (Background)
//Storyboard Layer 1 (Fail)
//Storyboard Layer 2 (Pass)
//Storyboard Layer 3 (Foreground)
//Storyboard Sound Samples
//Background Colour Transformations
3,100,163,162,255

[TimingPoints]
486,428.571428571429,4,2,1,70,1,0
46771,-100,4,2,1,70,0,1
58771,-100,4,2,1,70,0,0
60486,-100,4,2,1,70,0,1
74200,-100,4,2,1,70,0,0
77628,-125,4,2,1,70,0,0
78700,-100,4,2,1,70,0,0
81057,-125,4,2,1,70,0,0
82128,-100,4,2,1,70,0,0

[Colours]
Combo1 : 255,62,62
Combo2 : 253,82,0
Combo3 : 255,0,128
Combo4 : 66,160,255
Combo5 : 211,174,24
SliderBorder : 255,255,255

[HitObjects]
224,140,486,1,4
256,196,700,1,2
284,140,914,2,0,B|384:120|420:212,1,160,0|0
304,324,1771,6,0,B|208:324,1,80,2|0
116,252,2414,1,2
68,132,2843,1,2
196,144,3271,1,2
260,136,3486,1,0
252,200,3700,1,2
316,196,3914,6,0,B|412:220|436:308,1,160
312,332,4771,1,0
256,364,4986,1,2
200,332,5200,1,0
184,272,5414,2,0,B|144:236|196:196,1,80,2|0
328,272,5843,2,0,B|368:236|316:196,1,80,2|0
256,264,6271,1,2
256,264,6700,1,2
256,136,7128,5,2
256,136,7236,1,0
256,136,7343,2,0,B|348:104|400:192,2,160,4|2|0
156,212,8628,5,0
156,212,8843,1,2
48,144,9271,1,2
84,268,9700,1,2
220,320,10128,6,0,B|260:360|312:304,2,80
256,264,10771,2,0,B|256:96,1,160,2|0
172,68,11628,1,0
224,32,11843,1,2
288,32,12057,1,0
340,68,12271,1,2
304,192,12700,5,2
208,276,13128,1,0
176,152,13557,1,2
176,152,13771,2,0,B|108:108|20:108,1,160,0|4
80,224,14628,6,0,B|128:304,1,80,2|0
184,300,15057,1,2
224,248,15271,2,0,B|308:216|384:252,1,160
444,248,15914,1,2
464,188,16128,1,0
444,128,16343,1,2
464,68,16557,1,0
272,88,17200,6,0,B|216:96,4,40,2|0|0|0|0
288,216,18057,6,0,B|248:232|208:208,1,80,2|0
180,152,18486,2,0,B|140:136|100:160,1,80,2|0
20,252,19128,1,0
80,276,19343,1,2
80,276,19557,1,0
208,272,19986,1,2
268,96,20628,6,0,B|344:60|424:120,1,160,2|4
376,236,21486,5,2
312,252,21700,1,0
252,252,21914,1,2
252,252,22128,1,0
60,256,22771,2,0,B|4:240|-4:168,1,80,2|0
32,144,23200,1,2
84,108,23414,1,0
256,24,24057,5,2
256,24,24164,1,0
256,24,24271,1,0
256,24,24378,1,0
256,24,24486,1,2
352,116,24914,5,2
288,100,25128,1,0
224,100,25342,1,2
164,116,25556,1,0
84,56,26200,5,4
40,192,26628,1,2
84,328,27057,1,4
140,192,27486,1,2
204,200,27700,5,0
204,200,27807,1,0
204,200,27914,2,0,B|164:272|220:352,1,160,4|2
284,360,28557,2,0,B|364:360,1,80,0|2
376,296,28986,1,0
320,180,29414,1,2
448,180,29843,2,0,B|448:220|408:252,2,80,0|2|0
392,144,30486,5,2
340,104,30700,1,0
276,108,30914,1,2
216,132,31128,2,0,B|172:164|204:208,1,80,0|2
212,328,31771,6,0,B|128:328,2,80,2|0|2
264,292,32414,1,0
264,164,32843,1,2
172,76,33271,2,0,B|92:44|28:116,1,160,0|0
80,232,34128,5,2
112,288,34343,2,0,B|156:288|172:264|172:264|188:288|264:288,1,160,0|4
380,288,35200,5,2
444,180,35628,2,0,B|444:92,1,80,2|0
316,92,36271,1,2
196,140,36700,1,0
256,252,37128,1,2
256,252,37771,5,2
256,252,37986,2,0,B|320:340|444:340|492:248|476:128|328:116,1,400,0|2
304,124,39271,2,0,B|256:140|244:188,1,80,0|2
256,252,39700,2,0,B|192:340|68:340|20:248|36:128|184:116,1,400,0|2
256,56,41200,5,2
256,192,41628,12,0,42914
256,192,43343,12,0,44628
128,236,45057,5,2
112,176,45271,1,0
160,132,45486,2,0,B|232:100|320:140,1,160,2|2
444,140,46343,1,2
372,244,46771,5,4
308,260,46986,1,0
244,264,47200,2,0,B|204:240|204:192,1,80,2|0
176,72,47843,2,0,B|208:48|264:64,2,80,0|2|0
84,160,48700,5,0
60,220,48914,1,2
36,280,49128,1,0
88,316,49343,2,0,B|108:364|156:348,1,80,2|0
168,288,49771,2,0,B|204:260|240:300,1,80,2|0
300,312,50200,6,0,B|360:252,2,80,2|0|2
276,252,50843,1,0
152,192,51271,2,0,B|208:136,1,80,0|2
264,168,51700,1,0
368,92,52128,1,0
368,92,52343,1,2
368,92,52557,2,0,B|324:40|264:16|204:40|152:92,1,240,0|2
76,188,53628,5,4
48,244,53843,1,0
112,236,54057,1,2
76,188,54271,1,0
204,184,54700,2,0,B|252:164|296:180,2,80,0|2|0
148,292,55557,6,0,B|184:336|236:316,1,80,0|2
240,260,55986,1,0
304,260,56200,2,0,B|340:292|308:336,2,80,2|0|2
288,196,56843,1,0
224,200,57057,6,0,B|160:148,1,80,6|0
108,112,57486,1,2
108,112,57700,1,0
80,236,58128,1,0
176,320,58557,1,0
208,264,58771,6,0,B|144:200,1,80
200,88,59414,1,0
328,112,59843,1,0
328,112,60057,2,0,B|324:208|200:212,1,160,0|4
156,232,60700,6,0,B|116:192|128:144,1,80,0|2
124,96,61128,1,0
248,68,61557,2,0,B|328:68|284:128|388:128,1,160,0|2
356,252,62414,5,0
300,284,62628,1,2
236,268,62843,1,0
192,224,63057,2,0,B|192:184|236:160,2,80,2|0|2
188,288,63700,1,0
180,352,63914,5,6
120,332,64128,1,0
64,300,64343,1,2
64,236,64557,1,0
120,120,64986,2,0,B|164:92|216:100,2,80,0|2|0
228,188,65843,2,0,B|228:224|204:268,1,80,0|2
244,316,66271,2,0,B|292:376|376:376|424:308|360:216,1,240,0|2
240,160,67343,6,0,B|200:192|232:240,2,80,4|0|2
240,160,67986,1,0
368,160,68414,2,0,B|408:192|376:240,2,80,0|2|0
304,272,69271,5,0
312,336,69486,1,2
252,312,69700,1,0
304,272,69914,2,0,B|304:228|260:208,1,80,2|0
200,188,70343,1,2
136,188,70557,1,0
168,132,70771,6,0,B|260:108|184:72|312:40,1,160,2|2
356,60,71414,1,0
464,128,71843,1,2
464,128,72271,2,0,B|428:256|256:232,1,240,0|2
152,188,73343,6,0,B|144:148|188:120,2,80,2|0|2
152,188,73986,1,0
256,192,74200,12,0,75914
256,136,76343,5,2
164,224,76771,5,2
224,252,76986,1,0
288,252,77200,1,2
344,224,77414,1,0
380,172,77628,6,0,B|352:96|256:48|168:92|132:176,1,320,0|2
132,240,78914,1,0
132,304,79128,1,0
176,348,79343,1,2
256,248,79771,5,2
348,160,80199,5,2
288,132,80414,1,0
224,132,80628,1,2
168,160,80842,1,0
132,212,81057,6,0,B|160:288|256:336|344:292|380:208,1,320,0|2
380,144,82343,1,0
380,80,82557,1,0
336,36,82772,1,2
256,136,83200,5,2
348,228,83628,5,2
288,256,83843,1,0
224,256,84057,1,2
168,228,84271,1,0
256,192,84486,12,0,86200
