osu file format v9

[General]
AudioFilename: Orange (TV Size).mp3
AudioLeadIn: 2000
PreviewTime: 45486
Countdown: 0
SampleSet: Soft
StackLeniency: 0.7
Mode: 0
LetterboxInBreaks: 0

[Editor]
DistanceSpacing: 1.1
BeatDivisor: 4
GridSize: 4

[Metadata]
Title:Orange (TV Size)
Artist:Rie Kugimiya, Eri Kitamura & Yui Horie
Creator:12BARRY21
Version:Easy
Source:Toradora!
Tags:Aisaka Taiga Kushieda Monori Kawashima Ami Takasu Ryuuji Tiger Dragon Ending No_Gu spboxer3 bossandy boss

[Difficulty]
HPDrainRate:2
CircleSize:3
OverallDifficulty:2
ApproachRate:3
SliderMultiplier:0.8
SliderTickRate:1

[Events]
//Background and Video events
Video,0,"Toradora! Ending 2.avi"
0,0,"Toradora! BG.jpg"
//Break Periods
//Storyboard Layer 0 (Background)
//Storyboard Layer 1 (Fail)
//Storyboard Layer 2 (Pass)
//Storyboard Layer 3 (Foreground)
//Storyboard Sound Samples
//Background Colour Transformations
3,100,163,162,255

[TimingPoints]
-1230,428.571428571429,4,2,1,65,1,0
484,-100,4,2,1,70,0,1
591,-100,4,2,1,70,0,0
12912,-100,4,2,1,50,0,0
13127,-100,4,2,1,65,0,0
13341,-100,4,2,1,50,0,0
13555,-100,4,2,1,65,0,0
13770,-100,4,2,1,60,0,0
14198,-100,4,2,1,40,0,0
26198,-100,4,2,1,50,0,0
26841,-100,4,2,1,55,0,0
27912,-100,4,2,1,70,0,1
28020,-100,4,2,1,70,0,0
45055,-100,4,1,1,60,0,0
46770,-100,4,2,1,75,0,1
58770,-100,4,1,1,70,0,1
60270,-100,4,1,1,50,0,1
60377,-100,4,1,1,50,0,0
60484,-100,4,2,1,75,0,1
74198,-100,4,2,1,60,0,0
81055,-100,4,2,1,40,0,0
84484,-100,4,2,1,30,0,0
86198,-100,4,2,1,20,0,0

[Colours]
Combo1 : 253,215,83
Combo2 : 111,219,255
Combo3 : 255,121,245
Combo4 : 147,248,129
Combo5 : 248,156,54
SliderBorder : 255,210,0

[HitObjects]
124,52,484,2,0,B|115:105|115:105|149:112|175:135|187:175,1,160,4|0
101,193,1770,1,10
16,210,2198,2,0,B|27:249|53:272|87:280|87:280|79:333,1,160,0|0
164,356,3484,1,10
248,328,3912,6,0,B|290:314|327:336,1,79.9999999999999,2|8
337,249,4770,2,0,B|374:271|416:257,1,79.9999999999999,2|8
385,175,5627,1,0
362,90,6055,2,0,B|404:80|440:106,2,79.9999999999999,8|0|8
276,76,7341,6,0,B|200:96|200:96|120:96,1,160,4|0
88,180,8627,1,10
104,268,9055,2,0,B|185:268|185:268|261:288,1,160,0|0
336,332,10341,1,10
424,344,10770,6,0,B|464:336|484:296,1,79.9999999999999,2|8
404,256,11627,2,0,B|434:229|431:184,1,79.9999999999999,2|8
344,192,12484,2,0,B|348:132|316:76,2,120,0|2|0
268,236,14198,6,0,B|168:256|168:256|148:284|148:284|44:304,1,240,4|0
40,216,15912,2,0,B|4:176|4:120|24:72|68:40|124:48,1,240,2|0
208,52,17627,6,0,B|280:64|280:64|336:132|432:100,1,240,2|0
468,180,19341,2,0,B|476:300,2,120,2|2|0
380,196,21055,6,0,B|316:244|316:244|292:320,1,160,4|0
204,332,22341,1,0
116,324,22770,2,0,B|72:320|48:288|36:236|60:200,1,160,2|0
144,176,24055,1,0
228,152,24484,6,0,B|208:32,2,120,2|0|0
316,136,26198,5,8
316,136,27484,1,2
404,144,27912,6,0,B|440:220|416:304,1,160,4|0
332,328,29198,2,0,B|252:336,1,79.9999999999999,8|0
188,276,30055,2,0,B|108:284,1,79.9999999999999,8|2
24,312,30912,1,10
40,224,31341,6,0,B|16:148|16:148|24:68,1,160,4|0
112,48,32627,1,8
200,52,33055,2,0,B|224:128|224:128|216:208,1,160,0|2
256,288,34341,1,10
340,316,34770,5,4
428,304,35198,2,0,B|464:292|492:260,2,79.9999999999999,8|0|8
372,236,36484,1,2
422,162,36912,2,0,B|438:128|436:85,2,79.9999999999999,8|0|10
336,156,38198,6,0,B|304:108|252:76|192:60|124:60,1,240,4|10
88,140,39912,2,0,B|120:188|172:220|232:236|300:236,1,240,0|10
256,192,41627,12,4,45055
168,340,46770,6,0,B|88:356,1,79.9999999999999,4|10
68,268,47627,2,0,B|148:252,1,79.9999999999999,0|10
128,164,48484,2,0,B|48:180,1,79.9999999999999,0|10
28,92,49341,2,0,B|108:76,1,79.9999999999999,0|10
196,68,50198,6,0,B|272:96|272:96|352:100,1,160,0|0
404,172,51484,1,10
360,248,51912,2,0,B|392:268|424:268|456:252|472:232,2,120,0|2|10
272,264,53627,6,0,B|232:276|204:308,1,79.9999999999999,4|10
116,316,54484,2,0,B|36:304,1,79.9999999999999,0|10
20,216,55341,1,0
104,192,55770,1,10
40,132,56198,1,0
124,108,56627,1,10
212,112,57055,6,0,B|288:136|372:128,1,160,4|0
452,156,58341,1,8
484,236,58770,6,0,B|492:276,1,40,4|0
404,260,59412,2,0,B|420:352,2,79.9999999999999
364,244,60484,6,0,B|324:240|288:260,1,79.9999999999999,4|10
224,324,61341,1,0
136,340,61770,1,10
48,324,62198,2,0,B|28:288|28:248,1,79.9999999999999,0|10
80,176,63055,2,0,B|79:135|59:99,1,79.9999999999999,0|10
124,36,63912,6,0,B|208:80|296:48|296:48|328:104,1,240,0|10
364,184,65627,2,0,B|420:212|480:200,2,120,0|2|10
288,228,67341,6,0,B|315:267|307:309,1,79.9999999999999,4|10
223,325,68198,2,0,B|195:285|203:243,1,79.9999999999999,0|10
127,205,69055,2,0,B|87:232|45:224,1,79.9999999999999,0|10
30,141,69912,2,0,B|69:113|111:121,1,79.9999999999999,0|10
256,192,70770,12,0,73341
144,80,74198,6,0,B|120:120|120:120|64:128|40:176|40:236|92:268,1,240,4|0
176,276,75912,2,0,B|260:248|336:296|336:296|408:288,1,240,2|8
460,216,77627,6,0,B|472:96,2,120,2|0|0
380,180,79341,2,0,B|392:60,2,120,2|0|8
292,192,81055,6,0,B|200:176|168:100|168:100|92:140|16:96,1,320,4|2
116,240,83627,1,0
256,192,84484,12,2,86198
