osu file format v5

[General]
AudioFilename: Toradora_-_Pre-Parade.mp3
AudioLeadIn: 0
PreviewTime: 53826
Countdown: 1
SampleSet: Normal
StackLeniency: 0.6
Mode: 0
LetterboxInBreaks: 1
EditorBookmarks: 2079,26078,54576,93574,122072,165569,192568,198180

[Metadata]
Title:Pre-Parade
Artist:Rie Kugimiya
Creator:Dangaard
Version:Hard
Source:Toradora!
Tags:Toradora OP

[Difficulty]
HPDrainRate:8
CircleSize:6
OverallDifficulty:7
SliderMultiplier:1.6
SliderTickRate:2

[Events]
//Background and Video events
0,0,"Toradora.jpg"
//Break Periods
2,13499,24848
2,81376,92651
//Storyboard Layer 0 (Background)
//Storyboard Layer 1 (Failing)
//Storyboard Layer 2 (Passing)
//Storyboard Layer 3 (Foreground)
//Storyboard Sound Samples
//Background Colour Transformations
3,100,163,162,255

[TimingPoints]
580,375,4,1,0,100,1

[Colours]
Combo1 : 250,75,95
Combo2 : 65,130,220
Combo3 : 250,160,45

[HitObjects]
96,312,2080,1,0
224,312,2455,1,0
352,312,2830,1,0
352,120,3392,1,0
224,120,3767,1,0
96,120,4142,1,0
56,168,4330,1,0
56,296,4705,1,0
184,296,5080,5,0
184,168,5455,1,0
312,168,5830,1,0
352,120,6017,1,0
480,120,6392,1,0
480,248,6767,1,0
440,296,6955,1,0
312,296,7330,1,4
64,296,8455,5,0
64,232,8642,1,0
64,232,8830,1,0
64,104,9205,1,8
104,56,9392,1,0
104,184,9767,1,0
104,312,10142,1,0
104,312,10330,1,0
152,272,10517,1,0
152,208,10705,1,0
152,80,11080,5,0
280,80,11455,1,0
320,128,11642,1,0
320,128,11736,1,0
320,128,11830,1,0
320,192,12017,1,0
192,192,12392,1,0
192,320,12767,1,0
256,320,12955,1,0
256,192,13330,1,4
32,40,26080,6,0,L|112:40,1,80
176,40,26455,2,0,L|176:128,1,80,0|0
112,120,26830,2,0,L|112:200,1,80,0|0
112,264,27205,1,8
176,264,27392,2,0,L|176:184,1,80
176,120,27767,2,8,L|264:120,1,80,0|0
128,120,28330,1,0
384,120,29080,2,0,L|296:120,1,80
328,176,29455,2,0,L|328:256,1,80,0|0
392,256,29830,2,0,L|392:168,1,80,0|0
448,208,30205,1,8
456,144,30392,2,0,B|319:161|396:262|240:288,1,240,0|0
272,344,31142,1,0
80,344,31705,5,0
80,216,32080,1,0
112,160,32267,1,0
144,216,32455,1,0
176,160,32642,1,0
208,216,32830,2,0,L|288:216,1,80,0|0
344,192,33205,1,8
344,128,33392,2,0,L|344:40,1,80
280,48,33767,2,0,L|280:128,1,80,0|0
280,256,34330,1,0
40,168,35080,2,0,L|128:168,1,80
120,240,35455,2,0,L|120:320,1,80,0|0
64,352,35830,2,0,L|64:264,1,80,0|0
64,208,36205,1,8
64,144,36392,2,0,B|201:161|124:262|280:288,1,240,0|0
248,344,37142,1,4
240,24,38080,5,0
304,24,38267,2,0,L|408:24,1,80
384,88,38642,2,0,L|384:176,2,80,0|0|0
384,24,39205,1,8
448,24,39392,2,0,L|448:136,1,80,0|0
448,168,39767,2,0,L|448:248,1,80,0|0
384,240,40142,1,0
384,176,40330,1,0
384,240,40517,1,0
384,304,40705,1,8
384,304,40892,1,0
448,304,41080,5,0
448,240,41267,2,0,L|448:152,1,80,0|0
448,96,41642,1,0
384,96,41830,1,0
384,160,42017,2,0,L|288:160,1,80,0|8
304,96,42392,1,0
304,160,42580,1,0
304,224,42767,2,0,L|384:224,1,80,0|0
384,160,43142,1,0
384,224,43330,2,0,L|384:144,1,80
320,144,43705,2,0,L|320:224,1,80,8|0
272,104,44267,6,0,L|184:104,1,80,0|0
128,104,44642,2,0,L|80:8,2,80,0|0|0
128,168,45205,1,8
128,232,45392,2,0,L|216:232,1,80
208,168,45767,2,0,L|296:168,1,80,0|8
288,232,46142,1,0
416,232,46517,5,0
416,296,46705,1,8
368,344,46892,1,0
304,344,47080,1,0
176,344,47455,1,8
280,264,47830,1,0
280,264,47923,1,0
280,264,48017,1,0
408,264,48392,1,0
376,136,48767,1,0
360,200,48955,1,8
344,264,49142,2,0,B|104:264|104:264|240:48|240:48|376:232,1,720,0|0
256,192,51580,12,4,53080
232,192,53830,5,0
40,192,54392,1,0
168,192,54767,1,0
104,192,54955,1,8
232,192,55330,1,0
168,192,55517,1,0
232,192,55705,1,8
104,192,56080,1,0
168,192,56267,1,0
104,192,56455,1,8
168,192,56642,1,0
392,312,57392,5,0
304,216,57767,1,0
352,176,57955,1,8
448,96,58330,1,0
448,96,58423,1,0
448,96,58517,1,0
384,96,58705,1,8
416,152,58892,1,0
352,152,59080,1,0
384,208,59267,1,0
448,208,59455,1,8
480,152,59642,1,0
272,304,60392,5,0
144,304,60767,1,0
112,248,60955,1,8
176,248,61142,2,0,L|256:248,1,80
288,304,61517,1,0
256,248,61705,1,8
288,304,61892,2,0,L|208:304,1,80
144,304,62267,1,0
176,248,62455,1,8
112,248,62642,1,0
88,56,63392,5,0
136,176,63767,1,0
184,216,63955,1,8
248,224,64142,1,0
312,224,64330,2,0,B|359:229|400:176,1,80
432,80,64892,1,0
432,208,65267,1,0
376,176,65455,1,8
336,120,65642,1,0
328,56,65830,1,0
328,56,66017,1,0
200,56,66392,5,0
88,120,66767,1,0
72,184,66955,1,8
72,312,67330,2,0,B|117:321|168:280,1,80
200,256,67705,1,8
200,256,67798,1,0
240,200,67986,1,0
240,200,68080,1,0
272,144,68267,1,0
328,112,68455,1,8
392,96,68642,1,0
456,344,69392,5,0
456,216,69767,1,0
456,216,69861,1,0
456,216,69955,1,8
456,88,70330,1,0
456,88,70423,1,0
456,88,70517,1,0
392,88,70705,2,0,B|323:118|344:200,1,120,8|0
344,216,71080,1,0
336,280,71267,1,0
288,328,71455,1,8
224,344,71642,1,0
392,152,72392,5,0
264,152,72767,2,0,L|344:152,1,80,0|8
344,88,73142,1,0
344,152,73330,2,0,L|229:153,1,80,0|0
200,152,73705,1,8
264,152,73892,5,0
264,88,74080,2,0,L|168:88,1,80
120,88,74455,2,0,L|120:168,1,80,8|0
360,88,75392,5,0
232,88,75767,2,0,L|232:176,1,80,0|8
288,144,76142,2,0,L|288:224,1,80,0|0
344,192,76517,1,8
408,208,76705,1,8
432,224,76798,1,0
456,240,76892,1,0
384,344,77267,2,0,L|384:264,1,80,0|8
328,288,77642,2,0,L|328:200,1,80
384,232,78017,1,8
408,168,78205,1,8
432,152,78298,1,0
456,136,78392,1,0
368,40,78767,6,0,L|264:40,1,80,0|8
224,40,79142,2,0,L|152:112,1,80
168,160,79517,1,8
232,160,79705,2,0,L|328:160,1,80,8|0
424,104,80267,1,8
392,104,80361,1,0
360,104,80455,1,8
296,104,80642,1,0
232,104,80830,1,0
232,232,81205,1,12
88,160,93580,6,0,L|200:160,1,80,0|0
208,96,93955,2,0,L|296:96,1,80
352,144,94330,2,0,L|352:232,1,80,0|0
280,264,94705,1,8
336,296,94892,1,0
280,328,95080,1,0
224,296,95267,2,0,L|224:216,1,80
344,184,95830,1,0
360,248,96017,1,8
360,248,96205,1,8
424,136,96580,6,4,L|336:136,1,80,0|0
424,136,96955,2,0,L|424:232,1,80,0|0
424,136,97330,2,0,L|424:32,1,80,0|0
480,168,97892,1,0
480,232,98080,1,0
424,256,98267,1,0
424,256,98455,1,0
368,232,98642,1,0
480,168,99017,1,8
424,136,99205,1,8
320,56,99580,5,0
320,56,99767,1,0
256,56,99955,1,0
256,120,100142,2,0,L|256:224,1,80
256,264,100517,1,0
256,136,100892,1,0
168,224,101267,2,0,L|64:224,1,80
160,120,101830,1,0
208,72,102017,1,8
272,72,102205,1,8
328,184,102580,6,0,L|272:104,1,80
280,184,102955,2,0,L|224:104,1,80,0|0
232,184,103330,2,0,L|168:96,1,80,0|0
56,120,103892,1,0
56,120,104080,1,0
56,184,104267,1,0
88,240,104455,1,0
88,240,104642,1,4
408,320,105580,5,0
408,256,105767,2,0,L|408:176,1,80,0|0
408,112,106142,2,0,L|488:112,2,80
408,176,106705,1,8
408,112,106892,2,0,L|408:24,1,80,0|0
472,32,107267,2,0,L|472:144,1,80,0|0
408,112,107642,1,0
408,48,107830,1,0
472,48,108017,1,0
472,112,108205,1,8
472,112,108392,1,0
408,112,108580,5,0
344,112,108767,2,0,L|256:112,1,80
264,48,109142,1,0
200,48,109330,1,0
200,112,109517,2,0,L|104:112,2,80,0|8|0
200,176,110080,1,0
200,240,110267,2,0,L|288:240,1,80
280,176,110642,2,0,L|376:176,2,80
280,112,111205,2,0,L|280:24,1,80,8|0
216,32,111580,5,0
152,32,111767,2,0,L|152:112,1,80
88,112,112142,2,0,L|88:32,2,80
88,176,112705,1,8
152,168,112892,2,0,L|152:72,1,80
88,112,113267,2,0,L|88:216,1,80,0|8
88,256,113642,1,0
152,256,113830,1,0
216,256,114017,2,0,B|216:160,1,80,0|8
280,176,114392,2,0,B|376:176,2,80,0|0|0
280,240,114955,1,8
280,176,115142,1,0
280,112,115330,2,0,B|184:112,1,80
200,176,115705,5,8
200,112,115892,1,0
200,48,116080,1,0
264,48,116267,1,0
264,48,116455,1,8
328,48,116642,1,0
328,48,116830,1,0
392,48,117017,2,0,L|392:144,1,80,0|8
456,128,117392,2,0,L|456:40,2,80
392,128,117955,1,8
328,128,118142,2,0,L|328:40,1,80
392,48,118517,2,0,L|392:152,1,80,0|8
256,192,119080,12,4,120580
320,160,121330,5,0
128,160,121892,1,0
256,160,122267,1,0
256,160,122455,1,8
192,160,122642,1,0
192,96,122830,1,0
256,96,123017,1,0
256,160,123205,1,8
256,160,123392,1,0
256,224,123580,1,0
320,224,123767,1,0
320,160,123955,1,8
320,160,124142,1,0
104,296,124892,5,0
104,168,125267,2,0,B|104:256,2,80,0|8|0
104,104,125830,1,0
104,104,125923,1,0
104,104,126017,1,0
168,104,126205,1,8
168,104,126298,1,0
168,104,126392,1,0
168,168,126580,2,0,B|256:168,1,80
248,104,126955,1,8
248,168,127142,1,0
448,320,127892,5,0
448,192,128267,1,0
448,128,128455,1,8
400,88,128642,1,0
400,88,128736,1,0
400,88,128830,1,0
352,128,129017,1,0
352,192,129205,1,8
304,240,129392,1,0
304,240,129486,1,0
304,240,129580,1,0
256,192,129767,1,0
256,128,129955,1,8
256,64,130142,1,0
72,328,130892,5,0
200,328,131267,1,0
264,328,131455,1,8
328,328,131642,2,0,L|328:248,2,80
392,328,132205,1,8
392,264,132392,1,0
392,264,132580,1,0
328,264,132767,1,0
264,264,132955,1,8
264,264,133142,1,0
200,264,133330,1,0
200,264,133423,1,0
200,264,133517,1,0
80,304,133892,5,0
80,176,134267,1,0
80,112,134455,1,8
128,72,134642,1,0
128,72,134736,1,0
128,72,134830,1,0
176,112,135017,1,0
176,176,135205,1,8
224,224,135392,1,0
224,224,135486,1,0
224,224,135580,1,0
272,176,135767,1,0
272,112,135955,1,8
272,48,136142,1,0
384,280,136892,5,0
472,192,137267,1,0
472,128,137455,1,8
448,64,137642,1,0
384,64,137830,2,0,B|336:64,2,40
384,128,138205,2,0,B|432:128,2,40,8|0|0
344,184,138580,2,0,B|248:184,1,80,0|0
264,248,138955,1,8
264,312,139142,1,0
280,48,139892,5,0
408,48,140267,2,0,B|408:144,1,80,0|8
472,128,140642,1,0
472,160,140736,1,0
472,192,140830,2,0,B|392:256,1,80
408,304,141205,1,8
344,304,141392,1,0
312,304,141486,1,0
280,304,141580,2,0,B|280:216,1,80
344,224,141955,2,0,B|440:224,1,80,8|0
424,288,142330,1,0
424,224,142517,1,0
424,160,142705,1,8
424,160,142798,1,0
424,160,142892,1,0
384,104,143080,5,0
336,56,143267,2,0,B|240:56,1,80,0|8
192,56,143642,2,0,B|96:56,1,80
64,104,144017,1,8
72,168,144205,1,8
88,192,144298,1,0
104,216,144392,1,0
104,280,144580,1,0
168,280,144767,2,0,B|168:192,2,80,0|8|0
232,280,145330,1,0
296,280,145517,1,8
296,216,145705,1,8
312,192,145798,1,0
328,168,145892,1,0
328,104,146080,5,0
264,104,146267,2,0,B|168:104,1,80,0|8
184,168,146642,2,0,B|128:168,2,40
184,232,147017,1,8
248,232,147205,2,0,B|248:320,1,80,8|0
184,312,147580,5,0
248,312,147767,1,8
248,312,147861,1,0
248,312,147955,1,8
256,248,148142,1,0
256,184,148330,1,0
256,56,148705,1,12
