osu file format v7

[General]
AudioFilename: Rie Kugimiya - Please Freeze.mp3
AudioLeadIn: 2500
PreviewTime: 59268
Countdown: 0
SampleSet: Normal
StackLeniency: 0.7
Mode: 0
LetterboxInBreaks: 0

[Editor]
Bookmarks: 1018,16123,29549,42976,59759,79899,86612,100039,113465,126892,140319,157102,177242,183955,197381,212486,229270,249409,256123,269549,276263
DistanceSpacing: 1.20000004768372
BeatDivisor: 4
GridSize: 16

[Metadata]
Title:Please Freeze
Artist:Rie Kugimiya
Creator:Dangaard
Version:Hard
Source:Toradora! P
Tags:PSP Portable Eri Kitamura Yui Horie SiRiRu

[Difficulty]
HPDrainRate:6
CircleSize:4
OverallDifficulty:6
SliderMultiplier:1.28
SliderTickRate:1

[Events]
//Background and Video events
0,0,"BG.jpg"
//Break Periods
2,16323,28290
2,100239,112206
2,197581,210597
//Storyboard Layer 0 (Background)
//Storyboard Layer 1 (Fail)
//Storyboard Layer 2 (Pass)
//Storyboard Layer 3 (Foreground)
Sprite,Foreground,Centre,"SB\DANDAN.png",320,240 S,0,17810,,0.619512 F,0,17810,19069,0,1 M,0,17810,21167,373,442,463,444 F,0,19069,29139,1 F,0,29139,29558,1,0
Sprite,Foreground,Centre,"SB\DANDAN.png",320,240 M,0,21167,,464,445 F,0,21167,21586,1,0 S,0,21167,21586,0.6195115,0.8185356
//Storyboard Sound Samples
//Background Colour Transformations
3,100,0,0,0

[TimingPoints]
-660,419.58041958042,4,2,0,100,1,0
808,-200,4,2,0,100,0,0
12766,-100,4,1,0,40,0,0
13291,-100,4,1,0,50,0,0
13710,-100,4,1,0,60,0,0
14130,-100,4,1,0,70,0,0
14444,-100,4,1,0,80,0,0
29130,-100,4,1,0,50,0,0
41298,-100,4,1,0,55,0,0
41612,-100,4,1,0,60,0,0
41822,-100,4,1,0,65,0,0
42032,-100,4,1,0,70,0,0
43605,-100,4,1,0,60,0,0
45284,-100,4,1,0,70,0,0
46962,-100,4,1,0,60,0,0
48640,-100,4,1,0,70,0,0
58291,-100,4,1,0,75,0,0
58710,-100,4,1,0,80,0,0
59759,-100,4,1,0,80,0,1
79899,-100,4,1,0,80,0,0
88291,-200,4,2,0,70,0,0
88500,-200,4,2,0,100,0,0
93116,-200,4,1,0,40,0,0
94794,-200,4,1,0,50,0,0
97312,-200,4,1,0,55,0,0
97731,-200,4,1,0,60,0,0
98151,-200,4,1,0,70,0,0
98570,-200,4,1,0,75,0,0
98990,-200,4,1,0,80,0,0
99514,-200,4,1,0,85,0,0
99934,-200,4,1,0,90,0,0
113046,-200,4,2,0,80,0,0
119340,-100,4,1,0,30,0,0
121647,-100,4,1,0,35,0,0
123326,-100,4,1,0,40,0,0
125004,-100,4,1,0,45,0,0
126787,-100,4,1,0,50,0,0
129409,-100,4,1,0,40,0,0
130144,-100,4,1,0,50,0,0
132871,-100,4,1,0,40,0,0
133500,-100,4,1,0,50,0,0
136123,-100,4,1,0,40,0,0
136857,-100,4,1,0,50,0,0
138640,-100,4,1,0,55,0,0
138955,-100,4,1,0,60,0,0
139165,-100,4,1,0,65,0,0
139374,-100,4,1,0,70,0,0
140948,-100,4,1,0,60,0,0
142626,-100,4,1,0,70,0,0
144305,-100,4,1,0,60,0,0
145983,-100,4,1,0,70,0,0
155633,-100,4,1,0,75,0,0
156053,-100,4,1,0,80,0,0
157102,-100,4,1,0,80,0,1
159305,-100,4,1,0,70,0,1
159934,-100,4,1,0,80,0,1
162661,-100,4,1,0,70,0,1
163291,-100,4,1,0,80,0,1
166018,-100,4,1,0,70,0,1
166647,-100,4,1,0,80,0,1
172731,-100,4,1,0,70,0,1
173046,-100,4,1,0,80,0,1
177242,-100,4,1,0,80,0,0
183745,-100,4,2,0,80,0,0
183955,-200,4,2,0,80,0,0
190458,-200,4,1,0,40,0,0
192137,-200,4,1,0,45,0,0
194654,-200,4,1,0,50,0,0
195493,-200,4,1,0,55,0,0
195913,-200,4,1,0,60,0,0
196123,-100,4,1,0,60,0,0
196333,-100,4,1,0,65,0,0
196857,-100,4,1,0,70,0,0
197277,-100,4,1,0,80,0,0
211437,-100,4,1,0,70,0,0
213116,-100,4,1,0,60,0,0
214794,-100,4,1,0,70,0,0
216472,-100,4,1,0,60,0,0
218151,-100,4,1,0,70,0,0
227801,-100,4,1,0,75,0,0
228221,-100,4,1,0,80,0,0
228745,-100,4,1,0,50,0,0
228850,-200,4,1,0,50,0,0
235773,-200,4,1,0,55,0,0
239130,-200,4,1,0,60,0,0
240808,-200,4,1,0,65,0,0
241228,-200,4,1,0,75,0,0
241647,-200,4,1,0,80,0,0
242277,-100,4,1,0,80,0,0
242696,-100,4,1,0,80,0,1
244899,-100,4,1,0,70,0,1
245214,-100,4,1,0,80,0,1
257801,-200,4,1,0,70,0,1
269340,-100,4,2,0,70,0,1
269549,-200,4,2,0,70,0,0
273955,-100,4,2,0,40,0,0
274584,-100,4,2,0,35,0,0
275004,-100,4,2,0,30,0,0
275423,-100,4,2,0,25,0,0
275843,-100,4,2,0,20,0,0
276263,-100,4,2,0,15,0,0

[Colours]
Combo1 : 234,0,6
Combo2 : 233,3,152
Combo3 : 255,128,0
Combo4 : 90,181,248
Combo5 : 198,158,0

[HitObjects]
176,64,808,1,0
176,64,1018,2,0,B|184:21|248:35,1,64,2|0
256,32,1647,1,0
304,96,2067,1,0
240,128,2486,2,0,B|240:208,1,64,2|0
176,240,3326,1,0
176,240,3745,2,0,B|184:283|248:269,1,64
256,288,4374,6,0,B|352:288,1,64,2|0
352,304,5004,1,0
416,272,5423,1,0
368,208,5843,2,0,B|288:208,1,64,2|0
464,48,7521,5,0
464,48,7731,2,0,B|464:128,1,64,2|0
464,144,8360,1,0
400,192,8780,1,0
336,144,9200,2,0,B|328:101|264:115,1,64,2|0
272,192,10039,2,0,B|192:192,2,64
272,192,11088,5,2
336,240,11507,1,0
336,240,11717,2,0,B|328:283|264:269,1,64
192,272,12556,1,2
112,176,12976,6,0,B|112:224,2,32
64,112,13395,2,0,B|16:112,2,32
128,64,13815,2,0,B|128:16,2,32
176,128,14235,1,0
336,128,14654,5,0
384,64,14864,1,0
448,112,15074,1,0
352,240,15493,1,0
288,192,15703,1,0
240,256,15913,1,0
304,304,16123,1,4
64,304,29340,5,0
64,304,29549,1,0
160,304,29969,1,0
160,304,30179,2,0,B|176:354|250:352|259:292,1,128
320,224,31018,1,0
416,272,31437,1,0
480,192,31857,1,0
480,192,32277,2,0,B|476:108|387:113,1,128
400,112,32906,5,0
320,64,33326,1,0
320,64,33535,1,0
272,144,33955,1,0
352,192,34374,1,0
400,112,34794,1,0
144,64,36053,5,0
144,64,36263,2,0,B|94:80|96:154|156:163,1,128
144,160,36892,1,0
224,96,37312,1,0
256,192,37731,2,0,B|256:336,1,128
160,368,38570,1,0
160,368,38990,1,0
64,320,39409,5,0
64,320,39619,1,0
16,224,40039,1,0
16,224,40249,1,0
112,224,40668,1,0
208,224,41088,1,0
304,224,41507,2,0,B|304:304,2,64,4|0|0
304,224,42137,5,0
352,224,42346,1,0
400,224,42556,1,0
432,192,42766,1,0
448,144,42976,2,0,B|304:144,1,128,4|0
208,144,43815,5,0
160,144,44025,1,0
112,144,44235,1,0
80,112,44444,1,0
64,64,44654,2,0,B|208:64,1,128
304,64,45493,5,0
304,64,45703,1,0
304,64,45913,2,0,B|304:144,2,64,0|0|0
208,64,46752,1,0
208,160,47172,5,0
208,160,47381,1,0
208,160,47591,2,0,B|208:240,2,64
304,160,48430,1,0
384,208,48850,5,0
384,208,49060,1,0
384,208,49270,1,0
384,208,49479,2,0,B|376:251|312:237,1,64,0|4
128,272,50528,5,0
128,272,50738,1,0
128,272,50948,1,0
128,272,51158,2,0,B|136:315|200:301,1,64
64,112,52207,6,0,B|160:112,1,64,0|0
128,112,52626,1,0
128,112,52836,1,0
128,112,53046,1,0
336,112,53885,5,0
336,112,54095,1,0
336,208,54514,2,0,B|307:268|195:268|171:197,1,192
96,272,55563,1,0
48,176,55983,1,0
112,96,56402,2,0,B|144:40|262:22|386:40|408:113,1,320,4|0
400,96,57661,1,0
464,176,58081,5,0
416,272,58500,1,0
320,272,58920,1,4
320,272,59130,1,4
320,272,59340,6,0,B|320:192,1,64
320,128,59759,2,0,B|316:44|227:49,1,128,4|8
240,128,60388,1,0
160,128,60598,2,0,B|110:144|112:218|172:227,1,128,0|8
240,224,61228,1,0
320,224,61437,2,0,B|400:224,3,64,0|0|8|0
256,32,62696,6,0,B|256:112,1,64,8|0
256,176,63116,2,0,B|256:320,1,128,0|8
176,304,63745,1,0
176,384,63955,2,0,B|92:380|97:291,1,128,0|8
96,224,64584,1,0
160,176,64794,2,0,B|152:133|88:147,1,64
48,96,65214,2,0,B|56:53|120:67,1,64,8|0
304,176,66053,5,8
352,112,66263,1,0
416,160,66472,2,0,B|466:176|464:250|404:259,1,128,0|8
368,320,67102,1,0
304,272,67312,2,0,B|233:265|260:332|175:318,1,128,0|8
192,320,67941,1,0
112,288,68151,1,0
80,208,68360,1,0
112,128,68570,1,8
192,96,68780,2,0,B|192:240,2,128,0|8|0
192,96,69829,5,4
192,96,70249,1,8
336,48,70668,1,0
448,160,71088,1,8
416,304,71507,2,0,B|369:375|219:375|182:285,1,256,4|4
80,192,72766,5,8
32,128,72976,1,0
80,64,73186,2,0,B|96:14|170:16|179:76,1,128,4|8
224,128,73815,1,0
272,64,74025,2,0,B|288:14|362:16|371:76,1,128,0|8
416,128,74654,1,0
368,192,74864,2,0,B|288:192,3,64,0|0|8|0
80,272,76123,5,8
144,320,76333,1,0
192,256,76542,2,0,B|192:112,1,128,0|8
256,80,77172,1,0
304,144,77381,2,0,B|304:288,1,128,0|8
368,320,78011,1,0
416,256,78221,2,0,B|416:176,1,64
480,144,78640,1,8
432,80,78850,2,0,B|403:20|291:20|267:91,1,192,0|8
128,32,79899,5,4
16,144,80319,1,8
32,304,80738,1,0
176,368,81158,1,8
336,368,81577,1,4
480,304,81997,1,8
496,144,82416,1,0
384,32,82836,1,8
416,176,83256,2,0,B|377:260|254:298|123:262|88:157,1,384,4|0
192,64,84934,5,4
384,128,85353,1,0
320,320,85773,1,0
128,256,86193,1,0
256,192,86612,12,6,88291
208,288,88710,5,0
288,304,89130,1,2
368,320,89549,1,0
448,336,89969,2,0,B|448:208,1,96,2|2
368,160,91228,2,0,B|368:240,1,64,0|2
320,288,92067,5,0
256,240,92486,1,2
304,176,92906,1,0
368,224,93326,6,0,B|448:224,1,64,0|8
368,304,94165,2,0,B|288:304,1,64,0|8
224,368,95004,2,0,B|224:288,1,64,0|8
144,240,95843,2,0,B|144:336,2,64,0|8|0
48,240,97102,5,8
80,144,97521,1,0
160,80,97941,1,8
256,48,98360,1,0
352,80,98780,1,8
432,144,99200,2,0,B|432:208,4,32,0|0|8|0|4
256,336,113256,5,0
256,336,113465,2,0,C|192:336,1,64,2|0
160,336,114095,1,0
96,288,114514,1,0
144,224,114934,2,0,C|208:224,1,64,2|0
288,224,115773,1,0
288,224,116193,2,0,B|329:228|337:188,1,64,0|0
352,160,116822,6,0,C|352:96,1,64,2|0
336,64,117451,1,0
256,80,117871,1,0
240,160,118291,1,2
240,160,118710,1,0
448,320,119969,5,0
448,320,120179,1,0
448,320,120598,1,8
448,320,121228,2,0,C|448:256,1,64,0|8
368,192,121857,5,0
368,192,122277,1,8
368,192,122906,2,0,C|368:256,1,64,0|8
288,320,123535,5,0
288,320,123955,1,8
288,320,124584,2,0,C|288:256,1,64,0|8
208,192,125214,5,0
208,192,125423,1,8
208,192,125633,1,0
208,192,125843,2,0,C|208:272,1,64,0|0
160,320,126263,1,8
160,320,126367,1,8
96,272,126577,1,8
96,272,126682,1,8
144,208,126892,5,4
64,144,127312,1,0
64,144,127521,2,0,B|68:60|157:65,1,128,0|0
144,64,128151,1,0
144,64,128360,5,0
192,208,128780,1,0
336,160,129200,1,0
288,16,129619,1,8
288,16,129724,1,8
240,80,129934,1,8
240,80,130039,1,8
256,160,130249,6,0,C|128:160,1,128
128,160,130878,1,0
48,224,131298,1,0
112,304,131717,1,0
192,240,132137,5,0
192,240,132346,1,0
192,240,132556,2,0,C|192:272,2,32
272,240,132976,1,8
272,240,133081,1,8
320,304,133291,1,8
320,304,133395,1,8
384,256,133605,5,0
336,160,134025,1,0
336,160,134235,2,0,C|336:16,1,128
336,32,134864,1,0
336,32,135074,5,0
480,80,135493,1,0
432,224,135913,1,0
288,176,136333,1,8
288,176,136437,1,8
224,224,136647,1,8
224,224,136752,1,8
176,160,136962,5,0
80,208,137381,1,0
80,208,137591,1,0
128,304,138011,1,0
224,304,138430,1,0
320,304,138850,2,0,C|400:304,2,64,4|0|0
320,224,139479,5,0
320,224,139689,1,0
320,224,139899,2,0,C|240:224,1,64
256,224,140319,1,4
192,144,140738,1,0
192,144,141158,5,0
192,144,141367,1,0
192,144,141577,2,0,C|272:144,1,64
256,144,141997,1,0
320,64,142416,1,0
320,64,142836,5,0
320,64,143046,1,0
320,64,143256,1,0
320,64,143465,1,0
320,64,143675,2,0,C|176:64,1,128
64,144,144514,5,0
64,144,144724,1,0
64,144,144934,1,0
64,144,145144,1,0
64,144,145353,2,0,C|208:144,1,128
352,144,146193,5,0
352,144,146402,1,0
352,144,146612,2,0,C|352:224,2,64,0|0|4
160,208,147871,5,0
160,208,148081,1,0
160,208,148291,2,0,C|160:288,2,64
256,32,149549,6,0,C|256:96,1,64
256,96,149969,1,0
256,96,150179,1,0
256,96,150388,1,0
176,288,151228,5,0
176,288,151437,1,0
176,192,151857,2,0,B|205:132|317:132|341:203,1,192
416,128,152906,1,0
464,224,153326,1,0
400,304,153745,2,0,B|368:360|250:378|126:360|104:287,1,320,4|0
112,304,155004,1,0
48,224,155423,5,0
96,128,155843,1,0
192,128,156263,1,4
192,128,156472,1,4
192,128,156682,6,0,B|192:208,1,64
192,272,157102,2,0,B|208:322|282:320|291:260,1,128,4|8
320,192,157731,1,0
288,112,157941,2,0,B|304:62|378:64|387:124,1,128,0|8
416,192,158570,5,0
384,272,158780,1,0
304,304,158990,1,0
224,304,159200,1,8
144,272,159409,1,0
144,272,159514,1,8
112,192,159724,1,8
112,192,159829,1,8
192,192,160039,6,0,C|192:128,1,64,8|0
272,128,160458,2,0,C|416:128,1,128,0|8
448,64,161088,1,0
384,16,161298,2,0,C|256:16,1,128,0|8
208,80,161927,5,0
144,32,162137,1,0
96,96,162346,2,0,C|96:160,1,64,0|8
48,224,162766,1,8
48,224,162871,1,8
112,272,163081,1,8
112,272,163186,1,8
64,336,163395,5,8
128,384,163605,1,0
176,320,163815,2,0,B|247:327|220:260|305:274,1,128,0|8
352,224,164444,1,0
304,160,164654,2,0,B|233:153|260:220|175:206,1,128,0|8
192,208,165284,5,0
112,208,165493,2,0,B|71:212|63:172,1,64,0|0
64,96,165913,1,8
128,48,166123,1,8
128,48,166228,1,8
208,128,166542,2,0,B|224:178|298:176|307:116,1,128,8|0
304,128,167172,5,4
304,128,167591,1,8
400,240,168011,1,0
304,352,168430,1,8
160,304,168850,2,0,B|89:257|89:107|179:70,1,256,4|4
256,192,170109,5,8
256,192,170319,1,0
256,192,170528,2,0,C|400:192,1,128,4|8
432,128,171158,1,0
368,80,171367,2,0,C|240:80,1,128,0|8
160,80,171997,5,0
80,112,172207,1,0
48,192,172416,1,0
80,272,172626,1,8
160,304,172836,1,8
160,304,172941,2,0,C|160:208,1,96,8|0
208,144,173465,5,8
272,192,173675,1,0
320,128,173885,2,0,C|448:128,1,128,0|8
496,192,174514,1,0
432,240,174724,2,0,B|361:233|388:300|303:286,1,128,0|8
256,336,175353,5,0
192,288,175563,2,0,C|192:208,1,64
144,160,175983,1,8
144,160,176193,2,0,B|173:100|285:100|309:171,1,192,0|8
384,32,177242,5,4
496,144,177661,1,8
480,304,178081,1,0
336,368,178500,1,8
176,368,178920,1,4
32,304,179340,1,8
16,144,179759,1,0
128,32,180179,1,8
96,176,180598,2,0,B|135:260|258:298|389:262|424:157,1,384,4|0
320,64,182277,5,4
128,128,182696,1,0
192,320,183116,1,0
384,256,183535,1,0
384,256,183955,6,0,B|444:227|444:115|373:91,1,192,4|0
384,96,185633,1,0
304,64,186053,1,0
224,64,186472,1,0
144,96,186892,1,2
144,96,187312,6,0,B|84:125|84:237|155:261,1,192,0|0
144,256,188990,1,0
224,288,189409,1,0
304,288,189829,1,0
384,256,190249,1,2
384,256,190668,6,0,C|384:192,1,64,4|8
464,128,191507,2,0,C|464:192,1,64,0|8
384,128,192346,2,0,C|304:128,1,64,0|8
256,48,193186,2,0,C|320:48,2,64,0|8|0
160,48,194444,5,8
64,96,194864,1,0
32,192,195284,1,8
64,288,195703,1,0
160,336,196123,1,8
160,256,196437,5,0
160,256,196542,1,0
208,192,196752,1,0
272,240,196962,2,0,C|272:288,2,32,8|0|0
320,176,197381,1,4
304,64,211647,5,0
352,64,211857,1,0
400,64,212067,1,0
432,96,212277,1,0
448,144,212486,2,0,B|304:144,1,128,4|0
208,144,213326,5,0
160,144,213535,1,0
112,144,213745,1,0
80,176,213955,1,0
64,224,214165,2,0,B|208:224,1,128
304,224,215004,5,0
304,224,215214,1,0
304,224,215423,2,0,C|384:224,1,64
368,224,215843,1,0
464,224,216263,1,0
336,304,216682,5,0
336,304,216892,1,0
336,304,217102,2,0,C|256:304,1,64
272,304,217521,1,0
176,304,217941,1,0
176,208,218360,5,0
176,208,218570,1,0
176,208,218780,2,0,C|96:208,2,64,0|0|4
336,112,220039,5,0
336,112,220249,1,0
336,112,220458,2,0,C|400:112,2,64,0|0|0
48,112,221717,6,0,B|144:112,1,64,0|0
112,112,222137,1,0
112,112,222346,1,0
112,112,222556,1,0
336,112,223395,5,0
336,112,223605,1,0
336,208,224025,2,0,B|307:268|195:268|171:197,1,192
96,272,225074,1,0
48,176,225493,1,0
112,96,225913,2,0,B|144:40|262:22|386:40|408:113,1,320,4|0
400,96,227172,1,0
464,176,227591,5,0
416,272,228011,1,0
320,272,228430,1,4
320,272,228640,1,4
320,272,228850,5,0
320,272,229270,2,0,C|256:272,1,64,0|0
192,192,230109,2,0,C|272:192,1,64
320,272,230948,2,0,C|256:272,2,64
384,192,232207,5,0
384,192,232626,2,0,C|384:112,1,64
464,64,233465,2,0,C|464:144,1,64
384,192,234305,2,0,C|384:112,2,64
304,128,235563,5,0
304,128,235983,2,0,C|240:128,1,64,0|8
160,64,236822,2,0,C|80:64,1,64,0|8
16,128,237661,1,0
48,224,238081,1,8
144,256,238500,2,0,C|144:304,2,32,0|8|8
240,256,239340,6,0,C|240:176,1,64,0|8
320,320,240179,2,0,C|320:256,1,64,0|8
400,384,241018,5,0
464,304,241437,1,0
384,240,241857,1,0
320,320,242277,5,8
320,320,242486,1,0
320,320,242696,2,0,C|176:320,1,128,4|8
144,256,243326,1,0
208,208,243535,2,0,C|336:208,1,128,0|8
336,208,244165,5,0
400,256,244374,1,0
448,192,244584,1,0
384,144,244794,1,8
336,208,245004,1,8
336,208,245109,2,0,C|240:208,1,96,8|0
240,208,245633,5,8
192,272,245843,1,0
256,320,246053,2,0,C|384:320,1,128,0|8
448,272,246682,1,0
400,208,246892,2,0,B|393:137|460:164|446:79,1,128,0|8
400,32,247521,5,0
336,80,247731,2,0,C|336:144,1,64
288,208,248151,1,8
288,208,248360,2,0,B|259:268|147:268|123:197,1,192,0|8
128,32,249409,5,4
16,144,249829,1,8
32,304,250249,1,0
176,368,250668,1,8
336,368,251088,1,4
480,304,251507,1,8
496,144,251927,1,0
384,32,252346,1,8
416,176,252766,2,0,B|377:260|254:298|123:262|88:157,1,384,4|0
192,64,254444,5,4
384,128,254864,1,0
320,320,255284,1,0
128,256,255703,1,0
256,192,256123,12,4,257801
176,352,258221,5,0
96,320,258640,1,0
64,240,259060,1,0
64,240,259479,2,0,B|176:240,1,96,0|0
240,160,260738,2,0,B|160:160,1,64,0|0
96,160,261577,5,0
32,208,261997,1,0
80,272,262416,1,0
144,224,262836,6,0,B|224:224,1,64,4|8
272,304,263675,2,0,B|192:304,1,64,0|8
272,224,264514,2,0,B|352:224,1,64,0|8
400,304,265353,2,0,B|304:304,2,64,0|8|0
400,304,266612,5,8
464,224,267032,1,0
384,160,267451,1,8
320,240,267871,1,0
320,240,268291,6,0,C|256:240,1,64
176,240,269130,1,0
128,176,269549,6,0,C|32:176,2,96,4|2|0
192,128,271228,2,0,C|288:128,2,96,0|2|0
176,208,272906,2,0,B|205:268|317:268|341:197,1,192,0|0
256,192,274584,12,2,276263
