osu file format v12

[General]
AudioFilename: Darker Than Black Ending 1.mp3
AudioLeadIn: 0
PreviewTime: 21021
Countdown: 0
SampleSet: Soft
StackLeniency: 0.7
Mode: 0
LetterboxInBreaks: 1
WidescreenStoryboard: 1

[Editor]
DistanceSpacing: 2
BeatDivisor: 4
GridSize: 4
TimelineZoom: 1

[Metadata]
Title:Tsukiakari (TV size)
TitleUnicode:ツキアカリ
Artist:Rie Fu
ArtistUnicode:(リエ フゥ
Creator:spaikz
Version:Hard
Source:Darker than Black
Tags:Anime Ending Yin bk201
BeatmapID:362649
BeatmapSetID:131692

[Difficulty]
HPDrainRate:6
CircleSize:4
OverallDifficulty:5
ApproachRate:7
SliderMultiplier:1.4
SliderTickRate:1

[Events]
//Background and Video events
0,0,"Background.jpg",0,0
//Break Periods
//Storyboard Layer 0 (Background)
//Storyboard Layer 1 (Fail)
//Storyboard Layer 2 (Pass)
//Storyboard Layer 3 (Foreground)
//Storyboard Sound Samples
//Background Colour Transformations
3,100,163,162,255

[TimingPoints]
912,659.316904500549,4,2,0,25,1,0
21350,-66.6666666666667,4,2,0,35,0,0
21845,-66.6666666666667,4,1,0,35,0,0
22174,-66.6666666666667,4,2,0,40,0,0
38657,-66.6666666666667,4,2,0,25,0,0
39317,-66.6666666666667,4,2,0,40,0,0
42448,666.666666666667,4,2,0,40,1,1
42448,-66.6666666666667,4,2,0,40,0,1
42948,-66.6666666666667,4,1,0,25,0,1
43281,-66.6666666666667,4,2,0,40,0,1
48448,659.316904500549,4,2,0,35,1,1
48448,-66.6666666666667,4,2,0,35,0,1
52403,655.737704918033,4,2,0,40,1,1
52403,-66.6666666666667,4,2,0,40,0,1
64370,-66.6666666666667,4,2,0,35,0,1
65025,-66.6666666666667,4,2,0,30,0,1
66910,659.316904500549,4,2,0,25,1,0
66910,-100,4,2,0,25,0,0
82239,-66.6666666666667,4,2,0,35,0,0
83063,-66.6666666666667,4,2,0,45,0,0
87678,-66.6666666666667,4,2,0,30,0,0

[HitObjects]
460,236,252,5,0,0:0:0:0:
384,216,582,1,0,0:0:0:0:
320,260,912,2,0,P|280:270|237:275,1,70
216,340,1571,2,0,P|177:323|141:298,1,70
92,356,2230,2,0,P|80:316|76:274,1,70
4,260,2889,2,0,P|20:222|44:187,1,70
92,144,3549,1,0,0:0:0:0:
224,64,4208,1,0,0:0:0:0:
376,96,4867,6,0,P|391:126|398:165,1,70
476,160,5527,2,0,P|470:192|452:228,1,70
400,280,6186,1,0,0:0:0:0:
120,284,6845,6,0,P|112:252|120:204,1,70
44,184,7505,2,0,P|60:155|94:133,1,70
112,60,8164,2,0,P|140:76|162:110,1,70
124,176,8823,2,0,B|156:184|204:184|236:160|276:120,1,140
252,140,10141,1,0,0:0:0:0:
116,68,10801,6,0,P|91:47|55:29,2,70
396,68,12120,2,0,P|421:47|457:29,2,70
340,124,13109,1,0,0:0:0:0:
296,188,13439,1,0,0:0:0:0:
220,184,13768,2,0,P|196:160|176:124,1,70
396,68,14757,2,0,P|412:92|417:137,1,70
420,208,15416,2,0,P|428:235|419:280,1,70,0|0,0:0|0:0,0:0:0:0:
344,280,16076,1,0,0:0:0:0:
268,280,16405,2,0,P|259:252|268:207,1,70,0|0,0:0|0:0,0:0:0:0:
272,136,17065,1,0,0:0:0:0:
344,116,17394,6,0,P|330:90|292:65,1,70,0|0,0:0|0:0,0:0:0:0:
220,60,18054,2,0,L|120:60,1,70
72,72,18713,2,0,P|63:99|72:144,1,70,0|0,0:0|0:0,0:0:0:0:
128,192,19372,2,0,B|163:157|202:197|202:197|243:237|243:237|283:197|283:197|323:157|363:196,1,280,0|4,0:0|0:0,0:0:0:0:
96,256,21021,5,0,0:0:0:0:
96,256,21350,2,0,P|128:296|200:296,1,105.000004005432,0|0,0:0|0:0,0:0:0:0:
316,284,22010,1,4,0:0:0:0:
432,212,22339,1,0,0:0:0:0:
304,160,22669,2,0,P|251:153|175:160,1,105.000004005432
68,192,23328,1,0,0:0:0:0:
128,68,23658,1,0,0:0:0:0:
264,52,23988,2,0,P|277:90|320:148,1,105.000004005432,0|0,0:0|0:0,0:0:0:0:
440,191,24647,2,0,P|426:153|384:95,1,105.000004005432,0|0,0:0|0:0,0:0:0:0:
264,52,25306,2,0,P|256:91|264:163,1,105.000004005432,0|0,0:0|0:0,0:0:0:0:
349,242,25966,2,0,P|380:200|400:152,1,105.000004005432,0|0,0:0|0:0,0:0:0:0:
236,316,26625,1,0,0:0:0:0:
104,276,26955,6,0,P|40:240|8:196,2,105.000004005432
236,316,27943,1,0,0:0:0:0:
228,180,28273,1,0,0:0:0:0:
100,228,28603,1,0,0:0:0:0:
228,180,28932,1,0,0:0:0:0:
228,44,29262,1,0,0:0:0:0:
360,80,29592,2,0,P|384:120|384:184,1,105.000004005432
352,304,30251,1,0,0:0:0:0:
388,176,30581,2,0,P|388:129|356:73,1,105.000004005432
228,44,31240,1,0,0:0:0:0:
112,116,31570,5,0,0:0:0:0:
152,248,31899,1,0,0:0:0:0:
284,288,32229,1,0,0:0:0:0:
392,144,32559,2,0,P|350:120|286:124,1,105.000004005432
172,184,33218,2,0,B|208:262|269:279|376:246,1,210.000008010865
448,160,34207,1,0,0:0:0:0:
348,68,34537,1,0,0:0:0:0:
212,60,34866,1,0,0:0:0:0:
96,132,35196,2,0,P|156:132|216:148,1,105.000004005432
76,204,35855,2,0,P|132:220|196:220,1,105.000004005432
312,252,36515,2,0,P|374:287|380:167,1,210.000008010865
352,88,37504,6,0,P|308:40|268:12,3,105.000004005432
156,84,38822,2,0,P|200:118|248:146,1,105.000004005432,4|4,0:0|0:0,0:0:0:0:
372,192,39482,1,0,0:0:0:0:
476,280,39811,1,0,0:0:0:0:
348,324,40141,1,0,0:0:0:0:
200,344,40471,2,0,P|80:216|192:32,1,420.000016021729,0|4,0:0|0:0,0:0:0:0:
320,128,42119,2,0,L|392:128,1,52.5000020027161,0|0,0:0|0:0,0:0:0:0:
232,200,42614,2,0,L|296:200,1,52.5000020027161,0|0,0:0|0:0,0:0:0:0:
156,248,43114,6,0,P|86:205|89:172,1,105.000004005432,4|0,0:0|0:0,0:0:0:0:
84,56,43781,1,0,0:0:0:0:
428,144,44448,1,0,0:0:0:0:
316,172,44781,1,0,0:0:0:0:
404,244,45114,1,0,0:0:0:0:
140,316,45781,6,0,P|94:248|111:219,1,105.000004005432
140,104,46448,1,0,0:0:0:0:
492,36,47114,1,0,0:0:0:0:
440,140,47448,1,0,0:0:0:0:
380,40,47781,1,0,0:0:0:0:
360,316,48448,6,0,P|281:293|276:260,1,105.000004005432
228,152,49107,1,0,0:0:0:0:
300,72,49766,2,0,L|440:84,2,105.000004005432
72,136,50755,1,0,0:0:0:0:
208,56,51085,1,0,0:0:0:0:
160,208,51414,1,0,0:0:0:0:
296,128,51744,1,0,0:0:0:0:
256,280,52074,1,0,0:0:0:0:
384,192,52403,1,0,0:0:0:0:
96,64,53058,6,0,P|143:82|206:46,1,105.000004005432,0|0,0:0|0:0,0:0:0:0:
40,112,53714,1,0,0:0:0:0:
192,64,54042,1,0,0:0:0:0:
132,208,54370,2,0,P|164:248|236:248,1,105.000004005432,0|0,0:0|0:0,0:0:0:0:
80,260,55025,1,0,0:0:0:0:
216,256,55353,1,0,0:0:0:0:
320,168,55681,1,0,0:0:0:0:
184,148,56009,2,0,L|44:140,1,105.000004005432
200,80,56665,2,0,L|312:88,1,105.000004005432
184,148,57321,5,0,0:0:0:0:
304,88,57648,1,0,0:0:0:0:
388,196,57976,1,0,0:0:0:0:
408,60,58304,1,0,0:0:0:0:
308,156,58632,1,0,0:0:0:0:
240,276,58960,2,8,P|213:317|165:359,1,105.000004005432,0|0,0:3|0:3,0:3:0:0:
170,355,59616,1,0,0:0:0:0:
340,40,60271,5,0,0:0:0:0:
204,64,60599,1,0,0:0:0:0:
84,124,60927,2,0,P|76:176|120:232,1,105.000004005432
156,124,61583,2,0,P|164:72|120:16,1,105.000004005432
232,124,62239,2,0,P|224:176|268:232,1,105.000004005432
304,124,62894,2,0,P|312:72|268:16,1,105.000004005432
376,128,63550,2,0,P|428:136|496:136,2,105.000004005432
272,108,64534,5,0,0:0:0:0:
220,104,64698,1,0,0:0:0:0:
168,108,64862,1,0,0:0:0:0:
96,180,65189,1,0,0:0:0:0:
116,228,65353,1,0,0:0:0:0:
148,268,65517,1,4,0:0:0:0:
120,112,66910,6,0,P|172:152|256:192,1,140
256,48,68228,6,0,P|248:108|256:192,1,140
392,112,69547,6,0,P|324:140|256:192,1,140
192,244,70865,6,0,B|232:288|288:272|304:260|324:236,1,140
88,92,72184,5,0,0:0:0:0:
240,188,72843,1,0,0:0:0:0:
256,24,73503,1,0,0:0:0:0:
256,204,74162,1,0,0:0:0:0:
424,92,74821,1,0,0:0:0:0:
272,188,75481,1,0,0:0:0:0:
388,288,76140,1,0,0:0:0:0:
452,332,76470,5,0,0:0:0:0:
460,256,76799,1,0,0:0:0:0:
452,332,77129,1,0,0:0:0:0:
388,288,77459,1,0,0:0:0:0:
200,144,78118,2,0,P|196:184|204:232,1,70
268,176,78777,2,0,P|272:216|280:252,1,70
340,200,79437,2,0,P|348:236|368:276,1,70
476,228,80096,5,0,0:0:0:0:
408,132,80425,1,0,0:0:0:0:
292,100,80755,2,0,P|256:96|224:84,1,70
116,132,81414,2,0,P|140:192|224:192,1,140
140,300,82403,5,0,0:0:0:0:
372,300,82733,1,0,0:0:0:0:
96,128,83392,2,0,P|88:180|72:240,1,105.000004005432
256,160,84052,2,0,L|256:272,1,105.000004005432
416,128,84711,2,0,P|424:180|440:240,1,105.000004005432
248,328,85370,2,0,B|188:347|143:347|86:313|52:257|52:212|75:144,1,315.000012016297,0|4,0:0|0:0,0:0:0:0:
256,192,86689,12,0,87678,0:0:0:0:
