osu file format v12

[General]
AudioFilename: Darker Than Black Ending 1.mp3
AudioLeadIn: 0
PreviewTime: 21021
Countdown: 0
SampleSet: Soft
StackLeniency: 0.7
Mode: 0
LetterboxInBreaks: 1
WidescreenStoryboard: 1

[Editor]
DistanceSpacing: 1
BeatDivisor: 4
GridSize: 4
TimelineZoom: 1

[Metadata]
Title:Tsukiakari (TV size)
TitleUnicode:ツキアカリ
Artist:Rie Fu
ArtistUnicode:(リエ フゥ
Creator:spaikz
Version:Easy
Source:Darker than Black
Tags:Anime Ending Yin bk201
BeatmapID:367720
BeatmapSetID:131692

[Difficulty]
HPDrainRate:3
CircleSize:2
OverallDifficulty:3
ApproachRate:3
SliderMultiplier:1
SliderTickRate:2

[Events]
//Background and Video events
0,0,"Background.jpg",0,0
//Break Periods
//Storyboard Layer 0 (Background)
//Storyboard Layer 1 (Fail)
//Storyboard Layer 2 (Pass)
//Storyboard Layer 3 (Foreground)
//Storyboard Sound Samples
//Background Colour Transformations
3,100,163,162,255

[TimingPoints]
912,659.316904500549,4,2,0,20,1,0
21680,-66.6666666666667,4,1,0,20,0,0
22174,-66.6666666666667,4,2,0,35,0,0
37668,-66.6666666666667,4,2,0,25,0,0
37998,-66.6666666666667,4,2,0,35,0,0
42448,666.666666666667,4,2,0,35,1,1
42448,-66.6666666666667,4,2,0,35,0,1
48448,659.316904500549,4,2,0,30,1,1
48448,-66.6666666666667,4,2,0,30,0,1
52403,655.737704918033,4,2,0,35,1,1
52403,-66.6666666666667,4,2,0,35,0,1
66910,659.316904500549,4,2,0,20,1,0
66910,-100,4,2,0,20,0,0
82675,-66.6666666666667,4,2,0,30,0,0
84381,-66.6666666666667,4,2,0,40,0,0
87678,-66.6666666666667,4,2,0,30,0,0

[HitObjects]
64,64,912,6,0,P|32:112|64:176,1,100,0|0,0:0|0:0,0:0:0:0:
92,224,2230,1,0,0:0:0:0:
168,268,2889,1,0,0:0:0:0:
248,228,3549,2,0,P|280:180|248:116,1,100
232,60,4867,1,0,0:0:0:0:
144,36,5527,5,0,0:0:0:0:
60,68,6186,2,0,P|28:116|60:180,1,100
92,224,7505,2,0,P|148:229|189:169,1,100
264,172,8823,2,0,B|320:212|263:251|263:251|208:292|264:332,1,200,0|4,0:0|0:0,0:0:0:0:
112,228,11461,6,0,P|96:180|96:124,1,100
144,56,12779,1,0,0:0:0:0:
232,36,13439,1,0,0:0:0:0:
304,92,14098,2,0,P|320:140|320:196,1,100
264,260,15416,1,0,0:0:0:0:
180,228,16076,5,0,0:0:0:0:
132,152,16735,2,0,B|154:128|159:104|159:104|169:71|196:41,1,100
268,52,18054,2,0,B|299:62|323:57|323:57|356:51|395:63,1,100
428,124,19372,2,0,B|457:186|389:193|389:193|320:201|350:263,1,200,0|4,0:0|0:0,0:0:0:0:
272,61,22010,6,0,P|222:112|176:180,1,150.000005722046,4|0,0:0|0:0,0:0:0:0:
296,272,23328,2,0,P|346:221|392:153,1,150.000005722046
392,8,24647,1,0,0:0:0:0:
240,24,25306,1,0,0:0:0:0:
128,120,25966,1,0,0:0:0:0:
424,96,27284,6,0,P|470:151|446:222,1,150.000005722046
296,208,28603,2,0,P|296:280|360:320,1,150.000005722046
480,232,29921,1,0,0:0:0:0:
408,96,30581,1,0,0:0:0:0:
264,72,31240,1,4,0:0:0:0:
88,80,32559,5,4,0:0:0:0:
80,232,33218,2,0,B|136:224|168:232|168:232|200:240|256:232,1,150.000005722046,0|2,0:0|0:0,0:0:0:0:
376,240,34537,2,0,B|342:194|313:177|313:177|285:160|251:115,1,150.000005722046,0|2,0:0|0:0,0:0:0:0:
152,40,35855,2,0,B|160:96|152:128|152:128|144:160|152:216,1,150.000005722046,0|2,0:0|0:0,0:0:0:0:
256,88,37174,1,0,0:0:0:0:
359,194,37833,6,0,B|290:229|256:192|256:192|224:232|128:184,1,225.000008583069,4|4,0:0|0:0,0:0:0:0:
256,192,39482,12,4,41789,0:0:0:0:
112,64,43114,6,0,P|189:42|286:41,1,150.000005722046,0|0,0:0|0:0,0:0:0:0:
152,144,44448,2,0,P|230:126|327:130,1,150.000005722046,0|0,0:0|0:0,0:0:0:0:
192,224,45781,2,0,P|271:211|368:222,1,150.000005722046,0|0,0:0|0:0,0:0:0:0:
232,304,47114,2,0,P|312:300|407:321,1,150.000005722046,0|0,0:0|0:0,0:0:0:0:
464,232,48448,5,0,0:0:0:0:
400,96,49107,1,0,0:0:0:0:
256,56,49766,1,0,0:0:0:0:
104,80,50425,1,0,0:0:0:0:
112,232,51085,2,0,B|160:264|208:232|208:232|256:200|304:232|304:232|352:264|400:232,1,300.000011444092,2|2,0:0|0:0,0:0:0:0:
336,96,53058,6,0,P|242:32|163:47,1,150.000005722046,4|4,0:0|0:0,0:0:0:0:
72,88,54370,2,0,P|72:201|128:257,1,150.000005722046,0|0,0:0|0:0,0:0:0:0:
240,264,55681,2,0,P|320:184|320:104,1,150.000005722046,0|0,0:0|0:0,0:0:0:0:
248,24,56993,1,0,0:0:0:0:
112,88,57648,1,0,0:0:0:0:
88,240,58304,1,0,0:0:0:0:
200,336,58960,6,0,P|280:344|368:312,1,150.000005722046,2|0,0:0|0:0,0:0:0:0:
432,200,60271,2,0,P|352:192|264:224,1,150.000005722046,2|0,0:0|0:0,0:0:0:0:
144,272,61583,5,0,0:0:0:0:
208,136,62239,1,0,0:0:0:0:
56,136,62894,1,0,0:0:0:0:
188,208,63550,1,0,0:0:0:0:
320,136,64206,1,0,0:0:0:0:
452,208,64862,1,0,0:0:0:0:
320,276,65517,1,4,0:0:0:0:
112,112,66910,6,0,P|115:168|100:247,1,100,0|2,0:0|0:0,0:0:0:0:
208,112,68228,2,0,P|204:168|219:247,1,100,0|2,0:0|0:0,0:0:0:0:
304,112,69547,2,0,P|307:168|292:247,1,100,0|2,0:0|0:0,0:0:0:0:
400,112,70865,2,0,P|396:168|411:247,1,100,0|2,0:0|0:0,0:0:0:0:
312,216,72184,5,0,0:0:0:0:
168,280,73503,1,0,0:0:0:0:
48,176,74821,1,0,0:0:0:0:
160,64,76140,1,0,0:0:0:0:
320,72,77459,5,0,0:0:0:0:
376,128,78118,2,0,B|369:160|338:189|321:244,1,100
264,256,79437,1,0,0:0:0:0:
184,232,80096,1,0,0:0:0:0:
128,176,80755,1,0,0:0:0:0:
96,104,81414,2,0,B|124:87|167:93|219:70,1,100,0|0,0:0|3:0,0:0:0:0:
312,72,82733,5,0,0:0:0:0:
432,160,83392,2,0,B|398:205|369:222|369:222|341:239|307:284,1,150.000005722046
176,280,84711,1,0,0:0:0:0:
112,144,85370,2,0,B|175:104|215:145|215:145|256:183|320:144,1,225.000008583069,0|0,0:0|0:0,0:0:0:0:
452,76,87019,1,0,0:0:0:0:
496,148,87348,1,0,0:0:0:0:
496,232,87678,1,4,0:0:0:0:
