osu file format v4

[General]
AudioFilename: Livin.mp3
AudioLeadIn: 0
AudioHash: 8a3dd2fa849944fcb567d469aad68c92
PreviewTime: 51606
Countdown: 1
SampleSet: Normal
EditorBookmarks: 11346,38312,51795,78762,89548,100335,113818,140784,151571,165054,192020,202807

[Metadata]
Title:Livin' la Vida Loca
Artist:Ricky Martin
Creator:Kharl
Version:Easy

[Difficulty]
HPDrainRate:3
CircleSize:4
OverallDifficulty:2
SliderMultiplier: 1.1
SliderTickRate: 2

[Events]
//Background and Video events
0,-100000,"livinBg.jpg"
1,0,"Ricky Martin - Livin la vida loca.avi"
//Break Periods
2,38165,50735
2,89232,99102
2,140638,150342
2,191840,202555
//Storyboard Layer 0 (Background)
//Storyboard Layer 1 (Failing)
//Storyboard Layer 2 (Passing)
//Storyboard Layer 3 (Foreground)
//Storyboard Sound Samples
//Background Colour Transformations
3,100,0,0,0

[TimingPoints]
550,337.078651685393,4,1,0,100
165010,337.078651685393,4,1,0,100

[HitObjects]
224,224,11673,1,0
296,224,12010,1,0
392,128,12684,2,0,B|392:128|243:60|96:136,1,275
56,272,14370,5,0
176,272,15044,1,0
304,272,15718,1,2
432,272,16392,1,6
312,192,17066,5,0
312,128,17403,1,0
184,64,18078,2,0,B|184:64|86:178|200:336,1,275
264,208,19763,5,0
328,208,20100,1,0
392,88,20774,2,2,B|392:88|466:142|440:256,1,165
256,328,22460,5,0
256,200,23134,1,0
256,64,23808,1,0
128,64,24482,1,0
128,200,25156,1,0
192,200,25493,1,2
256,120,25999,2,0,B|256:120|352:72|480:152|472:312|336:336,1,385
288,224,27853,5,0
216,224,28190,1,0
136,144,28864,2,0,B|136:144|186:64|296:88,1,165
344,112,29707,1,2
456,272,30550,5,0
336,272,31224,1,0
208,272,31898,1,2
80,272,32572,1,6
200,192,33246,5,0
200,128,33583,1,0
328,64,34258,2,0,B|328:64|426:178|360:248,1,165
336,264,35100,1,2
240,88,35943,5,0
176,88,36280,1,0
176,152,36617,1,0
240,152,36954,1,2
240,248,37460,5,6
296,288,51785,5,4
208,248,52291,1,6
296,200,52797,1,4
208,152,53302,1,6
152,120,53639,1,6
40,256,54482,6,2,B|40:256|147:314|243:181|314:43|496:152,1,495
216,96,57179,5,4
304,136,57685,1,6
216,184,58191,1,4
304,232,58696,1,6
392,272,59201,1,6
472,128,59876,6,2,B|472:128|365:70|269:203|198:341|16:232,1,495
128,112,62235,5,0
88,168,62572,2,4,B|88:168|256:248|424:144,1,330
448,248,64089,1,6
392,272,64426,1,6
248,320,65269,5,2
192,240,65774,1,2
256,216,66111,1,2
200,176,66448,1,2
264,152,66785,1,2
152,176,67965,6,4,B|152:176|240:232|320:176,3,165
360,144,69819,1,6
448,264,70662,6,0,B|448:264|264:288,1,165
216,296,71505,1,2
144,304,71842,1,2
72,312,72179,1,6
72,128,73358,6,0,B|72:128|240:104,1,165
304,96,74201,1,2
376,88,74538,1,2
448,80,74875,1,6
256,192,75887,12,6,77572
288,72,79089,1,2
360,72,79426,1,2
432,72,79763,1,0
432,200,80437,1,0
368,312,81111,1,4
224,312,81785,5,2
152,312,82123,1,2
80,312,82460,1,0
80,192,83134,1,0
152,80,83808,1,0
296,80,84482,5,2
368,80,84819,1,2
448,136,85325,2,0,B|448:136|488:272|384:352|224:296,1,330
104,304,87178,5,2
32,304,87516,1,2
32,208,88021,2,0,B|32:208|32:104|184:40,1,220
232,48,89032,1,4
56,192,100662,5,0
184,192,101336,1,0
304,192,102010,1,0
432,192,102684,1,2
320,304,103527,6,2,B|320:304|261:344|184:280,2,110
368,224,104707,1,2
360,104,105381,1,6
248,56,106055,5,0
128,56,106729,1,0
56,168,107403,1,0
200,248,108246,2,2,B|200:248|280:152,3,110
312,120,109594,1,6
256,192,110606,12,4,112797
216,288,113808,5,4
304,248,114314,1,6
216,200,114820,1,4
304,152,115325,1,6
360,120,115662,1,6
472,256,116505,6,2,B|472:256|365:314|269:181|198:43|16:152,1,495
296,96,119202,5,4
208,136,119708,1,6
296,184,120214,1,4
208,232,120719,1,6
120,272,121224,1,6
40,128,121899,6,2,B|40:128|147:70|243:203|314:341|496:232,1,495
384,112,124258,5,0
424,168,124595,2,4,B|424:168|256:248|88:144,1,330
64,248,126112,1,6
120,272,126449,1,6
248,320,127291,5,2
192,240,127796,1,2
256,216,128133,1,2
200,176,128470,1,2
264,152,128807,1,2
360,176,129988,6,4,B|360:176|272:232|192:176,3,165
152,144,131842,1,6
64,264,132685,6,0,B|64:264|248:288,1,165
296,296,133528,1,2
368,304,133865,1,2
440,312,134202,1,6
440,128,135381,6,0,B|440:128|272:104,1,165
208,96,136224,1,2
136,88,136561,1,2
64,80,136898,1,6
256,192,137741,12,6,140438
72,192,151561,1,0
168,232,152066,1,2
208,176,152403,1,2
248,120,152741,1,2
352,72,153415,1,0
440,176,154089,2,2,B|440:176|418:272|296:280,1,165
192,272,155269,2,2,B|192:272|70:233|48:104,1,220
176,160,156617,5,0
176,160,156785,1,0
288,88,157460,1,0
344,128,157797,1,0
360,192,158134,1,0
344,256,158471,1,0
288,296,158808,1,0
248,176,159482,6,2,B|248:176|128:64|0:248|120:328,1,330
176,344,160830,1,2
256,192,161842,12,4,164033
72,192,165010,5,4
168,192,165516,1,6
264,192,166022,1,4
352,192,166527,1,6
416,192,166864,1,6
296,88,167706,6,0,B|296:88|190:49|96:128,1,165
80,144,168549,1,2
56,208,168886,1,2
72,272,169223,1,2
203,184,170404,6,6,B|203:184|368:184,3,165
368,272,172425,1,6
240,320,173099,6,0,B|240:320|120:288|88:176,1,165
64,168,173942,1,2
56,96,174279,1,2
88,32,174616,1,6
144,144,175459,6,2,C|144:144|177:117|226:88|250:113|286:89|334:122|368:152,1,275
336,224,176807,2,2,B|336:224|256:269|168:224,1,165
177,228,177650,1,6
80,256,178157,5,0
128,312,178493,1,0
224,336,178998,1,2
296,336,179335,1,2
368,336,179672,1,2
440,336,180010,1,6
320,208,181190,5,4
232,208,181696,1,6
232,120,182201,1,4
320,120,182707,1,6
272,168,183043,1,6
176,56,183886,6,0,B|176:56|90:115|80:208,1,165
96,256,184729,1,2
136,312,185066,1,2
200,336,185403,1,6
336,328,186583,6,0,B|336:328|422:269|432:176,1,165
416,128,187426,1,2
376,72,187763,1,2
312,48,188099,1,6
256,192,188943,12,6,191640
360,216,203605,2,0,B|360:216|350:360|152:372|152:200,1,330
152,152,204953,1,2
168,88,205290,1,2
224,56,205627,1,2
288,56,205965,1,2
344,88,206302,1,2
360,152,206639,1,2
264,152,207144,1,4
264,296,208156,5,0
200,296,208493,1,0
200,296,208661,1,0
136,224,209166,1,4
136,160,209504,1,0
136,96,209841,1,0
136,96,210010,1,0
272,56,210852,6,0,B|272:56|404:65|479:208|344:344,1,385
280,352,212369,1,2
128,304,213549,6,0,B|128:304|32:208|72:50|264:32,1,385
320,48,215066,1,2
368,96,215403,1,2
360,160,215740,1,2
256,192,216245,12,6,217425
