osu file format v5

[General]
AudioFilename: 01. Give It To Me.mp3
AudioLeadIn: 0
PreviewTime: -1
Countdown: 1
SampleSet: None
StackLeniency: 0.7
Mode: 0
EditorBookmarks: 10114,57950,85053,91081

[Metadata]
Title:Give It To Me
Artist:Rick James
Creator:mrtn
Version:Hard
Source:
Tags:

[Difficulty]
HPDrainRate:5
CircleSize:5
OverallDifficulty:6
SliderMultiplier:1.4
SliderTickRate:2

[Events]
//Background and Video events
//Break Periods
2,49181,57232
//Storyboard Layer 0 (Background)
//Storyboard Layer 1 (Failing)
//Storyboard Layer 2 (Passing)
//Storyboard Layer 3 (Foreground)
//Storyboard Sound Samples
//Background Colour Transformations
3,100,163,162,255

[TimingPoints]
10114,502.386335091686,4,0,0,100

[HitObjects]
48,336,12123,1,0
96,336,12374,1,0
144,320,12625,1,0
160,272,12877,1,0
176,224,13128,1,0
176,112,13630,1,2
288,112,14133,1,0
336,128,14384,1,0
368,160,14635,1,0
384,208,14886,1,0
384,256,15137,1,0
384,352,15556,1,2
272,352,16058,5,0
224,320,16310,1,0
192,272,16561,1,0
176,216,16812,1,0
176,160,17063,1,0
176,48,17566,1,0
288,48,18068,1,0
336,64,18319,1,0
368,96,18570,1,0
384,144,18822,1,0
384,192,19073,1,0
384,304,19575,1,0
272,304,20077,5,0
224,288,20329,1,0
192,240,20580,1,0
176,192,20831,1,0
176,136,21082,1,0
176,16,21585,1,0
288,16,22087,1,0
336,32,22338,1,0
368,64,22589,1,0
400,112,22841,1,0
400,160,23092,1,0
288,160,23594,1,0
64,320,25436,5,0
128,320,25687,2,0,B|176:320,1,46.6666666666667
224,320,26106,1,0
224,224,26525,1,0
224,112,27027,1,0
448,112,28032,5,0
448,160,28283,1,0
432,208,28534,1,0
384,240,28786,1,0
328,240,29037,1,0
208,240,29539,1,2
416,96,31046,6,0,B|384:96,1,23.3333333333333
320,96,31465,1,0
240,112,31800,1,0
208,160,32051,1,0
208,256,32470,1,0
48,48,33809,2,0,B|80:48,1,23.3333333333333
128,48,34144,1,0
240,48,34647,1,0
320,48,34982,2,0,B|384:48|416:144|432:144,1,140
112,48,39001,5,0
112,48,39168,1,0
112,48,39336,1,0
112,48,39503,1,0
160,48,39754,1,0
208,64,40005,1,0
240,96,40257,1,0
256,144,40508,1,0
432,304,41848,6,0,B|400:304,1,23.3333333333333
352,288,42182,1,0
272,224,42601,1,0
224,112,43104,1,0
128,112,43522,1,0
416,288,47123,5,0
416,288,47290,1,0
352,288,47541,2,0,B|272:288,4,70
352,192,48965,1,0
96,272,58259,6,0,B|128:272,1,23.3333333333333
128,240,58510,2,0,B|128:208,1,23.3333333333333
128,176,58761,1,0
144,144,58929,1,0
224,144,59264,2,0,B|256:144,1,23.3333333333333
256,176,59515,2,0,B|288:176,1,23.3333333333333
272,208,59766,2,0,B|304:208,1,23.3333333333333
224,112,61776,5,2
64,64,62445,5,0
80,96,62613,2,0,B|112:96,1,23.3333333333333
96,128,62864,2,0,B|128:128,1,23.3333333333333
112,160,63115,2,0,B|144:160,1,23.3333333333333
128,192,63366,2,0,B|160:192,1,23.3333333333333
208,192,63701,1,0
256,192,63953,1,0
272,160,64120,2,0,B|304:160,1,23.3333333333333
288,128,64371,2,0,B|320:128,1,23.3333333333333
304,96,64622,2,0,B|336:96,1,23.3333333333333
304,64,64874,2,0,B|336:64,1,23.3333333333333
384,64,65209,1,0
48,112,66381,6,0,B|80:112,1,23.3333333333333
80,144,66632,2,0,B|112:144,1,23.3333333333333
96,176,66883,1,0
112,208,67051,1,0
192,208,67386,2,0,B|224:208,1,23.3333333333333
224,176,67637,2,0,B|256:176,1,23.3333333333333
256,144,67888,2,0,B|256:112,1,23.3333333333333
448,320,69981,5,2
384,288,70316,1,0
336,256,70567,1,0
288,224,70819,1,0
288,144,71153,1,0
224,144,71405,1,0
224,256,71907,1,0
176,224,72158,1,0
160,176,72409,1,0
176,128,72661,1,0
224,96,72912,1,0
272,96,73163,1,0
320,112,73414,1,0
320,224,73917,1,0
256,224,74168,1,0
224,224,74335,6,0,B|224:192,1,23.3333333333333
224,160,74586,2,0,B|224:128,1,23.3333333333333
224,96,74837,1,0
240,64,75005,1,0
320,64,75340,2,0,B|352:64,1,23.3333333333333
384,64,75591,2,0,B|416:96,1,23.3333333333333
400,112,75842,2,0,B|400:144,1,23.3333333333333
304,48,77852,5,2
448,48,78521,5,0
416,64,78689,2,0,B|384:80,1,23.3333333333333
368,96,78940,2,0,B|336:112,1,23.3333333333333
320,128,79192,2,0,B|288:144,1,23.3333333333333
272,160,79443,2,0,B|240:176,1,23.3333333333333
192,192,79777,1,0
144,224,80029,1,0
144,256,80196,2,0,B|176:256,1,23.3333333333333
208,256,80448,2,0,B|240:256,1,23.3333333333333
272,256,80699,2,0,B|304:256,1,23.3333333333333
336,256,80950,2,0,B|368:256,1,23.3333333333333
416,256,81285,1,0
416,96,81955,2,0,B|448:96,2,23.3333333333333
384,96,82290,1,0
304,96,82625,1,0
80,320,83378,6,0,B|80:288,1,23.3333333333333
112,304,83629,2,0,B|112:272,1,23.3333333333333
144,288,83881,2,0,B|144:256,1,23.3333333333333
48,336,85890,5,2
48,160,86644,5,2
112,112,86979,1,0
160,96,87230,1,0
208,96,87482,1,0
288,96,87816,1,0
336,112,88068,1,0
400,208,88570,1,0
400,256,88821,1,0
368,304,89072,1,0
320,320,89324,1,0
272,304,89575,1,0
240,256,89826,1,0
224,208,90077,1,0
192,144,90412,6,0,B|176:112,1,23.3333333333333
224,112,90663,2,0,B|208:80,1,23.3333333333333
368,112,91416,6,0,B|400:112,1,23.3333333333333
432,128,91668,1,0
464,160,91919,1,0
480,208,92170,1,0
480,256,92421,1,0
464,304,92672,1,0
416,320,92924,1,0
360,312,93175,1,0
320,272,93426,1,0
312,216,93677,1,0
320,160,93928,1,0
320,48,94431,6,0,B|304:16,1,23.3333333333333
288,64,94682,2,0,B|272:32,1,23.3333333333333
96,320,95435,6,0,B|128:320,1,23.3333333333333
160,304,95686,1,0
208,288,95937,1,0
256,256,96188,1,0
288,208,96439,1,0
304,160,96690,1,0
320,112,96942,1,0
368,80,97193,1,0
416,80,97444,1,0
448,112,97695,1,0
448,112,97947,1,0
448,224,98450,6,0,B|432:256,1,23.3333333333333
416,272,98701,2,0,B|400:304,1,23.3333333333333
320,320,99203,6,0,B|304:288,1,23.3333333333333
288,272,99454,2,0,B|272:240,1,23.3333333333333
208,48,100459,6,0,B|240:32,1,23.3333333333333
272,32,100710,2,0,B|288:64,1,23.3333333333333
352,112,101213,6,0,B|336:144,1,23.3333333333333
320,160,101464,2,0,B|304:192,1,23.3333333333333
224,240,102050,6,0,B|240:272,1,23.3333333333333
256,288,102301,2,0,B|272:320,1,23.3333333333333
448,288,103222,5,0
448,224,103474,1,0
448,112,103976,1,0
416,112,104143,1,0
352,112,104395,1,0
64,96,106655,5,0
96,112,106823,2,0,B|128:112,1,23.3333333333333
144,80,107074,2,0,B|176:80,1,23.3333333333333
176,112,107325,2,0,B|208:112,1,23.3333333333333
224,80,107576,2,0,B|256:80,1,23.3333333333333
304,80,107911,1,0
352,80,108163,1,0
384,80,108330,2,0,B|384:112,1,23.3333333333333
384,144,108581,2,0,B|384:176,1,23.3333333333333
384,208,108832,2,0,B|384:240,1,23.3333333333333
352,240,109084,2,0,B|320:240,1,23.3333333333333
272,240,109419,1,0
208,240,109670,1,0
160,240,109837,2,0,B|128:240,1,23.3333333333333
96,240,110088,2,0,B|96:208,1,23.3333333333333
96,176,110340,2,0,B|96:144,1,23.3333333333333
96,96,110674,1,0
176,96,111009,5,0
176,96,111261,1,0
176,96,111512,1,0
272,96,111930,1,0
272,288,112768,1,0
272,288,113018,1,0
272,288,113270,1,0
272,288,113521,1,0
272,192,113940,1,2
