osu file format v5

[General]
AudioFilename: Whenever you need somebody.mp3
AudioLeadIn: 0
PreviewTime: -1
Countdown: 1
SampleSet: Normal
StackLeniency: 0.7
Mode: 0
LetterboxInBreaks: 1

[Metadata]
Title:Whenever You Need Somebody
Artist:Rick Astley
Creator:The cheese
Version:Hard
Source:
Tags:

[Difficulty]
HPDrainRate:7
CircleSize:5
OverallDifficulty:6
SliderMultiplier:1.4
SliderTickRate:1

[Events]
//Background and Video events
0,0,"Mr Astley.JPG"
//Break Periods
2,7348,12768
2,15654,17639
2,43197,49929
2,67066,68003
2,93299,100093
2,143750,158501
//Storyboard Layer 0 (Background)
//Storyboard Layer 1 (Failing)
//Storyboard Layer 2 (Passing)
//Storyboard Layer 3 (Foreground)
//Storyboard Sound Samples
//Background Colour Transformations
3,100,163,162,255

[TimingPoints]
10733,524.625,4,1,0,100,1

[HitObjects]
128,96,5574,1,0
128,160,5836,1,0
128,224,6098,1,0
128,288,6361,1,0
256,288,6885,1,0
320,288,7148,1,0
416,64,13968,5,0
416,128,14143,1,0
416,192,14405,1,0
416,256,14667,2,0,B|320:256,1,93.3333333333333
256,256,15192,1,0
192,256,15454,1,0
96,192,18689,5,0
128,192,18864,1,0
192,192,19127,1,0
192,192,19651,1,0
256,192,20088,1,0
256,192,20351,1,0
256,192,20438,1,0
288,192,21050,1,0
288,256,21225,1,0
288,256,21400,1,0
288,256,21662,1,0
224,320,21925,1,0
352,320,22099,1,0
448,64,22974,5,0
448,128,23236,2,0,B|448:192,1,46.6666666666667
384,224,23761,1,0
320,224,24285,1,0
96,96,25509,5,0
96,128,25597,1,0
96,160,25684,1,0
96,192,25859,1,0
96,256,26122,1,0
96,288,26296,1,0
416,64,27258,5,0
320,128,27433,1,0
416,192,27958,1,0
320,256,28482,1,0
256,256,28657,1,0
192,256,28832,1,0
64,64,29357,1,0
160,96,29532,1,0
64,160,29794,1,0
64,256,30056,1,0
64,288,30319,1,0
64,288,30406,1,0
448,192,31368,5,0
384,192,31630,1,0
320,192,32155,1,0
256,192,32592,1,0
224,192,32854,1,0
224,192,33029,1,0
160,320,33816,1,0
160,224,34078,1,0
160,160,34253,1,0
160,160,34428,1,0
160,96,34603,1,0
256,32,35477,5,0
256,96,35740,1,0
256,128,36264,1,0
256,192,36789,1,0
288,256,37051,1,0
224,256,37139,1,0
96,96,38100,1,0
128,96,38275,1,0
192,96,38538,1,0
224,96,38800,1,0
320,320,39674,5,0
288,320,39937,1,0
288,256,40461,1,0
288,192,40986,1,0
288,192,41248,1,0
288,160,41336,1,0
128,320,41948,1,0
128,256,42297,1,0
128,192,42560,1,0
128,128,42822,1,0
128,128,42910,1,0
256,192,51129,5,0
256,192,51391,1,0
256,192,51653,1,0
256,192,51916,1,0
256,256,52178,1,0
256,320,52877,1,0
352,320,53489,1,0
160,320,54014,1,8
256,224,55588,1,0
256,192,55850,1,0
256,128,56113,1,0
288,64,56375,1,0
384,64,56812,1,0
384,64,57074,1,8
256,192,57686,12,0,58998
64,288,59435,5,0
192,288,59698,1,0
192,192,59960,1,0
64,192,60222,1,0
64,96,60484,1,0
224,96,61271,1,0
288,96,61796,1,0
352,96,62321,1,0
192,32,63632,5,0
256,96,63895,1,0
320,160,64157,1,0
320,160,64419,1,0
256,224,64681,1,0
160,288,65206,1,0
256,288,65468,2,0,B|320:288,8,46.6666666666667
128,192,69053,5,0
384,192,69665,1,0
256,64,70190,1,0
256,160,70452,1,0
256,192,70540,1,0
192,192,71064,5,0
192,192,71152,1,0
192,192,71414,1,0
320,192,71676,1,0
320,192,71939,1,0
320,192,72114,1,0
128,64,73338,5,0
320,64,73775,1,0
320,160,74300,1,0
320,160,74562,1,0
320,192,74737,1,0
96,256,75349,1,0
192,256,75611,1,0
288,256,75873,1,0
384,256,76223,1,0
384,256,76311,1,0
256,352,77447,5,0
256,288,77972,1,0
256,224,78497,1,0
256,160,78759,1,0
256,160,78846,1,8
96,96,79808,1,0
160,96,80070,1,0
160,96,80158,1,0
224,96,80333,1,0
224,96,80595,1,4
256,288,81382,5,0
352,192,81644,1,0
160,192,82082,1,0
256,192,82606,1,0
256,192,82868,1,0
256,192,83043,1,8
256,96,83743,1,0
160,96,84005,1,0
160,96,84180,1,0
160,192,84442,1,0
160,256,84617,1,0
416,256,85754,5,0
352,256,86279,1,0
288,256,86803,1,0
288,256,87065,1,0
288,256,87240,1,0
288,192,87852,1,0
288,192,88115,1,0
288,192,88377,1,0
288,160,88552,1,0
288,96,88814,1,0
64,192,89689,1,0
64,256,89951,1,0
128,256,90476,1,0
192,256,90913,1,0
256,256,91262,1,0
256,256,91350,1,0
352,256,92224,1,0
352,256,92399,1,0
352,256,92574,1,0
352,192,92836,1,0
352,160,93099,1,0
256,192,101143,5,0
256,192,101405,1,0
256,192,101667,1,0
256,192,101930,1,0
256,256,102192,1,0
256,320,102891,1,0
352,320,103503,1,0
160,320,104028,1,8
256,224,105602,1,0
256,192,105864,1,0
256,128,106127,1,0
288,64,106389,1,0
384,64,106826,1,0
384,64,107088,1,8
256,192,107700,12,0,109012
64,288,109449,5,0
192,288,109712,1,0
192,192,109974,1,0
64,192,110236,1,0
64,96,110498,1,0
224,96,111285,1,0
288,96,111810,1,0
352,96,112335,1,0
192,32,113646,5,0
256,96,113909,1,0
320,160,114171,1,0
320,160,114433,1,0
256,224,114695,1,0
160,288,115220,1,0
256,288,115482,2,0,B|320:288,8,46.6666666666667
256,192,117231,12,0,118630
256,192,119068,5,0
256,160,119330,1,0
256,128,119592,1,0
320,64,119855,1,0
256,64,120379,1,0
192,64,120641,1,0
192,320,123265,5,0
320,256,123527,1,0
192,192,123789,1,0
192,192,124052,1,0
320,128,124314,1,0
192,96,124838,1,0
192,96,125101,1,0
256,192,125363,12,0,126937
256,192,127462,5,0
256,224,127724,1,0
256,256,127986,1,0
320,320,128249,1,0
256,320,128773,1,0
192,320,129035,1,0
192,64,131659,5,0
320,128,131921,1,0
192,192,132183,1,0
192,192,132446,1,0
320,256,132708,1,0
192,288,133232,1,0
192,288,133495,1,0
96,192,136118,5,0
160,192,136468,1,0
224,192,136817,1,0
288,192,137255,1,0
256,64,138216,5,0
256,128,138566,1,0
256,192,138916,1,0
256,256,139353,1,0
96,192,140315,5,0
192,128,140665,1,0
288,192,141014,1,0
384,128,141452,1,0
384,128,142413,5,0
288,192,142763,1,0
192,128,143113,1,0
96,192,143550,1,0
256,192,159551,5,0
256,192,159813,1,0
256,192,160075,1,0
256,192,160338,1,0
256,256,160600,1,0
256,320,161299,1,0
352,320,161911,1,0
160,320,162436,1,8
256,224,164010,1,0
256,192,164272,1,0
256,128,164535,1,0
288,64,164797,1,0
384,64,165234,1,0
384,64,165496,1,8
256,192,166108,12,0,167420
64,288,167857,5,0
192,288,168120,1,0
192,192,168382,1,0
64,192,168644,1,0
64,96,168906,1,0
224,96,169693,1,0
288,96,170218,1,0
352,96,170743,1,0
192,32,172054,5,0
256,96,172317,1,0
320,160,172579,1,0
320,160,172841,1,0
256,224,173103,1,0
160,288,173628,1,0
256,288,173890,2,0,B|320:288,8,46.6666666666667
256,192,176164,5,0
256,192,176426,1,0
256,192,176688,1,0
256,192,176951,1,0
256,256,177213,1,0
256,320,177912,1,0
352,320,178524,1,0
160,320,179049,1,8
256,224,180623,1,0
256,192,180885,1,0
256,128,181148,1,0
288,64,181410,1,0
384,64,181847,1,0
384,64,182109,1,8
256,192,182721,12,0,184033
64,288,184470,5,0
192,288,184733,1,0
192,192,184995,1,0
64,192,185257,1,0
64,96,185519,1,0
224,96,186306,1,0
288,96,186831,1,0
352,96,187356,1,0
192,32,188667,5,0
256,96,188930,1,0
320,160,189192,1,0
320,160,189454,1,0
256,224,189716,1,0
160,288,190241,1,0
256,192,190504,12,0,193302
