osu file format v5

[General]
AudioFilename: Rick Astley - Together Forever.mp3
AudioLeadIn: 0
AudioHash: 942cbc8e5acd18f0b35b26f86d49643a
PreviewTime: -1
Countdown: 1
SampleSet: Normal
EditorBookmarks: 18929,53539,77249,135613

[Metadata]
Title:Together Forever
Artist:Rick Astley
Creator:Cheez
Version:Easy

[Difficulty]
HPDrainRate:5
CircleSize:5
OverallDifficulty:0
SliderMultiplier: 1.4
SliderTickRate: 2

[Events]
//Background and Video events
//Break Periods
2,34718,50775
2,67027,76570
2,117053,134413
//Storyboard Layer 0 (Background)
//Storyboard Layer 1 (Failing)
//Storyboard Layer 2 (Passing)
//Storyboard Layer 3 (Foreground)
//Storyboard Sound Samples
//Background Colour Transformations
3,100,163,162,255

[TimingPoints]
126,521.104742053153,4,1,0,100

[HitObjects]
192,96,19406,1,0
320,96,19927,1,0
152,272,20970,2,0,B|152:272|376:272,1,210
160,96,23054,5,2
352,96,23575,1,2
160,288,24096,1,2
352,288,24617,1,2
256,192,25139,1,2
160,192,26181,6,0,B|160:192|262:229|320:160,1,140
96,192,27744,6,0,B|96:192|201:192,1,105
256,192,29307,2,0,B|256:192|384:192,1,105
416,192,30089,1,2
160,96,31392,5,2
224,224,31913,1,0
288,96,32434,1,2
352,224,32955,1,0
416,96,33476,2,2,B|416:96|128:96,1,280
64,64,51975,5,0
128,64,52236,2,4,B|128:64|288:64|288:192,1,210
224,224,53539,2,0,B|224:224|128:224|128:128,1,140
256,128,54581,1,2
384,128,55102,1,4
448,320,56144,5,2
384,320,56405,2,4,B|384:320|224:320|224:192,1,210
288,160,57708,2,2,B|288:160|384:160|384:256,1,140
320,256,58489,2,0,B|320:256|160:256,3,140
416,288,60574,5,4
416,96,61355,1,2
96,96,62398,1,4
96,288,63440,1,2
256,192,63961,12,4,66827
256,96,77770,1,0
416,96,78291,2,0,B|416:96|364:221|224:192,1,210
256,96,79333,1,2
160,192,79724,1,2
256,288,80115,1,4
256,256,81418,6,2,B|256:256|256:96,1,140
320,192,82460,6,0,B|320:192|160:192,1,140
256,256,83502,6,0,C|256:256|256:127|321:127|319:192|160:192,1,420
64,192,85587,5,0
192,192,86368,1,0
256,128,86629,5,2
384,128,87411,1,0
384,64,87671,6,2,C|384:64|256:64,1,105
128,64,88453,5,0
128,160,88713,1,2
384,320,89756,1,2
384,192,90277,1,2
384,128,90537,2,0,C|384:128|224:128,1,140
64,128,91579,1,2
128,192,91840,5,4
384,192,92361,1,4
416,96,93924,5,0
352,160,94315,2,2,C|352:160|256:256,1,105
128,224,95227,1,0
256,64,96009,5,2
352,160,96400,1,0
224,160,97051,1,2
96,160,97442,1,0
160,96,98093,5,2
160,192,98354,1,0
256,192,98614,1,2
256,96,98875,1,0
352,96,99135,1,2
352,192,99396,1,0
352,288,99657,1,0
256,288,99917,2,2,L|256:288|64:288|64:96,1,350
256,192,101741,5,4
256,64,102262,2,4,B|256:64|396:42|416:192,1,210
284,188,103565,6,0,B|284:188|251:151|160:128,1,140
160,256,104607,1,2
352,128,105128,1,2
288,256,106170,5,0
256,320,106431,2,4,B|256:320|116:342|96:192,1,210
227,195,107734,6,0,B|227:195|261:233|352:256,1,140
352,192,108515,1,2
256,192,109036,1,2
160,192,109557,1,2
64,192,110079,6,2,B|64:192|64:96,1,70
128,64,110600,2,0,B|128:64|288:224,1,210
416,64,111902,6,2,B|416:64|320:192,1,140
288,64,112945,2,2,B|288:64|192:192,1,140
160,64,113987,2,4,L|160:64|65:192|192:319|319:129|480:288,1,770
256,192,135613,1,2
384,64,136394,1,0
384,128,136655,1,2
384,288,137437,5,0
320,288,137697,2,2,L|320:288|32:288,1,280
96,96,139782,1,2
224,96,140303,1,0
352,96,140824,1,2
352,224,141345,1,0
224,224,141866,6,2,B|224:224|65:222|96:96,2,210
256,64,143950,5,2
256,224,144732,1,0
256,160,144993,1,2
256,352,145774,1,0
256,288,146035,2,2,B|256:288|256:160,2,105
320,288,147077,1,2
448,288,147598,1,2
256,192,148119,12,4,150725
64,64,152028,5,0
128,64,152289,2,4,B|128:64|288:64|288:192,1,210
224,224,153592,2,0,B|224:224|128:224|128:128,1,140
256,128,154634,1,2
384,128,155155,1,4
448,320,156197,5,2
384,320,156458,2,4,B|384:320|224:320|224:192,1,210
288,160,157761,2,2,B|288:160|384:160|384:256,1,140
320,256,158542,2,0,B|320:256|160:256,3,140
416,288,160627,5,4
416,96,161408,1,2
96,96,162451,1,4
96,288,163493,1,2
256,192,164273,1,0
384,192,164795,2,0,B|384:192|285:104|194:92|186:161|172:218|186:228|211:244|247:284|328:300,1,420
128,192,166879,5,4
384,192,167400,1,4
128,64,168963,6,4,B|128:64|352:64,1,210
416,128,170266,2,0,B|416:128|352:256|288:192,1,140
224,128,171308,2,2,B|224:128|190:84|126:212,1,140
288,288,172611,1,2
416,224,173132,6,2,B|416:224|352:160,2,70
416,288,173914,1,0
320,256,174435,2,0,B|320:256|160:96,3,210
384,64,177301,5,2
384,128,177562,1,2
384,288,178083,1,2
256,288,178604,2,2,B|256:288|128:256|96:160,2,210
128,64,180949,5,0
256,160,181470,1,6
384,64,181991,1,0
384,320,182512,1,6
256,224,183033,1,0
128,320,183554,1,6
