osu file format v5

[General]
AudioFilename: RickRoll'D.flv.MP3
AudioLeadIn: 0
AudioHash: 58914b413ffb6c70efc89fb9f88bd451
PreviewTime: 40964
Countdown: 1
SampleSet: Normal

[Metadata]
Title:Never Gonna Give You Up 2
Artist:Rick Astley
Creator:LuigiHann
Version:Insane

[Difficulty]
HPDrainRate:6
CircleSize:6
OverallDifficulty:8
SliderMultiplier:1.4
SliderTickRate:1

[Events]
//Background and Video events
0,0,"letkahndown_vectorized(2).jpg"
//Break Periods
2,27431,34626
2,77872,85451
2,119069,127968
//Storyboard Layer 0 (Background)
//Storyboard Layer 1 (Failing)
//Storyboard Layer 2 (Passing)
//Storyboard Layer 3 (Foreground)
//Storyboard Sound Samples
//Background Colour Transformations
3,100,128,255,128

[TimingPoints]
2144,528.169014084507,4,1,1,80

[HitObjects]
256,192,9802,5,0
256,192,9934,1,0
256,192,10066,1,0
256,192,10198,1,0
320,64,10594,6,0,B|320:64|416:64|416:160,2,140
256,64,11915,1,0
192,64,12179,1,4
192,192,12707,6,0,B|192:192|96:192|96:96,2,140
256,192,14027,1,0
320,192,14291,1,4
384,192,14820,6,0,B|384:192|384:288|288:288,2,140
320,192,16140,1,0
256,192,16404,1,4
160,288,16932,6,0,B|160:288|320:288,1,140
192,192,17989,5,2
224,224,18121,1,0
256,192,18253,1,2
288,224,18385,1,0
320,192,18517,1,2
96,288,19573,5,0
160,288,19837,1,0
224,288,20101,2,0,B|224:288|320:288,1,70
352,288,20629,1,0
416,288,20893,2,0,B|416:288|416:128,3,140
416,148,22742,1,4
352,320,23534,5,0
288,256,23798,1,0
224,320,24063,1,0
160,256,24327,2,0,B|160:256|160:160,1,70
160,128,24855,1,4
224,96,25119,5,0
288,96,25383,1,0
384,96,25911,2,0,B|384:96|384:192,1,70
384,224,26439,1,0
384,224,26703,1,0
384,288,26967,1,0
384,288,27232,1,0
224,192,35946,6,0,B|224:192|96:288,2,140
192,128,37267,1,0
256,128,37531,1,0
320,128,37795,1,0
384,160,38059,5,0
384,224,38323,1,0
384,288,38587,1,0
384,224,38851,1,0
320,224,39115,2,0,B|320:224|160:224,2,140
416,192,40700,1,4
352,96,41228,5,0
288,96,41492,1,0
224,96,41756,1,0
160,96,42020,1,0
224,192,42548,5,0
256,224,42813,1,0
288,256,43077,2,0,B|288:256|416:192,1,140
384,160,43869,5,2
384,160,44001,1,2
384,160,44133,1,2
384,160,44265,1,2
384,224,44397,5,4
256,224,44793,1,4
128,224,45189,2,4,B|128:224|32:224,2,70
128,160,45982,5,2
128,160,46114,1,2
128,160,46246,1,2
128,160,46378,1,2
128,96,46510,5,0
256,96,46906,1,0
384,96,47302,2,0,B|384:96|480:96,2,70
384,160,48094,5,2
384,160,48226,1,2
384,160,48358,1,2
384,160,48490,1,2
384,224,48622,6,0,B|384:224|384:320|288:320,1,140
288,256,49415,2,0,B|288:256|192:256|192:352,1,140
96,256,50471,5,0
96,192,50735,2,0,B|96:192|96:96,1,70
96,64,51263,1,4
192,128,51791,1,0
224,160,52055,1,0
384,224,52320,5,2
384,224,52452,1,2
384,224,52584,1,2
384,224,52716,1,2
384,160,52848,5,4
256,160,53244,1,4
128,160,53640,2,4,B|128:160|32:160,2,70
128,224,54433,5,2
128,224,54564,1,2
128,224,54697,1,2
128,224,54828,1,2
128,288,54960,6,0,B|128:288|224:288,1,70
256,288,55489,1,0
320,288,55753,2,0,B|320:288|416:288,1,70
448,288,56281,1,0
384,224,56545,5,2
384,224,56677,1,2
384,224,56809,1,2
384,224,56941,1,2
384,160,57073,6,0,B|384:160|384:64|288:64,1,140
288,128,57866,2,0,B|288:128|192:128|192:32,1,140
96,128,58922,5,0
96,192,59186,2,0,B|96:192|96:288,1,70
96,320,59714,1,4
192,256,60242,5,2
192,256,60374,1,2
288,256,60770,1,2
288,256,60902,1,2
160,288,61563,5,0
208,256,61827,1,0
256,288,62091,1,0
304,256,62355,1,0
352,288,62619,1,0
464,288,63147,1,4
384,224,63675,5,0
416,160,63939,1,0
384,96,64203,2,0,B|384:96|224:96,1,140
192,96,64996,1,4
352,256,65788,5,0
384,208,66052,1,0
352,160,66316,1,0
384,112,66580,1,0
352,64,66844,1,0
288,64,67108,2,0,B|288:64|192:64|160:128,1,140
128,224,67901,5,0
128,288,68165,1,0
192,288,68429,2,0,B|192:288|288:288,2,70
192,224,69221,2,0,B|192:224|288:224,1,70
288,192,69749,1,4
320,128,70013,6,0,B|320:128|384:128|384:192,2,70
256,128,70805,1,0
192,128,71070,2,0,B|192:128|128:128|128:192,2,70
192,256,72126,5,0
256,256,72390,1,0
320,256,72654,2,0,B|320:256|416:256|416:160,1,140
416,128,73446,1,4
96,192,74239,5,0
160,256,74503,1,0
224,192,74767,1,0
288,256,75031,1,0
352,192,75295,1,0
416,256,75559,1,0
288,320,76351,6,0,B|288:320|288:256|352:256,1,70
352,224,76879,2,0,B|352:224|352:160|288:160,1,70
288,128,77408,1,0
320,64,77672,1,4
128,160,86122,5,2
128,160,86254,1,2
128,160,86386,1,2
128,160,86518,1,2
128,224,86650,5,4
256,224,87046,1,4
384,224,87442,2,4,B|384:224|480:224,2,70
384,160,88235,5,2
384,160,88367,1,2
384,160,88499,1,2
384,160,88631,1,2
384,96,88763,5,0
256,96,89159,1,0
128,96,89555,2,0,B|128:96|32:96,2,70
128,160,90347,5,2
128,160,90480,1,2
128,160,90611,1,2
128,160,90744,1,2
128,224,90875,6,0,B|128:224|128:320|224:320,1,140
224,256,91668,2,0,B|224:256|320:256|320:352,1,140
384,320,92460,1,4
416,256,92724,5,0
416,192,92988,2,0,B|416:192|416:96,1,70
416,64,93516,1,4
320,128,94045,1,4
128,224,94573,5,2
128,224,94705,1,2
128,224,94837,1,2
128,224,94969,1,2
128,160,95101,5,4
256,160,95497,1,4
384,160,95893,2,4,B|384:160|480:160,2,70
384,224,96686,5,2
384,224,96818,1,2
384,224,96950,1,2
384,224,97082,1,2
384,288,97213,6,0,B|384:288|288:288,1,70
256,288,97742,1,0
192,288,98006,2,0,B|192:288|96:288,1,70
64,288,98534,1,0
128,224,98798,5,2
128,224,98930,1,2
128,224,99063,1,2
128,224,99195,1,2
128,160,99326,6,0,B|128:160|128:64|224:64,1,140
224,128,100119,2,0,B|224:128|320:128|320:32,1,140
384,64,100911,1,4
416,128,101175,5,0
416,192,101439,2,0,B|416:192|416:288,1,70
416,320,101967,1,4
288,320,102496,1,2
288,320,102628,1,2
384,256,103024,5,2
384,256,103156,1,2
384,256,103288,1,2
384,256,103420,1,2
384,160,103552,5,4
256,160,103948,1,4
128,160,104344,2,4,B|128:160|32:160,2,70
128,224,105137,5,2
128,224,105268,1,2
128,224,105401,1,2
128,224,105533,1,2
128,288,105665,5,0
256,288,106061,1,0
384,288,106457,2,0,B|384:288|480:288,2,70
384,224,107249,5,2
384,224,107381,1,2
384,224,107513,1,2
384,224,107645,1,2
384,160,107777,6,0,B|384:160|384:64|288:64,1,140
288,128,108570,2,0,B|288:128|192:128|192:32,1,140
128,64,109362,1,4
96,128,109626,5,0
96,192,109890,2,0,B|96:192|96:288,1,70
96,320,110418,1,4
192,288,110946,1,4
384,160,111474,5,2
384,160,111607,1,2
384,160,111739,1,2
384,160,111871,1,2
384,224,112003,5,4
256,224,112399,1,4
128,224,112795,2,4,B|128:224|32:224,2,70
128,160,113588,5,2
128,160,113719,1,2
128,160,113852,1,2
128,160,113983,1,2
128,96,114115,6,0,B|128:96|224:96,1,70
256,96,114644,1,0
320,96,114908,2,0,B|320:96|416:96,1,70
448,96,115436,1,0
384,160,115700,5,2
384,160,115832,1,2
384,160,115964,1,2
384,160,116096,1,2
384,224,116228,6,0,B|384:224|384:320|288:320,1,140
288,256,117021,2,0,B|288:256|192:256|192:352,1,140
96,256,118077,5,0
96,192,118341,2,0,B|96:192|96:96,1,70
96,64,118869,1,4
352,256,129168,5,0
352,256,129300,1,0
352,224,129432,1,0
352,224,129564,1,0
352,224,129696,1,0
288,160,129960,1,0
288,160,130092,1,0
288,128,130224,1,0
288,128,130357,1,0
288,128,130489,1,0
192,96,131017,5,0
128,96,131413,1,0
64,96,131809,1,0
256,192,132337,5,0
256,192,132601,1,4
128,256,133394,5,0
128,256,133526,1,0
128,224,133658,1,0
128,224,133790,1,0
128,224,133922,1,0
192,160,134186,1,0
192,160,134318,1,0
192,128,134450,1,0
192,128,134583,1,0
192,128,134715,1,0
288,96,135243,5,0
352,96,135639,1,0
416,96,136035,1,0
256,192,136563,5,0
256,192,136827,1,4
160,96,137619,5,0
208,128,137883,1,0
256,96,138147,1,0
304,128,138411,1,0
352,96,138675,1,0
416,96,138939,1,4
480,160,139467,1,4
384,160,139731,5,0
416,224,139995,1,0
384,288,140259,2,0,B|384:288|224:288,1,140
208,240,141052,1,4
208,128,141580,1,4
352,128,141844,5,0
384,176,142108,1,0
352,224,142372,1,0
384,272,142636,1,0
352,320,142900,1,0
288,320,143164,2,0,B|288:320|192:320|160:256,1,140
128,160,143957,5,0
128,96,144221,1,0
192,96,144485,2,0,B|192:96|288:96,2,70
192,160,145277,2,0,B|192:160|288:160,1,70
320,160,145805,1,4
320,256,146069,6,0,B|320:256|384:256|384:192,2,70
256,256,146861,1,0
192,256,147126,2,0,B|192:256|128:256|128:192,2,70
192,128,148182,5,0
256,128,148446,1,0
320,128,148710,2,0,B|320:128|416:128|416:224,1,140
416,256,149502,1,4
288,256,150031,1,4
96,192,150295,5,0
160,128,150559,1,0
224,192,150823,1,0
288,128,151087,1,0
352,192,151351,1,0
416,128,151615,1,0
352,32,152144,1,4
288,64,152407,6,0,B|288:64|288:128|352:128,1,70
352,160,152935,2,0,B|352:160|352:224|288:224,1,70
320,272,153464,2,0,B|320:272|320:336|384:336,1,70
288,352,153992,1,4
224,192,154256,6,0,B|224:192|96:96,2,140
320,256,155577,1,0
256,256,155841,1,0
192,256,156105,1,0
128,224,156369,5,0
128,160,156633,1,0
128,96,156897,1,0
128,160,157161,1,0
192,160,157425,2,0,B|192:160|352:160,2,140
256,224,158746,1,0
256,224,159010,1,4
352,288,159538,5,0
288,288,159802,1,0
224,288,160066,1,0
160,288,160330,1,0
96,192,160858,5,0
128,160,161123,1,0
160,128,161387,2,0,B|160:128|320:64,1,140
384,128,162179,5,2
384,128,162311,1,2
384,128,162443,1,2
384,128,162575,1,2
384,224,162707,5,4
256,224,163103,1,4
128,224,163499,2,4,B|128:224|32:224,2,70
128,160,164292,5,2
128,160,164423,1,2
128,160,164556,1,2
128,160,164688,1,2
128,96,164820,5,0
256,96,165216,1,0
384,96,165612,2,0,B|384:96|480:96,2,70
384,160,166404,5,2
384,160,166536,1,2
384,160,166668,1,2
384,160,166800,1,2
384,224,166932,6,0,B|384:224|384:320|288:320,1,140
288,256,167725,2,0,B|288:256|192:256|192:352,1,140
128,320,168517,1,4
96,256,168781,5,0
96,192,169045,2,0,B|96:192|96:96,1,70
96,64,169573,1,4
256,192,170101,5,4
256,192,170233,1,4
384,224,170629,5,2
384,224,170761,1,2
384,224,170894,1,2
384,224,171026,1,2
384,160,171158,5,4
256,160,171554,1,4
128,160,171950,2,4,B|128:160|32:160,2,70
128,224,172743,5,2
128,224,172874,1,2
128,224,173007,1,2
128,224,173138,1,2
128,288,173270,6,0,B|128:288|224:288,1,70
256,288,173799,1,0
320,288,174063,2,0,B|320:288|416:288,1,70
448,288,174591,1,0
384,224,174855,5,2
384,224,174987,1,2
384,224,175119,1,2
384,224,175251,1,2
384,160,175383,6,0,B|384:160|384:64|288:64,1,140
288,128,176176,2,0,B|288:128|192:128|192:32,1,140
128,64,176967,1,4
96,128,177232,5,0
96,192,177496,2,0,B|96:192|96:288,1,70
96,320,178024,1,4
256,192,178552,5,4
256,192,178684,1,4
192,64,179080,5,2
192,64,179212,1,2
192,64,179344,1,2
192,64,179476,1,2
288,32,179608,5,4
288,160,180004,1,4
288,288,180400,2,4,B|288:288|288:384,2,70
224,320,181193,5,2
224,320,181325,1,2
224,320,181457,1,2
224,320,181589,1,2
160,352,181721,5,0
160,224,182117,1,0
160,96,182513,2,0,B|160:96|160:0,2,70
224,64,183305,5,2
224,64,183438,1,2
224,64,183569,1,2
224,64,183702,1,2
288,64,183833,6,0,B|288:64|384:64|384:160,1,140
320,160,184626,2,0,B|320:160|320:256|416:256,1,140
384,320,185418,1,4
320,352,185682,5,0
256,352,185946,2,0,B|256:352|160:352,1,70
128,352,186474,1,4
256,192,187003,12,4,194925
