osu file format v12

[General]
AudioFilename: 06-super-sonic-racing.mp3
AudioLeadIn: 0
PreviewTime: 35468
Countdown: 1
SampleSet: Normal
StackLeniency: 0.7
Mode: 0
LetterboxInBreaks: 1
WidescreenStoryboard: 0

[Editor]
Bookmarks: 12922,24558,36195,47104,59468,71104,82740,94377,106013,117649,129286,140922,152558,164195
DistanceSpacing: 1
BeatDivisor: 2
GridSize: 4
TimelineZoom: 1

[Metadata]
Title:Super Sonic Racing
TitleUnicode:Super Sonic Racing
Artist:Richard Jacques
ArtistUnicode:Richard Jacques
Creator:Kitokofox
Version:Normal
Source:Sonic R
Tags:super sonic racing r the hedgehog
BeatmapID:377819
BeatmapSetID:153765

[Difficulty]
HPDrainRate:4
CircleSize:3
OverallDifficulty:4
ApproachRate:4
SliderMultiplier:1
SliderTickRate:2

[Events]
//Background and Video events
0,0,"SonicRacingTransformedsc37.jpg",0,0
//Break Periods
2,59668,69784
2,106213,116329
2,152758,162875
//Storyboard Layer 0 (Background)
//Storyboard Layer 1 (Fail)
//Storyboard Layer 2 (Pass)
//Storyboard Layer 3 (Foreground)
//Storyboard Sound Samples
//Background Colour Transformations
3,100,163,162,255

[TimingPoints]
12922.5504482571,363.636363636364,4,1,0,100,1,0
36195,-83.3333333333333,4,1,0,100,0,1
59468,-100,4,1,0,100,0,0
82740,-83.3333333333333,4,1,0,100,0,1
106013,-100,4,1,0,100,0,0
129286,-83.3333333333333,4,1,0,100,0,1
152558,-83.3333333333333,4,1,0,100,0,0
199104,-83.3333333333333,4,1,0,100,0,1
222377,-83.3333333333333,4,1,0,100,0,0

[Colours]
Combo1 : 255,179,102
Combo2 : 255,128,128
Combo3 : 226,111,255
Combo4 : 45,150,255
Combo5 : 128,255,128
Combo6 : 255,255,128

[HitObjects]
112,288,12922,6,0,P|120:232|152:208,1,100
256,208,13649,1,0,0:0:0:0:
336,152,14013,1,0,0:0:0:0:
312,56,14377,6,0,P|256:32|224:64,1,100
176,136,15104,2,0,P|224:168|208:248,1,100
280,256,15831,5,0,0:0:0:0:
344,176,16195,1,0,0:0:0:0:
440,160,16558,1,0,0:0:0:0:
448,112,16740,2,0,P|440:64|384:64,1,100
304,64,17468,2,0,P|288:112|232:128,1,100
144,120,18195,2,0,P|112:144|112:168,2,50
176,160,18740,5,0,0:0:0:0:
328,144,19286,2,0,P|377:150|411:185,1,100
336,248,20013,1,0,0:0:0:0:
416,304,20377,2,0,P|376:336|328:336,1,100
240,296,21104,6,0,P|200:272|192:256,1,50
128,200,21649,1,0,0:0:0:0:
160,160,21831,1,0,0:0:0:0:
104,80,22195,2,0,P|160:56|200:56,1,100
296,32,22922,2,0,P|344:80|344:120,1,100
384,200,23649,1,0,0:0:0:0:
344,232,23831,2,0,B|312:232|304:240|296:248|296:248|288:256|280:264|248:264,1,100
168,216,24558,6,0,P|120:152|160:112,1,150
256,104,25468,2,0,P|272:184|264:224,1,100
368,216,26195,2,0,P|317:279|281:299,1,100
200,272,26922,2,0,P|152:232|128:192,1,100
112,160,27468,5,0,0:0:0:0:
208,144,27831,1,0,0:0:0:0:
240,184,28013,1,0,0:0:0:0:
304,112,28377,2,0,P|376:80|400:88,1,100
376,184,29104,1,0,0:0:0:0:
448,248,29468,2,0,P|376:280|352:272,1,100
312,264,30013,5,0,0:0:0:0:
224,224,30377,2,0,P|184:256|184:264,2,50
168,144,31104,2,0,P|128:160|104:160,2,50
208,56,31831,2,0,B|208:88|232:96|232:96|256:104|256:136,1,100
352,128,32558,2,0,B|368:184|320:224|304:216,1,100
256,192,33286,12,0,34740,0:0:0:0:
352,80,36195,5,0,0:0:0:0:
248,64,36558,1,0,0:0:0:0:
184,160,36922,2,0,P|247:184|295:160,1,119.999996337891,0|0,0:0|0:0,0:0:0:0:
352,160,37468,2,0,P|344:232|304:264,1,119.999996337891,0|0,0:0|0:0,0:0:0:0:
136,208,38377,2,0,P|88:160|88:152,1,59.9999981689454
96,112,38740,2,0,P|144:104|168:120,1,59.9999981689454
208,136,39104,5,0,0:0:0:0:
320,104,39468,1,0,0:0:0:0:
352,216,39831,1,0,0:0:0:0:
232,248,40195,1,0,0:0:0:0:
176,232,40377,2,0,B|136:216|152:184|152:184|168:152|136:128|136:128|104:96|144:64,1,179.999994506836
304,64,41468,2,0,P|344:64|376:80,1,59.9999981689454
408,184,42013,6,0,P|352:224|296:232,1,119.999996337891
208,304,42740,2,0,P|128:256|120:224,1,119.999996337891
112,176,43286,1,0,0:0:0:0:
184,80,43649,1,0,0:0:0:0:
304,80,44013,2,0,P|368:136|376:168,1,119.999996337891
376,224,44558,1,0,0:0:0:0:
272,280,44922,6,0,B|224:224|192:224|168:224|168:224|144:224|112:208|64:152,1,239.999992675781
152,72,46013,1,0,0:0:0:0:
200,104,46195,1,0,0:0:0:0:
448,272,47104,1,0,0:0:0:0:
336,288,47468,1,0,0:0:0:0:
216,256,47831,6,0,P|144:200|128:168,1,119.999996337891
248,184,48558,2,0,P|213:164|202:141,1,59.9999981689454
312,88,49104,1,0,0:0:0:0:
424,120,49468,1,0,0:0:0:0:
384,232,49831,2,0,P|312:288|288:288,2,119.999996337891
336,192,50740,5,0,0:0:0:0:
216,192,51104,1,0,0:0:0:0:
216,72,51468,1,0,0:0:0:0:
96,72,51831,1,0,0:0:0:0:
96,136,52013,2,0,B|96:168|80:184|80:184|64:200|64:224|64:248|80:264|80:264|96:280|96:304,1,179.999994506836
216,304,52922,2,0,P|240:288|248:256,1,59.9999981689454
304,248,53286,2,0,P|328:232|336:200,1,59.9999981689454
376,160,53649,5,0,0:0:0:0:
296,72,54013,1,0,0:0:0:0:
176,64,54377,1,0,0:0:0:0:
80,128,54740,1,0,0:0:0:0:
72,184,54922,2,0,P|80:240|136:280,1,119.999996337891
248,264,55649,2,0,B|272:248|280:232|280:216|280:216|280:200|288:184|312:168,1,119.999996337891
368,144,56195,1,0,0:0:0:0:
256,192,56558,12,0,59468,0:0:0:0:
400,320,71104,5,0,0:0:0:0:
464,248,71468,1,0,0:0:0:0:
448,152,71831,2,0,P|416:112|368:96,1,100
272,96,72558,1,0,0:0:0:0:
336,168,72922,1,0,0:0:0:0:
320,264,73285,2,0,P|288:304|240:320,1,100
160,264,74013,6,0,P|192:240|208:216,2,50
80,200,74740,2,0,B|104:48|224:96|256:144|256:144|288:96|408:48|424:200,1,500
360,280,76922,5,0,0:0:0:0:
264,248,77286,2,0,P|200:240|184:208,2,100
344,184,78377,1,0,0:0:0:0:
344,88,78740,1,0,0:0:0:0:
256,32,79104,1,0,0:0:0:0:
168,88,79468,1,0,0:0:0:0:
256,192,79831,12,0,81286,0:0:0:0:
200,192,82740,5,0,0:0:0:0:
320,192,83104,1,0,0:0:0:0:
256,88,83468,2,0,P|176:72|136:88,1,119.999996337891
112,136,84013,1,0,0:0:0:0:
48,240,84377,1,0,0:0:0:0:
168,240,84740,1,0,0:0:0:0:
216,272,84922,2,0,B|272:272|280:280|280:280|288:272|336:272,1,119.999996337891
392,168,85649,5,0,0:0:0:0:
360,56,86013,1,0,0:0:0:0:
312,168,86377,1,0,0:0:0:0:
280,56,86740,1,0,0:0:0:0:
216,56,86922,2,0,P|144:88|88:176,1,179.999994506836
216,296,88013,1,0,0:0:0:0:
280,296,88195,1,0,0:0:0:0:
376,224,88558,6,0,P|400:168|376:112,1,119.999996337891
312,216,89286,2,0,P|328:192|312:152,1,59.9999981689454
208,184,89831,1,0,0:0:0:0:
88,208,90195,1,0,0:0:0:0:
88,88,90558,1,0,0:0:0:0:
208,112,90922,2,0,B|272:112|296:96|288:96,1,59.9999981689454
256,192,91468,12,0,92922,0:0:0:0:
208,264,93831,6,0,L|272:264,1,59.9999981689454
376,208,94377,2,0,P|376:160|344:96,1,119.999996337891
224,112,95104,2,0,P|152:96|104:120,1,119.999996337891
80,168,95649,1,0,0:0:0:0:
120,280,96013,1,0,0:0:0:0:
232,240,96377,1,0,0:0:0:0:
288,224,96558,2,0,P|272:176|256:168,1,59.9999981689454
288,120,96922,2,0,P|240:96|224:96,1,59.9999981689454
280,56,97286,6,0,P|352:88|384:120,2,119.999996337891
160,72,98377,1,0,0:0:0:0:
104,104,98558,1,0,0:0:0:0:
104,288,99104,1,0,0:0:0:0:
224,272,99468,2,0,P|272:264|288:256,1,59.9999981689454
312,208,99831,2,0,P|360:200|384:200,1,59.9999981689454
408,152,100195,6,0,P|376:96|328:64,1,119.999996337891
248,152,100922,2,0,P|168:128|128:128,1,119.999996337891,0|0,0:0|0:0,0:0:0:0:
80,160,101468,1,0,0:0:0:0:
80,280,101831,1,0,0:0:0:0:
256,192,103104,12,0,106013,0:0:0:0:
256,192,117649,12,0,123468,0:0:0:0:
120,192,124195,6,0,P|208:160|264:176,1,150
384,256,125286,1,0,0:0:0:0:
320,72,126013,1,0,0:0:0:0:
224,64,126377,6,0,P|144:80|120:96,1,100
72,176,127104,1,0,0:0:0:0:
176,176,127468,1,0,0:0:0:0:
128,264,127831,2,0,P|173:284|222:288,1,100
320,296,128558,2,0,B|400:272|400:256|400:248|400:248|400:240|392:224,1,100
392,128,129286,5,0,0:0:0:0:
280,80,129649,1,0,0:0:0:0:
160,72,130013,2,0,P|112:80|104:88,1,59.9999981689454
104,144,130377,2,0,P|152:152|160:160,1,59.9999981689454
256,232,130922,1,0,0:0:0:0:
352,160,131286,2,0,P|377:144|406:145,1,59.9999981689454
408,88,131649,2,0,P|376:80|360:48,1,59.9999981689454
304,72,132013,2,0,P|312:120|288:136,1,59.9999981689454
192,136,132558,5,0,0:0:0:0:
280,216,132922,1,0,0:0:0:0:
160,208,133286,1,0,0:0:0:0:
192,256,133468,2,0,P|264:320|344:320,1,179.999994506836
424,160,134558,1,0,0:0:0:0:
384,120,134740,1,0,0:0:0:0:
272,80,135104,6,0,B|232:104|240:128|240:128|224:152|184:152,1,119.999996337891
112,248,135831,1,0,0:0:0:0:
168,256,136013,1,0,0:0:0:0:
224,240,136195,1,0,0:0:0:0:
280,216,136377,2,0,B|301:192|324:180|346:179|369:190|376:218|376:218|382:246|405:256|434:250|461:232|483:208|483:208|499:191|493:163|388:87,1,419.999987182618
256,192,138013,12,0,139286,0:0:0:0:
144,184,140377,5,0,0:0:0:0:
184,232,140558,1,0,0:0:0:0:
304,256,140922,2,0,P|264:184|272:152,1,119.999996337891
392,128,141649,2,0,P|431:199|423:231,1,119.999996337891
368,240,142195,1,0,0:0:0:0:
272,312,142558,1,0,0:0:0:0:
168,248,142922,1,0,0:0:0:0:
112,240,143104,2,0,B|80:200|88:192|88:192|96:184|56:136,1,119.999996337891
120,40,143831,5,0,0:0:0:0:
240,40,144195,1,0,0:0:0:0:
240,160,144558,1,0,0:0:0:0:
360,160,144922,1,0,0:0:0:0:
360,224,145104,2,0,B|328:224|312:240|312:240|296:256|272:256|248:256|232:240|232:240|216:224|192:224,1,179.999994506836
72,232,146013,2,0,P|72:192|88:160,1,59.9999981689454
128,136,146377,2,0,P|128:96|112:64,1,59.9999981689454
176,56,146740,5,0,0:0:0:0:
296,40,147104,1,0,0:0:0:0:
216,128,147468,1,0,0:0:0:0:
336,120,147831,2,0,P|392:144|400:160,1,59.9999981689454
456,240,148377,1,0,0:0:0:0:
336,264,148740,2,0,P|296:256|280:240,1,59.9999981689454
232,280,149104,2,0,P|184:288|160:280,1,59.9999981689454
128,176,149649,6,0,B|136:48|158:81|206:-6|286:1|334:9|358:33|398:57|398:121|430:153|414:209|390:233|366:265|318:289|286:289|238:281|206:273|174:241|166:209|158:161|166:121|182:73|214:57|246:65|294:73|334:89|342:129|334:153|318:185|294:193|270:193|262:185|254:169|254:153,1,959.999970703126
256,192,164195,12,0,167104,0:0:0:0:
264,80,168558,6,0,P|352:112|376:136,1,119.999996337891
312,232,169286,1,0,0:0:0:0:
208,184,169649,1,0,0:0:0:0:
136,88,170013,5,0,0:0:0:0:
80,192,170377,2,0,B|96:256|120:280|176:256|184:264|184:264|192:272|200:312|264:288,1,239.999992675781
360,216,171468,1,0,0:0:0:0:
320,104,171831,2,0,B|287:43|255:68|243:69|243:69|232:70|206:15|172:17|118:55,1,239.999992675781
88,176,172922,5,0,0:0:0:0:
176,256,173286,1,0,0:0:0:0:
208,144,173649,1,0,0:0:0:0:
312,208,174013,1,0,0:0:0:0:
312,88,174377,2,0,P|376:72|432:96,1,119.999996337891
456,144,174922,2,0,P|440:232|416:256,1,119.999996337891
360,272,175468,1,0,0:0:0:0:
240,288,175831,6,0,B|176:288|144:256|160:232|176:224|176:224|192:216|208:192|176:160|104:160,1,239.999992675781
152,48,176922,1,0,0:0:0:0:
264,80,177286,2,0,B|317:79|349:111|333:135|317:143|317:143|301:151|285:175|317:207|381:207,1,239.999992675781
360,328,178377,1,0,0:0:0:0:
240,328,178740,6,0,B|168:320|104:280|80:336|56:352|40:352|32:328|32:272|72:216|200:192|280:192|280:192|200:192|72:168|32:112|32:56|40:32|56:32|80:48|104:104|168:64|240:56|240:56|264:40,1,959.999970703126
352,64,182013,5,0,0:0:0:0:
432,152,182377,2,0,P|448:240|432:280,1,119.999996337891
328,264,183104,1,0,0:0:0:0:
256,168,183468,1,0,0:0:0:0:
184,264,183831,1,0,0:0:0:0:
72,264,184195,2,0,P|64:240|60:205,1,59.9999981689454
64,144,184558,6,0,B|104:144|104:64|144:64,1,119.999996337891
264,64,185286,2,0,B|304:64|304:144|344:144,1,119.999996337891
408,144,185831,1,0,0:0:0:0:
448,256,186195,1,0,0:0:0:0:
336,288,186558,1,0,0:0:0:0:
272,288,186740,2,0,P|272:232|280:224,1,59.9999981689454
216,216,187104,2,0,P|200:176|208:152,1,59.9999981689454
240,104,187468,5,0,0:0:0:0:
344,40,187831,1,0,0:0:0:0:
464,64,188195,1,0,0:0:0:0:
368,136,188558,2,0,B|344:168|360:200,1,59.9999981689454
448,272,189104,1,0,0:0:0:0:
328,296,189468,1,0,0:0:0:0:
240,216,189831,1,0,0:0:0:0:
128,168,190195,1,0,0:0:0:0:
96,216,190377,6,0,B|112:296|240:296|240:296|264:368|400:304|400:304|416:272|448:288,1,419.999987182618
288,32,192558,2,0,P|232:88|224:128,1,119.999996337891
168,232,193286,6,0,P|224:208|288:208,1,119.999996337891
352,304,194013,2,0,P|392:258|411:180,1,119.999996337891
408,144,194558,2,0,B|408:112|400:96|384:88|256:88|120:88|104:96|96:112|96:144|96:144,1,359.999989013672
96,200,195831,1,0,0:0:0:0:
256,192,196195,12,0,199104,0:0:0:0:
104,56,199468,5,0,0:0:0:0:
224,48,199831,2,0,B|280:56|296:64|328:104|328:104|368:136|376:152|384:208|384:208,1,239.999992675781
384,320,200922,1,0,0:0:0:0:
264,328,201285,2,0,B|208:320|192:312|160:272|160:272|120:240|112:224|104:168|104:168,1,239.999992675781
216,136,202377,5,0,0:0:0:0:
312,216,202740,2,0,P|368:216|384:200,1,59.9999981689454
464,144,203286,1,0,0:0:0:0:
368,72,203649,2,0,P|312:72|296:56,1,59.9999981689454
200,112,204195,6,0,B|152:120|96:176,1,119.999996337891
220,184,204922,2,0,P|152:232|128:288,1,119.999996337891
256,252,205649,2,0,P|228:263|208:288,1,59.9999981689454
316,344,206195,1,0,0:0:0:0:
428,300,206558,2,0,B|456:232|452:184|452:184|416:180|388:168,1,179.999994506836
280,140,207468,1,0,0:0:0:0:
172,88,207831,5,0,0:0:0:0:
116,72,208013,1,0,0:0:0:0:
72,112,208195,1,0,0:0:0:0:
92,232,208558,2,0,P|152:232|192:204,1,59.9999981689454
204,208,209104,2,0,B|268:204|280:224|284:248|300:256|308:256|308:256|316:256|332:248|336:224|348:204|412:208|412:208|412:172|440:144|440:144,1,299.999990844727
444,96,210195,1,0,0:0:0:0:
404,48,210377,1,0,0:0:0:0:
316,48,210740,6,0,B|200:52|152:56|112:68|104:76|104:108|104:108|116:136|208:124|256:128|276:156|276:168|196:192|196:192|276:216|276:228|256:260|212:264|116:252|104:280|104:280|104:312|112:320|156:336|200:340|316:344|316:344,1,959.999970703126
412,280,214013,5,0,0:0:0:0:
456,168,214377,2,0,P|416:160|392:136,1,59.9999981689454
348,180,214740,2,0,P|308:188|284:212,1,59.9999981689454
136,288,215468,1,0,0:0:0:0:
64,192,215831,1,0,0:0:0:0:
136,96,216195,1,0,0:0:0:0:
248,52,216558,6,0,P|288:56|312:64,1,59.9999981689454
360,88,216922,1,0,0:0:0:0:
412,196,217286,2,0,P|400:244|380:252,1,59.9999981689454
344,216,217649,2,0,P|301:241|281:232,1,59.9999981689454
180,212,218195,1,0,0:0:0:0:
96,124,218558,1,0,0:0:0:0:
108,64,218740,2,0,B|152:56|160:60|164:68|164:68|168:76|176:80|224:72|224:72,1,119.999996337891
256,192,219468,12,0,222377,0:0:0:0:
