osu file format v14

[General]
AudioFilename: Ballade.mp3
AudioLeadIn: 0
PreviewTime: 12252
Countdown: 0
SampleSet: Normal
StackLeniency: 0.7
Mode: 3
LetterboxInBreaks: 0
SpecialStyle: 0
WidescreenStoryboard: 0

[Editor]
DistanceSpacing: 1.2
BeatDivisor: 4
GridSize: 4
TimelineZoom: 1.5

[Metadata]
Title:Ballade pour Adeline
TitleUnicode:Ballade pour Adeline
Artist:Richard Clayderman
ArtistUnicode:Richard Clayderman
Creator:JamesHappy15
Version:Normal
Source:
Tags:midi Philippe Pagès
BeatmapID:585439
BeatmapSetID:254607

[Difficulty]
HPDrainRate:7
CircleSize:8
OverallDifficulty:7
ApproachRate:5
SliderMultiplier:1.4
SliderTickRate:1

[Events]
//Background and Video events
0,0,"Konachan.com - 188094 sample.jpg",0,0
//Break Periods
//Storyboard Layer 0 (Background)
//Storyboard Layer 1 (Fail)
//Storyboard Layer 2 (Pass)
//Storyboard Layer 3 (Foreground)
//Storyboard Sound Samples

[TimingPoints]
5155,441.2673197423,4,1,0,5,1,0
58142,428.571428571429,4,1,0,5,1,0
58584,545.454545454546,4,1,0,5,1,0
59129,600,4,1,0,5,1,0
59781,461.538461538462,4,1,0,5,1,0
59896,600,4,1,0,5,1,0
60389,441.176470588235,4,1,0,5,1,0
106271,428.571428571429,4,1,0,5,1,0
106713,545.454545454546,4,1,0,5,1,0
107258,600,4,1,0,5,1,0
107910,461.538461538462,4,1,0,5,1,0
108025,600,4,1,0,5,1,0
108518,441.176470588235,4,1,0,5,1,0
149998,461.538461538462,4,1,0,5,1,0
150459,545.454545454546,4,1,0,5,1,0
151004,461.538461538462,4,1,0,5,1,0
153773,500,4,1,0,5,1,0
154313,545.454545454546,4,1,0,5,1,0
154928,413.793103448276,4,1,0,5,1,0

[HitObjects]
32,192,5154,128,0,6037:0:0:0:0:
96,192,6037,128,0,6920:0:0:0:0:
160,192,6920,128,0,7802:0:0:0:0:
224,192,7802,128,0,8685:0:0:0:0:
480,192,8685,128,0,9567:0:0:0:0:
416,192,9567,128,0,10450:0:0:0:0:
352,192,10450,128,0,11332:0:0:0:0:
288,192,11332,128,0,12215:0:0:0:0:
480,192,12215,1,0,0:0:0:0:
32,192,12215,1,0,0:0:0:0:
160,192,12656,1,0,0:0:0:0:
480,192,13097,1,0,0:0:0:0:
352,192,13097,1,0,0:0:0:0:
32,192,13539,1,0,0:0:0:0:
160,192,13980,1,0,0:0:0:0:
96,192,14421,1,0,0:0:0:0:
416,192,14862,1,0,0:0:0:0:
224,192,14862,1,0,0:0:0:0:
32,192,15304,1,0,0:0:0:0:
384,192,15635,1,0,0:0:0:0:
480,192,15745,1,0,0:0:0:0:
32,192,16186,1,0,0:0:0:0:
288,192,16627,1,0,0:0:0:0:
416,192,16627,1,0,0:0:0:0:
32,192,17069,1,0,0:0:0:0:
480,192,17510,1,0,0:0:0:0:
32,192,17731,1,0,0:0:0:0:
96,192,17951,1,0,0:0:0:0:
160,192,18172,1,0,0:0:0:0:
32,192,18393,1,0,0:0:0:0:
480,192,18613,1,0,0:0:0:0:
416,192,18834,1,0,0:0:0:0:
352,192,19054,1,0,0:0:0:0:
288,192,19275,1,0,0:0:0:0:
160,192,19275,1,0,0:0:0:0:
32,192,19716,1,0,0:0:0:0:
352,192,20158,1,0,0:0:0:0:
160,192,20158,1,0,0:0:0:0:
96,192,20599,1,0,0:0:0:0:
32,192,21040,1,0,0:0:0:0:
160,192,21481,1,0,0:0:0:0:
480,192,21923,1,0,0:0:0:0:
352,192,22585,1,0,0:0:0:0:
32,192,22805,1,0,0:0:0:0:
224,192,22805,1,0,0:0:0:0:
96,192,23246,1,0,0:0:0:0:
160,192,23688,1,0,0:0:0:0:
224,192,24129,1,0,0:0:0:0:
96,192,24570,1,0,0:0:0:0:
128,192,25012,1,0,0:0:0:0:
224,192,25453,1,0,0:0:0:0:
32,192,25894,1,0,0:0:0:0:
480,192,26335,1,0,0:0:0:0:
332,192,26335,1,0,0:0:0:0:
160,192,26777,1,0,0:0:0:0:
480,192,27218,1,0,0:0:0:0:
332,192,27218,1,0,0:0:0:0:
96,192,27659,1,0,0:0:0:0:
288,192,28100,1,0,0:0:0:0:
96,192,28321,1,0,0:0:0:0:
160,192,28542,1,0,0:0:0:0:
224,192,28762,1,0,0:0:0:0:
288,192,28983,1,0,0:0:0:0:
480,192,29204,1,0,0:0:0:0:
416,192,29424,1,0,0:0:0:0:
352,192,29645,1,0,0:0:0:0:
288,192,29865,1,0,0:0:0:0:
32,192,29865,1,0,0:0:0:0:
96,192,30307,1,0,0:0:0:0:
480,192,30748,1,0,0:0:0:0:
160,192,30748,1,0,0:0:0:0:
224,192,31189,1,0,0:0:0:0:
32,192,31631,1,0,0:0:0:0:
96,192,31851,1,0,0:0:0:0:
160,192,32072,1,0,0:0:0:0:
224,192,32292,1,0,0:0:0:0:
480,192,32513,1,0,0:0:0:0:
416,192,32734,1,0,0:0:0:0:
352,192,32954,1,0,0:0:0:0:
288,192,33175,1,0,0:0:0:0:
32,192,33396,1,0,0:0:0:0:
224,192,33396,1,0,0:0:0:0:
288,192,33837,1,0,0:0:0:0:
32,192,34278,1,0,0:0:0:0:
480,192,34278,1,0,0:0:0:0:
224,192,34719,1,0,0:0:0:0:
32,192,35161,1,0,0:0:0:0:
160,192,35602,1,0,0:0:0:0:
480,192,36043,1,0,0:0:0:0:
352,192,36705,1,0,0:0:0:0:
32,192,36926,1,0,0:0:0:0:
160,192,36926,1,0,0:0:0:0:
96,192,37367,1,0,0:0:0:0:
160,192,37808,1,0,0:0:0:0:
96,192,38250,1,0,0:0:0:0:
32,192,38691,1,0,0:0:0:0:
96,192,39132,1,0,0:0:0:0:
160,192,39573,5,0,0:0:0:0:
32,192,40456,5,0,0:0:0:0:
96,192,40897,1,0,0:0:0:0:
160,192,41338,1,0,0:0:0:0:
224,192,41780,1,0,0:0:0:0:
480,192,42221,1,0,0:0:0:0:
416,192,42662,1,0,0:0:0:0:
352,192,43103,1,0,0:0:0:0:
288,192,43545,1,0,0:0:0:0:
32,192,43986,1,0,0:0:0:0:
224,192,43986,1,0,0:0:0:0:
480,192,44869,1,0,0:0:0:0:
288,192,44869,1,0,0:0:0:0:
288,192,45310,1,0,0:0:0:0:
416,192,45310,1,0,0:0:0:0:
32,192,45751,1,0,0:0:0:0:
224,192,45751,1,0,0:0:0:0:
416,192,45751,128,0,47516:0:0:0:0:
352,192,46192,128,0,47516:0:0:0:0:
288,192,46634,128,0,47516:0:0:0:0:
224,192,47075,128,0,47516:0:0:0:0:
32,192,47516,1,0,0:0:0:0:
160,192,47957,1,0,0:0:0:0:
288,192,48399,1,0,0:0:0:0:
416,192,48840,1,0,0:0:0:0:
25,192,49281,1,0,0:0:0:0:
480,192,49281,1,0,0:0:0:0:
352,192,49722,1,0,0:0:0:0:
224,192,50164,1,0,0:0:0:0:
96,192,50605,1,0,0:0:0:0:
480,192,51046,1,0,0:0:0:0:
32,192,51046,1,0,0:0:0:0:
416,192,51929,1,0,0:0:0:0:
224,192,52370,1,0,0:0:0:0:
160,192,52591,1,0,0:0:0:0:
32,192,52811,1,0,0:0:0:0:
96,192,52811,128,0,53694:0:0:0:0:
160,192,53694,128,0,54576:0:0:0:0:
480,192,54576,1,0,0:0:0:0:
32,192,54576,1,0,0:0:0:0:
96,192,54576,128,0,55018:0:0:0:0:
160,192,55018,128,0,55459:0:0:0:0:
352,192,55018,1,0,0:0:0:0:
480,192,55459,1,0,0:0:0:0:
224,192,55459,128,0,55900:0:0:0:0:
288,192,55900,128,0,56342:0:0:0:0:
160,192,55900,1,0,0:0:0:0:
32,192,56342,1,0,0:0:0:0:
224,192,56342,128,0,56783:0:0:0:0:
288,192,56783,128,0,57224:0:0:0:0:
160,192,56783,1,0,0:0:0:0:
32,192,57224,1,0,0:0:0:0:
352,192,57224,128,0,57665:0:0:0:0:
416,192,57665,128,0,58142:0:0:0:0:
160,192,57665,1,0,0:0:0:0:
32,192,58142,1,0,0:0:0:0:
288,192,58142,128,0,58584:0:0:0:0:
352,192,58584,128,0,59129:0:0:0:0:
224,192,58584,1,0,0:0:0:0:
416,192,59129,128,0,59781:0:0:0:0:
160,192,59129,1,0,0:0:0:0:
96,192,59781,1,0,0:0:0:0:
480,192,59781,128,0,60389:0:0:0:0:
32,192,60389,1,0,0:0:0:0:
96,192,60830,1,0,0:0:0:0:
224,192,61271,1,0,0:0:0:0:
480,192,61271,1,0,0:0:0:0:
96,192,61712,1,0,0:0:0:0:
160,192,62153,1,0,0:0:0:0:
96,192,62594,1,0,0:0:0:0:
160,192,63036,1,0,0:0:0:0:
416,192,63036,1,0,0:0:0:0:
32,192,63477,1,0,0:0:0:0:
288,192,63808,1,0,0:0:0:0:
416,192,63918,1,0,0:0:0:0:
32,192,64359,1,0,0:0:0:0:
416,192,64800,1,0,0:0:0:0:
288,192,64800,1,0,0:0:0:0:
32,192,65241,1,0,0:0:0:0:
32,192,65683,1,0,0:0:0:0:
96,192,65903,1,0,0:0:0:0:
160,192,66124,1,0,0:0:0:0:
224,192,66344,1,0,0:0:0:0:
288,192,66565,1,0,0:0:0:0:
352,192,66786,1,0,0:0:0:0:
416,192,67006,1,0,0:0:0:0:
480,192,67227,1,0,0:0:0:0:
480,192,67447,1,0,0:0:0:0:
32,192,67889,1,0,0:0:0:0:
288,192,68330,1,0,0:0:0:0:
32,192,68771,1,0,0:0:0:0:
96,192,69212,1,0,0:0:0:0:
160,192,69653,1,0,0:0:0:0:
288,192,70094,1,0,0:0:0:0:
224,192,70756,1,0,0:0:0:0:
160,192,70977,1,0,0:0:0:0:
480,192,71859,1,0,0:0:0:0:
224,192,72080,1,0,0:0:0:0:
416,192,72300,1,0,0:0:0:0:
160,192,72521,1,0,0:0:0:0:
32,192,72741,1,0,0:0:0:0:
288,192,72962,1,0,0:0:0:0:
160,192,73183,1,0,0:0:0:0:
288,192,73403,1,0,0:0:0:0:
480,192,73624,1,0,0:0:0:0:
352,192,73844,1,0,0:0:0:0:
224,192,74065,1,0,0:0:0:0:
96,192,74286,1,0,0:0:0:0:
32,192,74506,1,0,0:0:0:0:
224,192,74506,1,0,0:0:0:0:
480,192,74506,1,0,0:0:0:0:
32,192,74947,1,0,0:0:0:0:
480,192,75388,1,0,0:0:0:0:
332,192,75388,1,0,0:0:0:0:
32,192,75830,1,0,0:0:0:0:
32,192,76271,1,0,0:0:0:0:
96,192,76491,1,0,0:0:0:0:
160,192,76712,1,0,0:0:0:0:
224,192,76933,1,0,0:0:0:0:
288,192,77153,1,0,0:0:0:0:
352,192,77374,1,0,0:0:0:0:
416,192,77594,1,0,0:0:0:0:
480,192,77815,1,0,0:0:0:0:
32,192,78036,1,0,0:0:0:0:
416,192,78036,1,0,0:0:0:0:
96,192,78477,1,0,0:0:0:0:
416,192,78918,1,0,0:0:0:0:
96,192,79359,1,0,0:0:0:0:
32,192,79800,1,0,0:0:0:0:
96,192,80021,1,0,0:0:0:0:
160,192,80241,1,0,0:0:0:0:
224,192,80462,1,0,0:0:0:0:
288,192,80683,1,0,0:0:0:0:
352,192,80903,1,0,0:0:0:0:
416,192,81124,1,0,0:0:0:0:
480,192,81344,1,0,0:0:0:0:
32,192,81565,1,0,0:0:0:0:
416,192,81565,1,0,0:0:0:0:
96,192,82006,1,0,0:0:0:0:
32,192,82447,1,0,0:0:0:0:
480,192,82447,1,0,0:0:0:0:
96,192,82888,1,0,0:0:0:0:
160,192,83330,1,0,0:0:0:0:
224,192,83771,1,0,0:0:0:0:
288,192,83991,1,0,0:0:0:0:
480,192,84212,1,0,0:0:0:0:
352,192,84212,1,0,0:0:0:0:
416,192,84874,1,0,0:0:0:0:
288,192,85094,1,0,0:0:0:0:
32,192,85536,1,0,0:0:0:0:
96,192,85977,1,0,0:0:0:0:
160,192,86418,1,0,0:0:0:0:
76,192,86859,1,0,0:0:0:0:
160,192,87300,1,0,0:0:0:0:
224,192,87741,5,0,0:0:0:0:
96,192,88183,1,0,0:0:0:0:
32,192,88624,1,0,0:0:0:0:
96,192,89065,1,0,0:0:0:0:
160,192,89506,1,0,0:0:0:0:
224,192,89947,1,0,0:0:0:0:
480,192,90388,1,0,0:0:0:0:
416,192,90830,1,0,0:0:0:0:
352,192,91271,1,0,0:0:0:0:
288,192,91712,1,0,0:0:0:0:
32,192,92153,1,0,0:0:0:0:
224,192,92153,1,0,0:0:0:0:
480,192,93036,1,0,0:0:0:0:
160,192,93036,1,0,0:0:0:0:
224,192,93477,1,0,0:0:0:0:
416,192,93477,1,0,0:0:0:0:
160,192,93697,1,0,0:0:0:0:
352,192,93697,1,0,0:0:0:0:
480,192,94138,1,0,0:0:0:0:
416,192,94212,1,0,0:0:0:0:
352,192,94286,1,0,0:0:0:0:
288,192,94359,1,0,0:0:0:0:
32,192,94580,1,0,0:0:0:0:
416,192,94800,1,0,0:0:0:0:
288,192,95021,1,0,0:0:0:0:
160,192,95241,1,0,0:0:0:0:
96,192,95462,1,0,0:0:0:0:
480,192,95683,1,0,0:0:0:0:
32,192,95683,1,0,0:0:0:0:
96,192,96124,1,0,0:0:0:0:
160,192,96565,1,0,0:0:0:0:
224,192,97006,1,0,0:0:0:0:
32,192,97447,1,0,0:0:0:0:
480,192,97447,1,0,0:0:0:0:
416,192,97888,1,0,0:0:0:0:
352,192,98330,1,0,0:0:0:0:
288,192,98771,1,0,0:0:0:0:
32,192,99212,1,0,0:0:0:0:
224,192,99212,1,0,0:0:0:0:
96,192,99433,1,0,0:0:0:0:
224,192,99653,1,0,0:0:0:0:
288,192,99874,1,0,0:0:0:0:
416,192,100094,1,0,0:0:0:0:
480,192,100315,1,0,0:0:0:0:
352,192,100536,1,0,0:0:0:0:
288,192,100756,1,0,0:0:0:0:
96,192,100977,128,0,101859:0:0:0:0:
160,192,101859,128,0,102741:0:0:0:0:
32,192,102741,1,0,0:0:0:0:
96,192,102741,128,0,103183:0:0:0:0:
480,192,102741,1,0,0:0:0:0:
32,192,103183,1,0,0:0:0:0:
160,192,103183,128,0,103624:0:0:0:0:
96,192,103624,1,0,0:0:0:0:
224,192,103624,128,0,104065:0:0:0:0:
288,192,104065,128,0,104506:0:0:0:0:
32,192,104065,1,0,0:0:0:0:
224,192,104506,128,0,104947:0:0:0:0:
160,192,104506,1,0,0:0:0:0:
96,192,104947,1,0,0:0:0:0:
288,192,104947,128,0,105388:0:0:0:0:
352,192,105388,128,0,105830:0:0:0:0:
32,192,105388,1,0,0:0:0:0:
416,192,105830,128,0,106271:0:0:0:0:
160,192,105830,1,0,0:0:0:0:
32,192,106271,1,0,0:0:0:0:
224,192,106271,128,0,106713:0:0:0:0:
160,192,106713,1,0,0:0:0:0:
288,192,106713,128,0,107258:0:0:0:0:
32,192,107258,1,0,0:0:0:0:
352,192,107258,128,0,107858:0:0:0:0:
32,192,107858,1,0,0:0:0:0:
416,192,107858,128,0,108518:0:0:0:0:
32,192,108518,1,0,0:0:0:0:
480,192,108518,1,0,0:0:0:0:
96,192,108959,1,0,0:0:0:0:
288,192,109400,1,0,0:0:0:0:
480,192,109400,1,0,0:0:0:0:
32,192,109841,1,0,0:0:0:0:
96,192,110282,1,0,0:0:0:0:
160,192,110723,1,0,0:0:0:0:
224,192,111165,1,0,0:0:0:0:
416,192,111165,1,0,0:0:0:0:
32,192,111606,1,0,0:0:0:0:
288,192,111937,1,0,0:0:0:0:
416,192,112047,1,0,0:0:0:0:
32,192,112488,1,0,0:0:0:0:
224,192,112929,1,0,0:0:0:0:
416,192,112929,1,0,0:0:0:0:
32,192,113370,1,0,0:0:0:0:
32,192,113812,1,0,0:0:0:0:
96,192,114032,1,0,0:0:0:0:
160,192,114253,1,0,0:0:0:0:
224,192,114473,1,0,0:0:0:0:
288,192,114694,1,0,0:0:0:0:
352,192,114915,1,0,0:0:0:0:
416,192,115135,1,0,0:0:0:0:
480,192,115356,1,0,0:0:0:0:
480,192,115576,1,0,0:0:0:0:
32,192,116018,1,0,0:0:0:0:
480,192,116459,1,0,0:0:0:0:
32,192,116900,1,0,0:0:0:0:
96,192,117341,1,0,0:0:0:0:
288,192,118223,1,0,0:0:0:0:
480,192,118223,1,0,0:0:0:0:
288,192,118885,1,0,0:0:0:0:
480,192,118885,1,0,0:0:0:0:
160,192,119106,1,0,0:0:0:0:
352,192,119106,1,0,0:0:0:0:
32,192,119547,1,0,0:0:0:0:
32,192,119988,128,0,120870:0:0:0:0:
224,192,120870,128,0,121753:0:0:0:0:
416,192,121753,128,0,122635:0:0:0:0:
480,192,122635,1,0,0:0:0:0:
32,192,122635,1,0,0:0:0:0:
32,192,123076,1,0,0:0:0:0:
224,192,123517,1,0,0:0:0:0:
416,192,123517,1,0,0:0:0:0:
32,192,123959,1,0,0:0:0:0:
32,192,124400,1,0,0:0:0:0:
96,192,124620,1,0,0:0:0:0:
160,192,124841,1,0,0:0:0:0:
224,192,125062,1,0,0:0:0:0:
288,192,125282,1,0,0:0:0:0:
480,192,125503,1,0,0:0:0:0:
416,192,125723,1,0,0:0:0:0:
352,192,125944,1,0,0:0:0:0:
288,192,126165,1,0,0:0:0:0:
32,192,126165,1,0,0:0:0:0:
160,192,126606,1,0,0:0:0:0:
288,192,127047,1,0,0:0:0:0:
416,192,127047,1,0,0:0:0:0:
25,192,127488,1,0,0:0:0:0:
32,192,127929,1,0,0:0:0:0:
96,192,128150,1,0,0:0:0:0:
160,192,128370,1,0,0:0:0:0:
224,192,128591,1,0,0:0:0:0:
288,192,128812,1,0,0:0:0:0:
480,192,129032,1,0,0:0:0:0:
416,192,129253,1,0,0:0:0:0:
352,192,129473,1,0,0:0:0:0:
288,192,129694,1,0,0:0:0:0:
96,192,129694,1,0,0:0:0:0:
32,192,129694,1,0,0:0:0:0:
224,192,130135,1,0,0:0:0:0:
32,192,130576,1,0,0:0:0:0:
480,192,130576,1,0,0:0:0:0:
96,192,131017,1,0,0:0:0:0:
160,192,131459,1,0,0:0:0:0:
224,192,131900,1,0,0:0:0:0:
480,192,132341,1,0,0:0:0:0:
416,192,133003,1,0,0:0:0:0:
288,192,133223,1,0,0:0:0:0:
32,192,133223,1,0,0:0:0:0:
96,192,133665,1,0,0:0:0:0:
160,192,134106,1,0,0:0:0:0:
224,192,134547,1,0,0:0:0:0:
480,192,134988,128,0,135870:0:0:0:0:
224,192,135870,128,0,136753:0:0:0:0:
32,192,135870,1,0,0:0:0:0:
32,192,136753,1,0,0:0:0:0:
480,192,136753,1,0,0:0:0:0:
160,192,137194,1,0,0:0:0:0:
416,192,137635,1,0,0:0:0:0:
160,192,137635,1,0,0:0:0:0:
96,192,138076,1,0,0:0:0:0:
32,192,138517,1,0,0:0:0:0:
96,192,138738,1,0,0:0:0:0:
160,192,138959,1,0,0:0:0:0:
224,192,139179,1,0,0:0:0:0:
288,192,139400,1,0,0:0:0:0:
480,192,139620,1,0,0:0:0:0:
416,192,139841,1,0,0:0:0:0:
352,192,140062,1,0,0:0:0:0:
288,192,140282,1,0,0:0:0:0:
32,192,140282,1,0,0:0:0:0:
96,192,140723,1,0,0:0:0:0:
352,192,141165,1,0,0:0:0:0:
160,192,141165,1,0,0:0:0:0:
25,192,141606,1,0,0:0:0:0:
480,192,142047,1,0,0:0:0:0:
416,192,142267,1,0,0:0:0:0:
352,192,142488,1,0,0:0:0:0:
288,192,142709,1,0,0:0:0:0:
224,192,142929,1,0,0:0:0:0:
32,192,143150,1,0,0:0:0:0:
96,192,143370,1,0,0:0:0:0:
160,192,143591,1,0,0:0:0:0:
480,192,143812,1,0,0:0:0:0:
224,192,143812,1,0,0:0:0:0:
96,192,144253,1,0,0:0:0:0:
32,192,144694,1,0,0:0:0:0:
352,192,144694,1,0,0:0:0:0:
96,192,145135,1,0,0:0:0:0:
160,192,145576,1,0,0:0:0:0:
224,192,146017,1,0,0:0:0:0:
352,192,146459,1,0,0:0:0:0:
352,192,147120,1,0,0:0:0:0:
224,192,147341,1,0,0:0:0:0:
32,192,147341,1,0,0:0:0:0:
96,192,147782,1,0,0:0:0:0:
160,192,148223,1,0,0:0:0:0:
32,192,148665,1,0,0:0:0:0:
96,192,149106,1,0,0:0:0:0:
480,192,149326,1,0,0:0:0:0:
416,192,149547,1,0,0:0:0:0:
352,192,149767,1,0,0:0:0:0:
288,192,149998,1,0,0:0:0:0:
224,192,150228,1,0,0:0:0:0:
160,192,150459,1,0,0:0:0:0:
96,192,150731,1,0,0:0:0:0:
32,192,151004,1,0,0:0:0:0:
32,192,151465,1,0,0:0:0:0:
32,192,151927,1,0,0:0:0:0:
96,192,152388,1,0,0:0:0:0:
160,192,152850,1,0,0:0:0:0:
480,192,153080,1,0,0:0:0:0:
416,192,153311,1,0,0:0:0:0:
352,192,153542,1,0,0:0:0:0:
288,192,153773,1,0,0:0:0:0:
224,192,154023,1,0,0:0:0:0:
160,192,154273,1,0,0:0:0:0:
96,192,154585,1,0,0:0:0:0:
480,192,154928,128,0,155755:0:0:0:0:
416,192,154928,128,0,155755:0:0:0:0:
352,192,154928,128,0,155755:0:0:0:0:
