osu file format v14

[General]
AudioFilename: megalovania.mp3
AudioLeadIn: 0
PreviewTime: 22244
Countdown: 0
SampleSet: Soft
StackLeniency: 0.7
Mode: 1
LetterboxInBreaks: 0
WidescreenStoryboard: 0

[Editor]
DistanceSpacing: 0.9
BeatDivisor: 4
GridSize: 32
TimelineZoom: 2.2

[Metadata]
Title:MEGALOVANIA
TitleUnicode:MEGALOVANIA
Artist:RichaadEB vs toby fox
ArtistUnicode:RichaadEB vs toby fox
Creator:Kunieda
Version:Hell Oni
Source:UNDERTALE
Tags:mashup metal
BeatmapID:824415
BeatmapSetID:376560

[Difficulty]
HPDrainRate:5
CircleSize:5
OverallDifficulty:5
ApproachRate:5
SliderMultiplier:1.4
SliderTickRate:1

[Events]
//Background and Video events
0,0,"bg.jpg",0,0
//Break Periods
//Storyboard Layer 0 (Background)
//Storyboard Layer 1 (Fail)
//Storyboard Layer 2 (Pass)
//Storyboard Layer 3 (Foreground)
//Storyboard Sound Samples

[TimingPoints]
6245,500,4,2,0,100,1,0
22244,250,4,1,0,80,1,1
38244,-111.111111111111,4,1,0,80,0,0
46244,-100,4,1,0,80,0,0
86244,-133.333333333333,4,1,0,65,0,0
114244,-100,4,1,0,80,0,0
158244,-76.9230769230769,4,1,0,80,0,1
166244,-68.9655172413793,4,1,0,80,0,1
172244,-43.4782608695652,4,1,0,80,0,1
173244,-33.3333333333333,4,1,0,80,0,1
173869,-25,4,1,0,80,0,1
174244,-100,4,1,0,80,0,0

[HitObjects]
256,192,495,12,0,5745,0:0:0:0:
256,192,6245,5,0,0:0:0:0:
256,192,6370,1,0,0:0:0:0:
256,192,6495,1,8,0:0:0:0:
256,192,6745,1,0,0:0:0:0:
256,192,7120,1,8,0:0:0:0:
256,192,7370,1,8,0:0:0:0:
256,192,7620,1,8,0:0:0:0:
256,192,7870,1,8,0:0:0:0:
256,192,7995,1,0,0:0:0:0:
256,192,8120,1,8,0:0:0:0:
256,192,8245,1,0,0:0:0:0:
256,192,8370,1,0,0:0:0:0:
256,192,8495,1,8,0:0:0:0:
256,192,8745,1,0,0:0:0:0:
256,192,9120,1,8,0:0:0:0:
256,192,9370,1,8,0:0:0:0:
256,192,9620,1,8,0:0:0:0:
256,192,9870,1,8,0:0:0:0:
256,192,9995,1,0,0:0:0:0:
256,192,10120,1,8,0:0:0:0:
256,192,10245,1,0,0:0:0:0:
256,192,10370,1,0,0:0:0:0:
256,192,10495,1,8,0:0:0:0:
256,192,10745,1,0,0:0:0:0:
256,192,11120,1,8,0:0:0:0:
256,192,11370,1,8,0:0:0:0:
256,192,11620,1,8,0:0:0:0:
256,192,11870,1,8,0:0:0:0:
256,192,11995,1,0,0:0:0:0:
256,192,12120,1,8,0:0:0:0:
256,192,12245,1,0,0:0:0:0:
256,192,12370,1,0,0:0:0:0:
256,192,12495,1,8,0:0:0:0:
256,192,12745,1,0,0:0:0:0:
256,192,13120,1,8,0:0:0:0:
256,192,13370,1,8,0:0:0:0:
256,192,13620,1,8,0:0:0:0:
256,192,13870,1,8,0:0:0:0:
256,192,13995,1,0,0:0:0:0:
256,192,14120,1,8,0:0:0:0:
256,192,14245,1,0,0:0:0:0:
256,192,14370,1,0,0:0:0:0:
256,192,14495,1,8,0:0:0:0:
256,192,14745,1,0,0:0:0:0:
256,192,15120,1,8,0:0:0:0:
256,192,15370,1,8,0:0:0:0:
256,192,15620,1,8,0:0:0:0:
256,192,15870,1,8,0:0:0:0:
256,192,15995,1,0,0:0:0:0:
256,192,16120,1,8,0:0:0:0:
256,192,16245,1,0,0:0:0:0:
256,192,16370,1,0,0:0:0:0:
256,192,16495,1,8,0:0:0:0:
256,192,16745,1,0,0:0:0:0:
256,192,17120,1,8,0:0:0:0:
256,192,17370,1,8,0:0:0:0:
256,192,17620,1,8,0:0:0:0:
256,192,17870,1,8,0:0:0:0:
256,192,17995,1,0,0:0:0:0:
256,192,18120,1,8,0:0:0:0:
256,192,18245,1,0,0:0:0:0:
256,192,18370,1,0,0:0:0:0:
256,192,18495,1,8,0:0:0:0:
256,192,18745,1,0,0:0:0:0:
256,192,19120,1,8,0:0:0:0:
256,192,19370,1,8,0:0:0:0:
256,192,19620,1,8,0:0:0:0:
256,192,19870,1,8,0:0:0:0:
256,192,19995,1,0,0:0:0:0:
256,192,20120,1,8,0:0:0:0:
256,192,20245,1,0,0:0:0:0:
256,192,20370,1,0,0:0:0:0:
256,192,20495,1,8,0:0:0:0:
256,192,20745,1,0,0:0:0:0:
256,192,21120,1,8,0:0:0:0:
256,192,21370,1,8,0:0:0:0:
256,192,21620,1,8,0:0:0:0:
256,192,21870,1,8,0:0:0:0:
256,192,21995,1,0,0:0:0:0:
256,192,22120,1,8,0:0:0:0:
256,192,22245,1,4,0:0:0:0:
256,192,22370,1,0,0:0:0:0:
256,192,22431,1,0,0:0:0:0:
256,192,22495,1,8,0:0:0:0:
256,192,22619,1,0,0:0:0:0:
256,192,22745,1,8,0:0:0:0:
256,192,22806,1,8,0:0:0:0:
256,192,22869,1,8,0:0:0:0:
256,192,22931,1,0,0:0:0:0:
256,192,22994,1,0,0:0:0:0:
256,192,23119,1,0,0:0:0:0:
256,192,23181,1,0,0:0:0:0:
256,192,23244,1,8,0:0:0:0:
256,192,23369,1,0,0:0:0:0:
256,192,23431,1,0,0:0:0:0:
256,192,23494,1,8,0:0:0:0:
256,192,23619,1,0,0:0:0:0:
256,192,23744,1,8,0:0:0:0:
256,192,23869,1,8,0:0:0:0:
256,192,23931,1,0,0:0:0:0:
256,192,23994,1,8,0:0:0:0:
256,192,24056,1,0,0:0:0:0:
256,192,24119,1,8,0:0:0:0:
256,192,24244,1,4,0:0:0:0:
256,192,24369,1,0,0:0:0:0:
256,192,24431,1,0,0:0:0:0:
256,192,24494,1,8,0:0:0:0:
256,192,24619,1,0,0:0:0:0:
256,192,24745,1,8,0:0:0:0:
256,192,24806,1,8,0:0:0:0:
256,192,24869,1,8,0:0:0:0:
256,192,24931,1,0,0:0:0:0:
256,192,24994,1,0,0:0:0:0:
256,192,25119,1,0,0:0:0:0:
256,192,25181,1,0,0:0:0:0:
256,192,25244,1,8,0:0:0:0:
256,192,25369,1,0,0:0:0:0:
256,192,25431,1,0,0:0:0:0:
256,192,25494,1,8,0:0:0:0:
256,192,25619,1,0,0:0:0:0:
256,192,25744,1,8,0:0:0:0:
256,192,25869,1,8,0:0:0:0:
256,192,25931,1,0,0:0:0:0:
256,192,25994,1,8,0:0:0:0:
256,192,26056,1,0,0:0:0:0:
256,192,26119,1,8,0:0:0:0:
256,192,26244,1,4,0:0:0:0:
256,192,26369,1,0,0:0:0:0:
256,192,26431,1,0,0:0:0:0:
256,192,26494,1,8,0:0:0:0:
256,192,26619,1,0,0:0:0:0:
256,192,26745,1,8,0:0:0:0:
256,192,26806,1,8,0:0:0:0:
256,192,26869,1,8,0:0:0:0:
256,192,26931,1,0,0:0:0:0:
256,192,26994,1,0,0:0:0:0:
256,192,27119,1,0,0:0:0:0:
256,192,27181,1,0,0:0:0:0:
256,192,27244,1,8,0:0:0:0:
256,192,27369,1,0,0:0:0:0:
256,192,27431,1,0,0:0:0:0:
256,192,27494,1,8,0:0:0:0:
256,192,27619,1,0,0:0:0:0:
256,192,27744,1,8,0:0:0:0:
256,192,27869,1,8,0:0:0:0:
256,192,27931,1,0,0:0:0:0:
256,192,27994,1,8,0:0:0:0:
256,192,28056,1,0,0:0:0:0:
256,192,28119,1,8,0:0:0:0:
256,192,28244,1,4,0:0:0:0:
256,192,28369,1,0,0:0:0:0:
256,192,28431,1,0,0:0:0:0:
256,192,28494,1,8,0:0:0:0:
256,192,28619,1,0,0:0:0:0:
256,192,28745,1,8,0:0:0:0:
256,192,28806,1,8,0:0:0:0:
256,192,28869,1,8,0:0:0:0:
256,192,28931,1,0,0:0:0:0:
256,192,28994,1,0,0:0:0:0:
256,192,29119,1,0,0:0:0:0:
256,192,29244,1,6,0:0:0:0:
256,192,29369,1,0,0:0:0:0:
256,192,29493,1,0,0:0:0:0:
256,192,29618,1,6,0:0:0:0:
256,192,29744,1,0,0:0:0:0:
256,192,29868,1,0,0:0:0:0:
256,192,29931,1,0,0:0:0:0:
256,192,29994,1,8,0:0:0:0:
256,192,30056,1,0,0:0:0:0:
256,192,30119,1,8,0:0:0:0:
256,192,30244,1,4,0:0:0:0:
256,192,30369,1,0,0:0:0:0:
256,192,30431,1,0,0:0:0:0:
256,192,30494,1,8,0:0:0:0:
256,192,30619,1,0,0:0:0:0:
256,192,30744,1,8,0:0:0:0:
256,192,30805,1,8,0:0:0:0:
256,192,30868,1,8,0:0:0:0:
256,192,30930,1,0,0:0:0:0:
256,192,30993,1,0,0:0:0:0:
256,192,31118,1,0,0:0:0:0:
256,192,31180,1,0,0:0:0:0:
256,192,31243,1,8,0:0:0:0:
256,192,31368,1,0,0:0:0:0:
256,192,31430,1,0,0:0:0:0:
256,192,31493,1,8,0:0:0:0:
256,192,31618,1,0,0:0:0:0:
256,192,31743,1,8,0:0:0:0:
256,192,31868,1,8,0:0:0:0:
256,192,31930,1,0,0:0:0:0:
256,192,31993,1,8,0:0:0:0:
256,192,32055,1,0,0:0:0:0:
256,192,32118,1,8,0:0:0:0:
256,192,32243,1,4,0:0:0:0:
256,192,32368,1,0,0:0:0:0:
256,192,32430,1,0,0:0:0:0:
256,192,32493,1,8,0:0:0:0:
256,192,32618,1,0,0:0:0:0:
256,192,32744,1,8,0:0:0:0:
256,192,32805,1,8,0:0:0:0:
256,192,32868,1,8,0:0:0:0:
256,192,32930,1,0,0:0:0:0:
256,192,32993,1,0,0:0:0:0:
256,192,33118,1,0,0:0:0:0:
256,192,33180,1,0,0:0:0:0:
256,192,33243,1,8,0:0:0:0:
256,192,33368,1,0,0:0:0:0:
256,192,33430,1,0,0:0:0:0:
256,192,33493,1,8,0:0:0:0:
256,192,33618,1,0,0:0:0:0:
256,192,33743,1,8,0:0:0:0:
256,192,33868,1,8,0:0:0:0:
256,192,33930,1,0,0:0:0:0:
256,192,33993,1,8,0:0:0:0:
256,192,34055,1,0,0:0:0:0:
256,192,34118,1,8,0:0:0:0:
256,192,34243,1,4,0:0:0:0:
256,192,34368,1,0,0:0:0:0:
256,192,34430,1,0,0:0:0:0:
256,192,34493,1,8,0:0:0:0:
256,192,34618,1,0,0:0:0:0:
256,192,34744,1,8,0:0:0:0:
256,192,34805,1,8,0:0:0:0:
256,192,34868,1,8,0:0:0:0:
256,192,34930,1,0,0:0:0:0:
256,192,34993,1,0,0:0:0:0:
256,192,35118,1,0,0:0:0:0:
256,192,35180,1,0,0:0:0:0:
256,192,35243,1,8,0:0:0:0:
256,192,35368,1,0,0:0:0:0:
256,192,35430,1,0,0:0:0:0:
256,192,35493,1,8,0:0:0:0:
256,192,35618,1,0,0:0:0:0:
256,192,35743,1,8,0:0:0:0:
256,192,35868,1,8,0:0:0:0:
256,192,35930,1,0,0:0:0:0:
256,192,35993,1,8,0:0:0:0:
256,192,36055,1,0,0:0:0:0:
256,192,36118,1,8,0:0:0:0:
256,192,36243,1,4,0:0:0:0:
256,192,36368,1,0,0:0:0:0:
256,192,36430,1,0,0:0:0:0:
256,192,36493,1,8,0:0:0:0:
256,192,36618,1,0,0:0:0:0:
256,192,36744,1,8,0:0:0:0:
256,192,36805,1,8,0:0:0:0:
256,192,36868,1,8,0:0:0:0:
256,192,36930,1,0,0:0:0:0:
256,192,36993,1,0,0:0:0:0:
256,192,37119,1,0,0:0:0:0:
256,192,37244,1,6,0:0:0:0:
256,192,37369,1,0,0:0:0:0:
256,192,37493,1,0,0:0:0:0:
256,192,37618,1,6,0:0:0:0:
256,192,37744,1,0,0:0:0:0:
256,192,37868,1,0,0:0:0:0:
256,192,37994,1,8,0:0:0:0:
256,192,38056,1,8,0:0:0:0:
256,192,38118,1,0,0:0:0:0:
256,192,38181,1,0,0:0:0:0:
256,192,38244,1,8,0:0:0:0:
256,192,38368,1,0,0:0:0:0:
256,192,38431,1,0,0:0:0:0:
256,192,38494,1,0,0:0:0:0:
256,192,38619,1,8,0:0:0:0:
256,192,38744,1,0,0:0:0:0:
256,192,38869,1,8,0:0:0:0:
256,192,38994,1,0,0:0:0:0:
256,192,39119,1,8,0:0:0:0:
256,192,39181,1,8,0:0:0:0:
256,192,39244,1,0,0:0:0:0:
256,192,39306,1,0,0:0:0:0:
256,192,39369,1,8,0:0:0:0:
256,192,39431,1,8,0:0:0:0:
256,192,39494,1,0,0:0:0:0:
256,192,39619,1,0,0:0:0:0:
256,192,40244,1,0,0:0:0:0:
256,192,40369,1,0,0:0:0:0:
256,192,40431,1,0,0:0:0:0:
256,192,40494,1,8,0:0:0:0:
256,192,40619,1,0,0:0:0:0:
256,192,40744,1,8,0:0:0:0:
256,192,40869,1,0,0:0:0:0:
256,192,40994,1,8,0:0:0:0:
256,192,41119,1,0,0:0:0:0:
256,192,41181,1,0,0:0:0:0:
256,192,41244,1,0,0:0:0:0:
256,192,41369,1,8,0:0:0:0:
256,192,41431,1,8,0:0:0:0:
256,192,41494,1,0,0:0:0:0:
256,192,41556,1,0,0:0:0:0:
256,192,41619,1,8,0:0:0:0:
256,192,41681,1,8,0:0:0:0:
256,192,41744,1,8,0:0:0:0:
256,192,41806,1,0,0:0:0:0:
256,192,41869,1,8,0:0:0:0:
256,192,42244,1,0,0:0:0:0:
256,192,42369,1,0,0:0:0:0:
256,192,42431,1,0,0:0:0:0:
256,192,42494,1,8,0:0:0:0:
256,192,42619,1,0,0:0:0:0:
256,192,42744,1,8,0:0:0:0:
256,192,42869,1,0,0:0:0:0:
256,192,42994,1,0,0:0:0:0:
256,192,43119,1,8,0:0:0:0:
256,192,43244,1,0,0:0:0:0:
256,192,43306,1,0,0:0:0:0:
256,192,43369,1,8,0:0:0:0:
256,192,43494,1,0,0:0:0:0:
256,192,43619,1,8,0:0:0:0:
256,192,43869,1,0,0:0:0:0:
256,192,44244,1,6,0:0:0:0:
256,192,44369,1,0,0:0:0:0:
256,192,44431,1,0,0:0:0:0:
256,192,44494,1,8,0:0:0:0:
256,192,44619,1,0,0:0:0:0:
256,192,44744,1,8,0:0:0:0:
256,192,44869,1,0,0:0:0:0:
256,192,44994,1,8,0:0:0:0:
256,192,45119,1,8,0:0:0:0:
256,192,45244,1,8,0:0:0:0:
256,192,45306,1,8,0:0:0:0:
256,192,45369,1,0,0:0:0:0:
256,192,45431,1,0,0:0:0:0:
256,192,45494,1,8,0:0:0:0:
256,192,45556,1,0,0:0:0:0:
256,192,45619,1,8,0:0:0:0:
256,192,45681,1,0,0:0:0:0:
256,192,45744,1,0,0:0:0:0:
256,192,45806,1,8,0:0:0:0:
256,192,45869,1,0,0:0:0:0:
256,192,45931,1,8,0:0:0:0:
256,192,45994,1,8,0:0:0:0:
256,192,46056,1,0,0:0:0:0:
256,192,46119,1,0,0:0:0:0:
256,192,46181,1,0,0:0:0:0:
256,192,46244,1,8,0:0:0:0:
256,192,46369,1,0,0:0:0:0:
256,192,46431,1,0,0:0:0:0:
256,192,46494,1,0,0:0:0:0:
256,192,46619,1,8,0:0:0:0:
256,192,46744,1,0,0:0:0:0:
256,192,46869,1,8,0:0:0:0:
256,192,46994,1,0,0:0:0:0:
256,192,47119,1,8,0:0:0:0:
256,192,47181,1,8,0:0:0:0:
256,192,47244,1,0,0:0:0:0:
256,192,47306,1,0,0:0:0:0:
256,192,47369,1,8,0:0:0:0:
256,192,47431,1,8,0:0:0:0:
256,192,47494,1,0,0:0:0:0:
256,192,47619,2,0,L|224:160,6,35
256,192,48244,1,8,0:0:0:0:
256,192,48306,1,8,0:0:0:0:
256,192,48369,1,8,0:0:0:0:
256,192,48431,1,0,0:0:0:0:
256,192,48494,1,0,0:0:0:0:
256,192,48619,1,0,0:0:0:0:
256,192,48744,1,8,0:0:0:0:
256,192,48869,1,0,0:0:0:0:
256,192,48994,1,8,0:0:0:0:
256,192,49119,1,0,0:0:0:0:
256,192,49181,1,0,0:0:0:0:
256,192,49244,1,0,0:0:0:0:
256,192,49369,1,8,0:0:0:0:
256,192,49431,1,0,0:0:0:0:
256,192,49494,1,0,0:0:0:0:
256,192,49619,1,0,0:0:0:0:
256,192,49744,1,8,0:0:0:0:
256,192,49869,1,0,0:0:0:0:
256,192,49931,1,8,0:0:0:0:
256,192,49994,1,0,0:0:0:0:
256,192,50244,1,4,0:0:0:0:
256,192,50369,1,0,0:0:0:0:
256,192,50431,1,0,0:0:0:0:
256,192,50494,1,8,0:0:0:0:
256,192,50619,1,0,0:0:0:0:
256,192,50744,1,8,0:0:0:0:
256,192,50869,1,0,0:0:0:0:
256,192,50994,1,0,0:0:0:0:
256,192,51119,1,8,0:0:0:0:
256,192,51244,1,8,0:0:0:0:
256,192,51307,1,0,0:0:0:0:
256,192,51369,1,0,0:0:0:0:
256,192,51494,1,0,0:0:0:0:
256,192,51619,1,8,0:0:0:0:
256,192,51744,1,8,0:0:0:0:
256,192,51869,1,0,0:0:0:0:
256,192,51994,1,0,0:0:0:0:
256,192,52119,1,0,0:0:0:0:
256,192,52244,1,8,0:0:0:0:
256,192,52306,1,8,0:0:0:0:
256,192,52369,1,0,0:0:0:0:
256,192,52431,1,0,0:0:0:0:
256,192,52494,1,8,0:0:0:0:
256,192,52619,1,0,0:0:0:0:
256,192,52744,1,0,0:0:0:0:
256,192,52869,1,0,0:0:0:0:
256,192,52994,1,8,0:0:0:0:
256,192,53119,1,8,0:0:0:0:
256,192,53244,1,8,0:0:0:0:
256,192,53306,1,8,0:0:0:0:
256,192,53369,1,0,0:0:0:0:
256,192,53431,1,0,0:0:0:0:
256,192,53494,1,8,0:0:0:0:
256,192,53556,1,0,0:0:0:0:
256,192,53619,1,8,0:0:0:0:
256,192,53681,1,0,0:0:0:0:
256,192,53744,1,0,0:0:0:0:
256,192,53806,1,8,0:0:0:0:
256,192,53869,1,0,0:0:0:0:
256,192,53931,1,8,0:0:0:0:
256,192,53994,1,8,0:0:0:0:
256,192,54056,1,0,0:0:0:0:
256,192,54119,1,0,0:0:0:0:
256,192,54181,1,8,0:0:0:0:
256,192,54244,1,0,0:0:0:0:
256,192,54494,1,8,0:0:0:0:
256,192,54744,1,0,0:0:0:0:
256,192,54869,1,0,0:0:0:0:
256,192,54994,1,8,0:0:0:0:
256,192,55244,1,0,0:0:0:0:
256,192,55369,1,0,0:0:0:0:
256,192,55494,1,8,0:0:0:0:
256,192,55619,1,8,0:0:0:0:
256,192,55744,1,0,0:0:0:0:
256,192,55869,1,0,0:0:0:0:
256,192,55994,1,8,0:0:0:0:
256,192,56119,1,0,0:0:0:0:
256,192,56244,1,8,0:0:0:0:
256,192,56306,1,8,0:0:0:0:
256,192,56369,1,8,0:0:0:0:
256,192,56431,1,0,0:0:0:0:
256,192,56494,1,0,0:0:0:0:
256,192,56744,1,8,0:0:0:0:
256,192,56869,1,0,0:0:0:0:
256,192,56994,1,0,0:0:0:0:
256,192,57119,1,8,0:0:0:0:
256,192,57244,1,0,0:0:0:0:
256,192,57494,1,8,0:0:0:0:
256,192,57619,1,0,0:0:0:0:
256,192,57869,1,8,0:0:0:0:
256,192,58119,1,0,0:0:0:0:
256,192,58244,1,8,0:0:0:0:
256,192,58494,1,8,0:0:0:0:
256,192,58619,1,8,0:0:0:0:
256,192,58744,1,0,0:0:0:0:
256,192,58869,1,0,0:0:0:0:
256,192,58994,1,8,0:0:0:0:
256,192,59119,1,8,0:0:0:0:
256,192,59244,1,0,0:0:0:0:
256,192,59306,1,0,0:0:0:0:
256,192,59369,1,0,0:0:0:0:
256,192,59431,1,0,0:0:0:0:
256,192,59494,1,8,0:0:0:0:
256,192,59556,1,8,0:0:0:0:
256,192,59619,1,8,0:0:0:0:
256,192,59681,1,8,0:0:0:0:
256,192,59744,1,0,0:0:0:0:
256,192,59806,1,0,0:0:0:0:
256,192,59869,1,0,0:0:0:0:
256,192,59931,1,0,0:0:0:0:
256,192,59994,1,8,0:0:0:0:
256,192,60056,1,8,0:0:0:0:
256,192,60119,1,0,0:0:0:0:
256,192,60181,1,0,0:0:0:0:
256,192,60244,1,8,0:0:0:0:
256,192,60494,1,8,0:0:0:0:
256,192,60619,1,0,0:0:0:0:
256,192,60744,1,0,0:0:0:0:
256,192,60869,1,8,0:0:0:0:
256,192,60994,1,8,0:0:0:0:
256,192,61119,1,0,0:0:0:0:
256,192,61244,1,8,0:0:0:0:
256,192,61306,1,8,0:0:0:0:
256,192,61369,1,0,0:0:0:0:
256,192,61431,1,0,0:0:0:0:
256,192,61494,1,8,0:0:0:0:
256,192,61556,1,0,0:0:0:0:
256,192,61619,1,8,0:0:0:0:
256,192,61681,1,0,0:0:0:0:
256,192,61744,1,0,0:0:0:0:
256,192,61806,1,8,0:0:0:0:
256,192,61869,1,0,0:0:0:0:
256,192,61931,1,8,0:0:0:0:
256,192,61994,1,8,0:0:0:0:
256,192,62056,1,0,0:0:0:0:
256,192,62119,1,0,0:0:0:0:
256,192,62181,1,0,0:0:0:0:
256,192,62244,1,8,0:0:0:0:
256,192,62369,1,0,0:0:0:0:
256,192,62431,1,0,0:0:0:0:
256,192,62494,1,8,0:0:0:0:
256,192,62619,1,0,0:0:0:0:
256,192,62744,1,8,0:0:0:0:
256,192,62869,1,0,0:0:0:0:
256,192,62931,1,0,0:0:0:0:
256,192,62994,1,8,0:0:0:0:
256,192,63119,1,0,0:0:0:0:
256,192,63244,1,8,0:0:0:0:
256,192,63306,1,8,0:0:0:0:
256,192,63369,1,0,0:0:0:0:
256,192,63431,1,0,0:0:0:0:
256,192,63494,1,0,0:0:0:0:
256,192,63619,1,0,0:0:0:0:
256,192,63744,1,8,0:0:0:0:
256,192,63806,1,8,0:0:0:0:
256,192,63869,1,0,0:0:0:0:
256,192,63931,1,0,0:0:0:0:
256,192,63994,1,0,0:0:0:0:
256,192,64119,1,8,0:0:0:0:
256,192,64244,1,8,0:0:0:0:
256,192,64306,1,8,0:0:0:0:
256,192,64369,1,0,0:0:0:0:
256,192,64494,1,0,0:0:0:0:
256,192,64619,1,0,0:0:0:0:
256,192,64744,1,8,0:0:0:0:
256,192,64806,1,8,0:0:0:0:
256,192,64869,1,0,0:0:0:0:
256,192,64931,1,0,0:0:0:0:
256,192,64994,1,8,0:0:0:0:
256,192,65119,1,0,0:0:0:0:
256,192,65244,1,8,0:0:0:0:
256,192,65306,1,0,0:0:0:0:
256,192,65369,1,0,0:0:0:0:
256,192,65431,1,0,0:0:0:0:
256,192,65494,1,8,0:0:0:0:
256,192,65619,1,0,0:0:0:0:
256,192,65744,1,8,0:0:0:0:
256,192,65806,1,8,0:0:0:0:
256,192,65869,1,8,0:0:0:0:
256,192,65931,1,0,0:0:0:0:
256,192,65994,1,0,0:0:0:0:
256,192,66119,1,0,0:0:0:0:
256,192,66244,2,0,L|224:160,12,35
256,192,67244,1,8,0:0:0:0:
256,192,67369,1,8,0:0:0:0:
256,192,67494,1,0,0:0:0:0:
256,192,67619,1,0,0:0:0:0:
256,192,67744,1,8,0:0:0:0:
256,192,67869,1,8,0:0:0:0:
256,192,67994,1,0,0:0:0:0:
256,192,68119,1,8,0:0:0:0:
256,192,68244,1,0,0:0:0:0:
256,192,68494,1,8,0:0:0:0:
256,192,68744,1,0,0:0:0:0:
256,192,68869,1,0,0:0:0:0:
256,192,68994,1,8,0:0:0:0:
256,192,69119,1,0,0:0:0:0:
256,192,69244,1,8,0:0:0:0:
256,192,69306,1,8,0:0:0:0:
256,192,69369,1,0,0:0:0:0:
256,192,69431,1,0,0:0:0:0:
256,192,69494,1,8,0:0:0:0:
256,192,69556,1,0,0:0:0:0:
256,192,69619,1,8,0:0:0:0:
256,192,69681,1,0,0:0:0:0:
256,192,69744,1,0,0:0:0:0:
256,192,69806,1,8,0:0:0:0:
256,192,69869,1,0,0:0:0:0:
256,192,69931,1,8,0:0:0:0:
256,192,69994,1,8,0:0:0:0:
256,192,70056,1,0,0:0:0:0:
256,192,70119,1,0,0:0:0:0:
256,192,70181,1,0,0:0:0:0:
256,192,70244,1,0,0:0:0:0:
256,192,70494,1,8,0:0:0:0:
256,192,70744,1,0,0:0:0:0:
256,192,70869,1,0,0:0:0:0:
256,192,70994,1,8,0:0:0:0:
256,192,71244,1,0,0:0:0:0:
256,192,71369,1,0,0:0:0:0:
256,192,71494,1,8,0:0:0:0:
256,192,71619,1,8,0:0:0:0:
256,192,71744,1,0,0:0:0:0:
256,192,71869,1,0,0:0:0:0:
256,192,71994,1,8,0:0:0:0:
256,192,72119,1,0,0:0:0:0:
256,192,72244,1,8,0:0:0:0:
256,192,72306,1,8,0:0:0:0:
256,192,72369,1,8,0:0:0:0:
256,192,72431,1,0,0:0:0:0:
256,192,72494,1,0,0:0:0:0:
256,192,72744,1,8,0:0:0:0:
256,192,72869,1,0,0:0:0:0:
256,192,72994,1,0,0:0:0:0:
256,192,73119,1,8,0:0:0:0:
256,192,73244,1,0,0:0:0:0:
256,192,73494,1,8,0:0:0:0:
256,192,73619,1,0,0:0:0:0:
256,192,73869,1,8,0:0:0:0:
256,192,74119,1,0,0:0:0:0:
256,192,74244,1,8,0:0:0:0:
256,192,74494,1,8,0:0:0:0:
256,192,74619,1,8,0:0:0:0:
256,192,74744,1,0,0:0:0:0:
256,192,74869,1,0,0:0:0:0:
256,192,74994,1,8,0:0:0:0:
256,192,75119,1,8,0:0:0:0:
256,192,75244,1,0,0:0:0:0:
256,192,75306,1,0,0:0:0:0:
256,192,75369,1,0,0:0:0:0:
256,192,75431,1,0,0:0:0:0:
256,192,75494,1,8,0:0:0:0:
256,192,75556,1,8,0:0:0:0:
256,192,75619,1,8,0:0:0:0:
256,192,75681,1,8,0:0:0:0:
256,192,75744,1,0,0:0:0:0:
256,192,75806,1,0,0:0:0:0:
256,192,75869,1,0,0:0:0:0:
256,192,75931,1,0,0:0:0:0:
256,192,75994,1,8,0:0:0:0:
256,192,76056,1,8,0:0:0:0:
256,192,76119,1,0,0:0:0:0:
256,192,76181,1,0,0:0:0:0:
256,192,76244,1,8,0:0:0:0:
256,192,76494,1,8,0:0:0:0:
256,192,76619,1,0,0:0:0:0:
256,192,76744,1,0,0:0:0:0:
256,192,76869,1,8,0:0:0:0:
256,192,76994,1,8,0:0:0:0:
256,192,77119,1,0,0:0:0:0:
256,192,77244,1,8,0:0:0:0:
256,192,77306,1,8,0:0:0:0:
256,192,77369,1,0,0:0:0:0:
256,192,77431,1,0,0:0:0:0:
256,192,77494,1,8,0:0:0:0:
256,192,77556,1,0,0:0:0:0:
256,192,77619,1,8,0:0:0:0:
256,192,77681,1,0,0:0:0:0:
256,192,77744,1,0,0:0:0:0:
256,192,77806,1,8,0:0:0:0:
256,192,77869,1,0,0:0:0:0:
256,192,77931,1,8,0:0:0:0:
256,192,77994,1,8,0:0:0:0:
256,192,78056,1,0,0:0:0:0:
256,192,78119,1,0,0:0:0:0:
256,192,78181,1,0,0:0:0:0:
256,192,78244,1,8,0:0:0:0:
256,192,78369,1,0,0:0:0:0:
256,192,78431,1,0,0:0:0:0:
256,192,78494,1,8,0:0:0:0:
256,192,78619,1,0,0:0:0:0:
256,192,78744,1,8,0:0:0:0:
256,192,78869,1,0,0:0:0:0:
256,192,78931,1,0,0:0:0:0:
256,192,78994,1,8,0:0:0:0:
256,192,79119,1,0,0:0:0:0:
256,192,79244,1,8,0:0:0:0:
256,192,79306,1,8,0:0:0:0:
256,192,79369,1,0,0:0:0:0:
256,192,79431,1,0,0:0:0:0:
256,192,79494,1,0,0:0:0:0:
256,192,79619,1,0,0:0:0:0:
256,192,79744,1,8,0:0:0:0:
256,192,79806,1,8,0:0:0:0:
256,192,79869,1,0,0:0:0:0:
256,192,79931,1,0,0:0:0:0:
256,192,79994,1,0,0:0:0:0:
256,192,80119,1,8,0:0:0:0:
256,192,80244,1,8,0:0:0:0:
256,192,80306,1,8,0:0:0:0:
256,192,80369,1,0,0:0:0:0:
256,192,80494,1,0,0:0:0:0:
256,192,80619,1,0,0:0:0:0:
256,192,80744,1,8,0:0:0:0:
256,192,80806,1,8,0:0:0:0:
256,192,80869,1,0,0:0:0:0:
256,192,80931,1,0,0:0:0:0:
256,192,80994,1,8,0:0:0:0:
256,192,81119,1,0,0:0:0:0:
256,192,81244,1,8,0:0:0:0:
256,192,81306,1,0,0:0:0:0:
256,192,81369,1,0,0:0:0:0:
256,192,81431,1,0,0:0:0:0:
256,192,81494,1,8,0:0:0:0:
256,192,81619,1,0,0:0:0:0:
256,192,81744,1,8,0:0:0:0:
256,192,81806,1,8,0:0:0:0:
256,192,81869,1,8,0:0:0:0:
256,192,81931,1,0,0:0:0:0:
256,192,81994,1,0,0:0:0:0:
256,192,82119,1,0,0:0:0:0:
256,192,82244,2,0,L|224:160,12,35
256,192,83244,1,8,0:0:0:0:
256,192,83369,1,8,0:0:0:0:
256,192,83494,1,0,0:0:0:0:
256,192,83619,1,0,0:0:0:0:
256,192,83744,1,8,0:0:0:0:
256,192,83869,1,8,0:0:0:0:
256,192,83994,1,0,0:0:0:0:
256,192,84119,1,8,0:0:0:0:
256,192,84244,1,8,0:0:0:0:
256,192,84306,1,0,0:0:0:0:
256,192,84369,1,0,0:0:0:0:
256,192,84431,1,0,0:0:0:0:
256,192,84494,1,8,0:0:0:0:
256,192,84619,1,8,0:0:0:0:
256,192,84744,1,0,0:0:0:0:
256,192,84869,1,0,0:0:0:0:
256,192,84994,1,8,0:0:0:0:
256,192,85119,1,0,0:0:0:0:
256,192,85244,1,8,0:0:0:0:
256,192,85306,1,8,0:0:0:0:
256,192,85369,1,0,0:0:0:0:
256,192,85431,1,0,0:0:0:0:
256,192,85494,1,8,0:0:0:0:
256,192,85556,1,0,0:0:0:0:
256,192,85619,1,8,0:0:0:0:
256,192,85681,1,8,0:0:0:0:
256,192,85744,1,0,0:0:0:0:
256,192,85806,1,0,0:0:0:0:
256,192,85869,1,8,0:0:0:0:
256,192,85931,1,8,0:0:0:0:
256,192,85994,1,0,0:0:0:0:
256,192,86056,1,0,0:0:0:0:
256,192,86119,1,0,0:0:0:0:
256,192,86181,1,0,0:0:0:0:
256,192,86244,1,0,0:0:0:0:
256,192,86494,1,0,0:0:0:0:
256,192,86744,1,8,0:0:0:0:
256,192,86869,1,0,0:0:0:0:
256,192,87119,1,0,0:0:0:0:
256,192,87369,1,0,0:0:0:0:
256,192,87494,1,8,0:0:0:0:
256,192,87744,1,0,0:0:0:0:
256,192,87869,1,0,0:0:0:0:
256,192,87994,1,8,0:0:0:0:
256,192,88119,1,8,0:0:0:0:
256,192,88244,1,0,0:0:0:0:
256,192,88494,1,0,0:0:0:0:
256,192,88744,1,8,0:0:0:0:
256,192,88869,1,0,0:0:0:0:
256,192,89119,1,0,0:0:0:0:
256,192,89369,1,0,0:0:0:0:
256,192,89494,1,8,0:0:0:0:
256,192,89744,1,0,0:0:0:0:
256,192,89869,1,0,0:0:0:0:
256,192,89994,1,8,0:0:0:0:
256,192,90119,1,8,0:0:0:0:
256,192,90244,1,0,0:0:0:0:
256,192,90494,1,0,0:0:0:0:
256,192,90744,1,8,0:0:0:0:
256,192,90869,1,0,0:0:0:0:
256,192,91119,1,0,0:0:0:0:
256,192,91369,1,0,0:0:0:0:
256,192,91494,1,8,0:0:0:0:
256,192,91744,1,0,0:0:0:0:
256,192,91869,1,0,0:0:0:0:
256,192,91994,1,8,0:0:0:0:
256,192,92056,1,8,0:0:0:0:
256,192,92119,1,8,0:0:0:0:
256,192,92181,1,8,0:0:0:0:
256,192,92244,1,0,0:0:0:0:
256,192,92494,1,0,0:0:0:0:
256,192,92744,1,8,0:0:0:0:
256,192,92869,1,0,0:0:0:0:
256,192,93119,1,0,0:0:0:0:
256,192,93369,1,0,0:0:0:0:
256,192,93494,1,8,0:0:0:0:
256,192,93744,1,0,0:0:0:0:
256,192,93869,1,0,0:0:0:0:
256,192,93994,1,8,0:0:0:0:
256,192,94119,1,8,0:0:0:0:
256,192,94244,1,0,0:0:0:0:
256,192,94494,1,0,0:0:0:0:
256,192,94744,1,8,0:0:0:0:
256,192,94869,1,0,0:0:0:0:
256,192,95119,1,0,0:0:0:0:
256,192,95369,1,0,0:0:0:0:
256,192,95494,1,8,0:0:0:0:
256,192,95744,1,0,0:0:0:0:
256,192,95869,1,0,0:0:0:0:
256,192,95994,1,8,0:0:0:0:
256,192,96119,1,8,0:0:0:0:
256,192,96244,1,0,0:0:0:0:
256,192,96494,1,0,0:0:0:0:
256,192,96744,1,8,0:0:0:0:
256,192,96869,1,0,0:0:0:0:
256,192,97119,1,0,0:0:0:0:
256,192,97369,1,0,0:0:0:0:
256,192,97494,1,8,0:0:0:0:
256,192,97744,1,0,0:0:0:0:
256,192,97869,1,0,0:0:0:0:
256,192,97994,1,8,0:0:0:0:
256,192,98119,1,8,0:0:0:0:
256,192,98244,1,0,0:0:0:0:
256,192,98494,1,0,0:0:0:0:
256,192,98744,1,8,0:0:0:0:
256,192,98869,1,0,0:0:0:0:
256,192,99119,1,0,0:0:0:0:
256,192,99369,1,0,0:0:0:0:
256,192,99494,1,8,0:0:0:0:
256,192,99744,1,0,0:0:0:0:
256,192,99869,1,0,0:0:0:0:
256,192,99994,1,8,0:0:0:0:
256,192,100056,1,8,0:0:0:0:
256,192,100119,1,8,0:0:0:0:
256,192,100181,1,8,0:0:0:0:
256,192,100244,1,0,0:0:0:0:
256,192,100494,1,0,0:0:0:0:
256,192,100744,1,8,0:0:0:0:
256,192,100869,1,0,0:0:0:0:
256,192,101119,1,0,0:0:0:0:
256,192,101369,1,0,0:0:0:0:
256,192,101494,1,8,0:0:0:0:
256,192,101744,1,0,0:0:0:0:
256,192,101869,1,0,0:0:0:0:
256,192,101994,1,8,0:0:0:0:
256,192,102119,1,8,0:0:0:0:
256,192,102244,1,0,0:0:0:0:
256,192,102369,1,0,0:0:0:0:
256,192,102494,1,8,0:0:0:0:
256,192,102744,1,0,0:0:0:0:
256,192,103119,1,8,0:0:0:0:
256,192,103369,1,8,0:0:0:0:
256,192,103619,1,8,0:0:0:0:
256,192,103869,1,8,0:0:0:0:
256,192,103994,1,0,0:0:0:0:
256,192,104119,1,8,0:0:0:0:
256,192,104244,1,0,0:0:0:0:
256,192,104369,1,0,0:0:0:0:
256,192,104494,1,8,0:0:0:0:
256,192,104744,1,0,0:0:0:0:
256,192,105119,1,8,0:0:0:0:
256,192,105369,1,8,0:0:0:0:
256,192,105619,1,8,0:0:0:0:
256,192,105869,1,8,0:0:0:0:
256,192,105994,1,0,0:0:0:0:
256,192,106119,1,8,0:0:0:0:
256,192,106244,1,0,0:0:0:0:
256,192,106369,1,0,0:0:0:0:
256,192,106494,1,8,0:0:0:0:
256,192,106744,1,0,0:0:0:0:
256,192,107119,1,8,0:0:0:0:
256,192,107369,1,8,0:0:0:0:
256,192,107619,1,8,0:0:0:0:
256,192,107869,1,8,0:0:0:0:
256,192,107994,1,0,0:0:0:0:
256,192,108119,1,8,0:0:0:0:
256,192,108244,1,0,0:0:0:0:
256,192,108369,1,0,0:0:0:0:
256,192,108494,1,8,0:0:0:0:
256,192,108744,1,0,0:0:0:0:
256,192,109119,1,8,0:0:0:0:
256,192,109369,1,8,0:0:0:0:
256,192,109619,1,8,0:0:0:0:
256,192,109869,1,8,0:0:0:0:
256,192,109994,1,0,0:0:0:0:
256,192,110119,1,8,0:0:0:0:
256,192,110244,1,0,0:0:0:0:
256,192,110369,1,0,0:0:0:0:
256,192,110494,1,8,0:0:0:0:
256,192,110744,1,0,0:0:0:0:
256,192,111119,1,8,0:0:0:0:
256,192,111369,1,8,0:0:0:0:
256,192,111619,1,8,0:0:0:0:
256,192,111869,1,8,0:0:0:0:
256,192,111994,1,0,0:0:0:0:
256,192,112119,1,8,0:0:0:0:
256,192,112244,1,0,0:0:0:0:
256,192,112369,1,0,0:0:0:0:
256,192,112494,1,8,0:0:0:0:
256,192,112744,1,0,0:0:0:0:
256,192,113119,1,8,0:0:0:0:
256,192,113369,1,8,0:0:0:0:
256,192,113619,1,8,0:0:0:0:
256,192,113869,1,8,0:0:0:0:
256,192,113994,1,0,0:0:0:0:
256,192,114119,1,8,0:0:0:0:
256,192,114244,1,4,0:0:0:0:
256,192,114369,1,4,0:0:0:0:
256,192,114494,1,12,0:0:0:0:
256,192,114744,1,12,0:0:0:0:
256,192,115119,1,12,0:0:0:0:
256,192,115369,1,12,0:0:0:0:
256,192,115619,1,12,0:0:0:0:
256,192,115869,1,8,0:0:0:0:
256,192,115994,1,0,0:0:0:0:
256,192,116119,1,8,0:0:0:0:
256,192,116244,1,0,0:0:0:0:
256,192,116306,1,0,0:0:0:0:
256,192,116369,1,0,0:0:0:0:
256,192,116494,1,8,0:0:0:0:
256,192,116619,1,0,0:0:0:0:
256,192,116744,1,8,0:0:0:0:
256,192,116806,1,8,0:0:0:0:
256,192,116869,1,0,0:0:0:0:
256,192,116931,1,0,0:0:0:0:
256,192,116994,1,0,0:0:0:0:
256,192,117119,1,8,0:0:0:0:
256,192,117244,1,0,0:0:0:0:
256,192,117369,1,0,0:0:0:0:
256,192,117431,1,0,0:0:0:0:
256,192,117494,1,8,0:0:0:0:
256,192,117619,1,8,0:0:0:0:
256,192,117744,1,0,0:0:0:0:
256,192,117806,1,0,0:0:0:0:
256,192,117869,1,8,0:0:0:0:
256,192,117931,1,0,0:0:0:0:
256,192,117994,1,8,0:0:0:0:
256,192,118119,1,8,0:0:0:0:
256,192,118244,1,4,0:0:0:0:
256,192,118369,1,0,0:0:0:0:
256,192,118431,1,0,0:0:0:0:
256,192,118494,1,8,0:0:0:0:
256,192,118619,1,0,0:0:0:0:
256,192,118744,1,0,0:0:0:0:
256,192,118869,1,0,0:0:0:0:
256,192,118931,1,0,0:0:0:0:
256,192,118994,1,8,0:0:0:0:
256,192,119119,1,0,0:0:0:0:
256,192,119244,1,8,0:0:0:0:
256,192,119306,1,8,0:0:0:0:
256,192,119369,1,0,0:0:0:0:
256,192,119431,1,0,0:0:0:0:
256,192,119494,1,0,0:0:0:0:
256,192,119619,1,8,0:0:0:0:
256,192,119681,1,8,0:0:0:0:
256,192,119744,1,0,0:0:0:0:
256,192,119806,1,0,0:0:0:0:
256,192,119869,1,8,0:0:0:0:
256,192,119994,1,8,0:0:0:0:
256,192,120056,1,0,0:0:0:0:
256,192,120119,1,8,0:0:0:0:
256,192,120181,1,8,0:0:0:0:
256,192,120244,1,0,0:0:0:0:
256,192,120369,1,0,0:0:0:0:
256,192,120494,1,0,0:0:0:0:
256,192,120556,1,0,0:0:0:0:
256,192,120619,1,8,0:0:0:0:
256,192,120744,1,0,0:0:0:0:
256,192,120869,1,0,0:0:0:0:
256,192,120994,1,0,0:0:0:0:
256,192,121056,1,0,0:0:0:0:
256,192,121119,1,8,0:0:0:0:
256,192,121244,1,0,0:0:0:0:
256,192,121369,1,8,0:0:0:0:
256,192,121431,1,8,0:0:0:0:
256,192,121494,1,0,0:0:0:0:
256,192,121619,1,8,0:0:0:0:
256,192,121681,1,0,0:0:0:0:
256,192,121744,1,0,0:0:0:0:
256,192,121869,1,0,0:0:0:0:
256,192,121994,1,8,0:0:0:0:
256,192,122056,1,8,0:0:0:0:
256,192,122119,1,8,0:0:0:0:
256,192,122181,1,8,0:0:0:0:
256,192,122244,1,0,0:0:0:0:
256,192,122369,1,0,0:0:0:0:
256,192,122494,1,0,0:0:0:0:
256,192,122556,1,0,0:0:0:0:
256,192,122619,1,8,0:0:0:0:
256,192,122744,1,0,0:0:0:0:
256,192,122869,1,8,0:0:0:0:
256,192,122994,1,8,0:0:0:0:
256,192,123119,1,0,0:0:0:0:
256,192,123244,1,0,0:0:0:0:
256,192,123369,1,8,0:0:0:0:
256,192,123494,1,8,0:0:0:0:
256,192,123619,1,0,0:0:0:0:
256,192,123744,1,0,0:0:0:0:
256,192,123869,1,8,0:0:0:0:
256,192,123994,1,8,0:0:0:0:
256,192,124119,1,0,0:0:0:0:
256,192,124244,1,8,0:0:0:0:
256,192,124306,1,0,0:0:0:0:
256,192,124369,1,8,0:0:0:0:
256,192,124431,1,8,0:0:0:0:
256,192,124494,1,0,0:0:0:0:
256,192,124556,1,0,0:0:0:0:
256,192,124619,1,0,0:0:0:0:
256,192,124681,1,0,0:0:0:0:
256,192,124744,1,8,0:0:0:0:
256,192,124869,1,0,0:0:0:0:
256,192,124994,1,0,0:0:0:0:
256,192,125119,1,8,0:0:0:0:
256,192,125244,1,8,0:0:0:0:
256,192,125306,1,8,0:0:0:0:
256,192,125369,1,0,0:0:0:0:
256,192,125494,1,0,0:0:0:0:
256,192,125619,1,8,0:0:0:0:
256,192,125681,1,0,0:0:0:0:
256,192,125744,1,8,0:0:0:0:
256,192,125806,1,8,0:0:0:0:
256,192,125869,1,0,0:0:0:0:
256,192,125994,1,8,0:0:0:0:
256,192,126119,1,0,0:0:0:0:
256,192,126244,1,0,0:0:0:0:
256,192,126306,1,0,0:0:0:0:
256,192,126369,1,0,0:0:0:0:
256,192,126431,1,8,0:0:0:0:
256,192,126494,1,8,0:0:0:0:
256,192,126556,1,8,0:0:0:0:
256,192,126619,1,0,0:0:0:0:
256,192,126681,1,0,0:0:0:0:
256,192,126744,1,8,0:0:0:0:
256,192,126806,1,0,0:0:0:0:
256,192,126869,1,8,0:0:0:0:
256,192,126931,1,8,0:0:0:0:
256,192,126994,1,0,0:0:0:0:
256,192,127056,1,0,0:0:0:0:
256,192,127119,1,0,0:0:0:0:
256,192,127181,1,8,0:0:0:0:
256,192,127244,1,8,0:0:0:0:
256,192,127306,1,0,0:0:0:0:
256,192,127369,1,0,0:0:0:0:
256,192,127431,1,8,0:0:0:0:
256,192,127494,1,0,0:0:0:0:
256,192,127556,1,0,0:0:0:0:
256,192,127619,1,8,0:0:0:0:
256,192,127681,1,8,0:0:0:0:
256,192,127744,1,0,0:0:0:0:
256,192,127806,1,0,0:0:0:0:
256,192,127869,1,0,0:0:0:0:
256,192,127931,1,8,0:0:0:0:
256,192,127994,1,0,0:0:0:0:
256,192,128056,1,8,0:0:0:0:
256,192,128119,1,8,0:0:0:0:
256,192,128181,1,8,0:0:0:0:
256,192,128244,1,0,0:0:0:0:
256,192,128494,1,8,0:0:0:0:
256,192,128744,1,0,0:0:0:0:
256,192,128869,1,0,0:0:0:0:
256,192,128994,1,8,0:0:0:0:
256,192,129119,1,0,0:0:0:0:
256,192,129244,1,8,0:0:0:0:
256,192,129494,1,8,0:0:0:0:
256,192,129619,1,0,0:0:0:0:
256,192,129869,1,0,0:0:0:0:
256,192,129994,1,8,0:0:0:0:
256,192,130119,1,0,0:0:0:0:
256,192,130181,1,0,0:0:0:0:
256,192,130244,1,0,0:0:0:0:
256,192,130369,1,8,0:0:0:0:
256,192,130494,1,0,0:0:0:0:
256,192,130619,1,0,0:0:0:0:
256,192,130744,1,8,0:0:0:0:
256,192,130869,1,0,0:0:0:0:
256,192,130994,1,0,0:0:0:0:
256,192,131119,1,8,0:0:0:0:
256,192,131244,1,0,0:0:0:0:
256,192,131369,1,0,0:0:0:0:
256,192,131494,1,8,0:0:0:0:
256,192,131619,1,0,0:0:0:0:
256,192,131744,1,0,0:0:0:0:
256,192,131869,1,8,0:0:0:0:
256,192,131994,1,0,0:0:0:0:
256,192,132119,1,0,0:0:0:0:
256,192,132244,1,8,0:0:0:0:
256,192,132306,1,8,0:0:0:0:
256,192,132369,1,0,0:0:0:0:
256,192,132431,1,0,0:0:0:0:
256,192,132494,1,0,0:0:0:0:
256,192,132556,1,0,0:0:0:0:
256,192,132619,1,0,0:0:0:0:
256,192,132681,1,0,0:0:0:0:
256,192,132744,1,8,0:0:0:0:
256,192,132869,1,0,0:0:0:0:
256,192,132994,1,0,0:0:0:0:
256,192,133119,1,0,0:0:0:0:
256,192,133244,1,8,0:0:0:0:
256,192,133369,1,0,0:0:0:0:
256,192,133431,1,0,0:0:0:0:
256,192,133494,1,0,0:0:0:0:
256,192,133619,1,0,0:0:0:0:
256,192,133744,1,8,0:0:0:0:
256,192,133806,1,0,0:0:0:0:
256,192,133869,1,0,0:0:0:0:
256,192,133994,1,8,0:0:0:0:
256,192,134119,1,0,0:0:0:0:
256,192,134244,1,0,0:0:0:0:
256,192,134306,1,0,0:0:0:0:
256,192,134369,1,0,0:0:0:0:
256,192,134431,1,0,0:0:0:0:
256,192,134494,1,8,0:0:0:0:
256,192,134556,1,8,0:0:0:0:
256,192,134619,1,0,0:0:0:0:
256,192,134681,1,0,0:0:0:0:
256,192,134744,1,8,0:0:0:0:
256,192,134806,1,0,0:0:0:0:
256,192,134869,1,0,0:0:0:0:
256,192,134931,1,0,0:0:0:0:
256,192,134994,1,8,0:0:0:0:
256,192,135056,1,8,0:0:0:0:
256,192,135119,1,0,0:0:0:0:
256,192,135181,1,8,0:0:0:0:
256,192,135244,1,0,0:0:0:0:
256,192,135306,1,8,0:0:0:0:
256,192,135369,1,8,0:0:0:0:
256,192,135431,1,8,0:0:0:0:
256,192,135494,1,0,0:0:0:0:
256,192,135556,1,0,0:0:0:0:
256,192,135619,1,0,0:0:0:0:
256,192,135681,1,0,0:0:0:0:
256,192,135744,1,8,0:0:0:0:
256,192,135806,1,0,0:0:0:0:
256,192,135869,1,8,0:0:0:0:
256,192,135931,1,8,0:0:0:0:
256,192,135994,1,0,0:0:0:0:
256,192,136056,1,0,0:0:0:0:
256,192,136119,1,8,0:0:0:0:
256,192,136181,1,0,0:0:0:0:
256,192,136244,1,8,0:0:0:0:
256,192,136306,1,0,0:0:0:0:
256,192,136369,1,8,0:0:0:0:
256,192,136431,1,8,0:0:0:0:
256,192,136494,1,0,0:0:0:0:
256,192,136556,1,0,0:0:0:0:
256,192,136619,1,0,0:0:0:0:
256,192,136681,1,0,0:0:0:0:
256,192,136744,1,8,0:0:0:0:
256,192,136806,1,0,0:0:0:0:
256,192,136869,1,8,0:0:0:0:
256,192,136931,1,8,0:0:0:0:
256,192,136994,1,0,0:0:0:0:
256,192,137056,1,0,0:0:0:0:
256,192,137119,1,8,0:0:0:0:
256,192,137181,1,0,0:0:0:0:
256,192,137244,1,8,0:0:0:0:
256,192,137306,1,8,0:0:0:0:
256,192,137369,1,8,0:0:0:0:
256,192,137431,1,8,0:0:0:0:
256,192,137494,1,0,0:0:0:0:
256,192,137556,1,0,0:0:0:0:
256,192,137619,1,0,0:0:0:0:
256,192,137681,1,0,0:0:0:0:
256,192,137744,1,0,0:0:0:0:
256,192,137806,1,0,0:0:0:0:
256,192,137869,1,8,0:0:0:0:
256,192,137931,1,8,0:0:0:0:
256,192,137994,1,8,0:0:0:0:
256,192,138056,1,0,0:0:0:0:
256,192,138119,1,8,0:0:0:0:
256,192,138181,1,0,0:0:0:0:
256,192,138244,1,8,0:0:0:0:
256,192,138306,1,8,0:0:0:0:
256,192,138369,1,0,0:0:0:0:
256,192,138431,1,0,0:0:0:0:
256,192,138494,1,0,0:0:0:0:
256,192,138556,1,0,0:0:0:0:
256,192,138619,1,8,0:0:0:0:
256,192,138681,1,8,0:0:0:0:
256,192,138744,1,0,0:0:0:0:
256,192,138806,1,8,0:0:0:0:
256,192,138869,1,0,0:0:0:0:
256,192,138931,1,8,0:0:0:0:
256,192,138994,1,8,0:0:0:0:
256,192,139056,1,8,0:0:0:0:
256,192,139119,1,0,0:0:0:0:
256,192,139181,1,0,0:0:0:0:
256,192,139244,1,8,0:0:0:0:
256,192,139306,1,8,0:0:0:0:
256,192,139369,1,0,0:0:0:0:
256,192,139431,1,0,0:0:0:0:
256,192,139494,1,0,0:0:0:0:
256,192,139556,1,0,0:0:0:0:
256,192,139619,1,0,0:0:0:0:
256,192,139681,1,0,0:0:0:0:
256,192,139744,1,0,0:0:0:0:
256,192,139806,1,0,0:0:0:0:
256,192,139869,1,8,0:0:0:0:
256,192,139931,1,8,0:0:0:0:
256,192,139994,1,0,0:0:0:0:
256,192,140056,1,8,0:0:0:0:
256,192,140119,1,8,0:0:0:0:
256,192,140181,1,8,0:0:0:0:
256,192,140244,1,0,0:0:0:0:
256,192,140306,1,8,0:0:0:0:
256,192,140369,1,0,0:0:0:0:
256,192,140431,1,8,0:0:0:0:
256,192,140494,1,0,0:0:0:0:
256,192,140556,1,8,0:0:0:0:
256,192,140619,1,0,0:0:0:0:
256,192,140681,1,0,0:0:0:0:
256,192,140744,1,8,0:0:0:0:
256,192,140806,1,8,0:0:0:0:
256,192,140869,1,8,0:0:0:0:
256,192,140931,1,0,0:0:0:0:
256,192,140994,1,0,0:0:0:0:
256,192,141056,1,0,0:0:0:0:
256,192,141119,1,0,0:0:0:0:
256,192,141181,1,0,0:0:0:0:
256,192,141244,1,8,0:0:0:0:
256,192,141369,1,0,0:0:0:0:
256,192,141431,1,0,0:0:0:0:
256,192,141494,1,0,0:0:0:0:
256,192,141619,1,8,0:0:0:0:
256,192,141744,1,0,0:0:0:0:
256,192,141806,1,0,0:0:0:0:
256,192,141869,1,0,0:0:0:0:
256,192,141994,1,8,0:0:0:0:
256,192,142056,1,0,0:0:0:0:
256,192,142119,1,0,0:0:0:0:
256,192,142181,1,8,0:0:0:0:
256,192,142244,1,8,0:0:0:0:
256,192,142306,1,8,0:0:0:0:
256,192,142369,1,0,0:0:0:0:
256,192,142494,1,8,0:0:0:0:
256,192,142619,1,0,0:0:0:0:
256,192,142744,1,0,0:0:0:0:
256,192,142869,1,0,0:0:0:0:
256,192,142994,1,8,0:0:0:0:
256,192,143119,1,0,0:0:0:0:
256,192,143244,1,0,0:0:0:0:
256,192,143369,1,0,0:0:0:0:
256,192,143494,1,8,0:0:0:0:
256,192,143619,1,0,0:0:0:0:
256,192,143744,1,0,0:0:0:0:
256,192,143869,1,0,0:0:0:0:
256,192,143994,1,8,0:0:0:0:
256,192,144056,1,8,0:0:0:0:
256,192,144119,1,0,0:0:0:0:
256,192,144181,1,0,0:0:0:0:
256,192,144244,1,8,0:0:0:0:
256,192,144369,1,0,0:0:0:0:
256,192,144494,1,8,0:0:0:0:
256,192,144619,1,0,0:0:0:0:
256,192,144744,1,0,0:0:0:0:
256,192,144869,1,0,0:0:0:0:
256,192,144994,1,8,0:0:0:0:
256,192,145119,1,0,0:0:0:0:
256,192,145244,1,12,0:0:0:0:
256,192,145369,1,0,0:0:0:0:
256,192,145494,1,0,0:0:0:0:
256,192,145619,1,12,0:0:0:0:
256,192,145744,1,0,0:0:0:0:
256,192,145869,1,0,0:0:0:0:
256,192,145994,1,12,0:0:0:0:
256,192,146119,1,0,0:0:0:0:
256,192,146244,1,0,0:0:0:0:
256,192,146369,1,0,0:0:0:0:
256,192,146430,1,0,0:0:0:0:
256,192,146494,1,8,0:0:0:0:
256,192,146618,1,0,0:0:0:0:
256,192,146744,1,8,0:0:0:0:
256,192,146805,1,8,0:0:0:0:
256,192,146868,1,8,0:0:0:0:
256,192,146930,1,0,0:0:0:0:
256,192,146993,1,0,0:0:0:0:
256,192,147118,1,0,0:0:0:0:
256,192,147180,1,0,0:0:0:0:
256,192,147243,1,8,0:0:0:0:
256,192,147368,1,0,0:0:0:0:
256,192,147430,1,0,0:0:0:0:
256,192,147493,1,8,0:0:0:0:
256,192,147618,1,0,0:0:0:0:
256,192,147743,1,8,0:0:0:0:
256,192,147868,1,8,0:0:0:0:
256,192,147930,1,0,0:0:0:0:
256,192,147993,1,8,0:0:0:0:
256,192,148055,1,0,0:0:0:0:
256,192,148118,1,8,0:0:0:0:
256,192,148243,1,12,0:0:0:0:
256,192,148368,1,0,0:0:0:0:
256,192,148430,1,0,0:0:0:0:
256,192,148493,1,8,0:0:0:0:
256,192,148618,1,0,0:0:0:0:
256,192,148744,1,8,0:0:0:0:
256,192,148805,1,8,0:0:0:0:
256,192,148868,1,8,0:0:0:0:
256,192,148930,1,0,0:0:0:0:
256,192,148993,1,0,0:0:0:0:
256,192,149118,1,0,0:0:0:0:
256,192,149180,1,0,0:0:0:0:
256,192,149243,1,8,0:0:0:0:
256,192,149368,1,0,0:0:0:0:
256,192,149430,1,0,0:0:0:0:
256,192,149493,1,8,0:0:0:0:
256,192,149618,1,0,0:0:0:0:
256,192,149743,1,8,0:0:0:0:
256,192,149868,1,8,0:0:0:0:
256,192,149930,1,0,0:0:0:0:
256,192,149993,1,8,0:0:0:0:
256,192,150055,1,0,0:0:0:0:
256,192,150118,1,8,0:0:0:0:
256,192,150244,1,0,0:0:0:0:
256,192,152244,1,8,0:0:0:0:
256,192,154244,1,8,0:0:0:0:
256,192,154306,1,8,0:0:0:0:
256,192,154369,1,0,0:0:0:0:
256,192,154431,1,0,0:0:0:0:
256,192,154494,1,8,0:0:0:0:
256,192,154556,1,8,0:0:0:0:
256,192,154619,1,0,0:0:0:0:
256,192,154681,1,0,0:0:0:0:
256,192,154744,1,8,0:0:0:0:
256,192,154806,1,0,0:0:0:0:
256,192,154869,1,0,0:0:0:0:
256,192,154931,1,0,0:0:0:0:
256,192,154994,1,0,0:0:0:0:
256,192,155056,1,0,0:0:0:0:
256,192,155119,1,8,0:0:0:0:
256,192,155181,1,0,0:0:0:0:
256,192,155244,1,0,0:0:0:0:
256,192,155306,1,0,0:0:0:0:
256,192,155369,1,8,0:0:0:0:
256,192,155431,1,8,0:0:0:0:
256,192,155494,1,0,0:0:0:0:
256,192,155556,1,0,0:0:0:0:
256,192,155619,1,8,0:0:0:0:
256,192,155681,1,8,0:0:0:0:
256,192,155744,1,0,0:0:0:0:
256,192,155806,1,0,0:0:0:0:
256,192,155869,1,8,0:0:0:0:
256,192,155931,1,0,0:0:0:0:
256,192,155994,1,8,0:0:0:0:
256,192,156056,1,8,0:0:0:0:
256,192,156119,1,0,0:0:0:0:
256,192,156181,1,0,0:0:0:0:
256,192,156244,1,8,0:0:0:0:
256,192,156306,1,8,0:0:0:0:
256,192,156369,1,0,0:0:0:0:
256,192,156431,1,0,0:0:0:0:
256,192,156494,1,8,0:0:0:0:
256,192,156556,1,8,0:0:0:0:
256,192,156619,1,0,0:0:0:0:
256,192,156681,1,0,0:0:0:0:
256,192,156744,1,8,0:0:0:0:
256,192,156806,1,0,0:0:0:0:
256,192,156869,1,0,0:0:0:0:
256,192,156931,1,0,0:0:0:0:
256,192,156994,1,0,0:0:0:0:
256,192,157056,1,0,0:0:0:0:
256,192,157119,1,8,0:0:0:0:
256,192,157181,1,0,0:0:0:0:
256,192,157244,1,0,0:0:0:0:
256,192,157306,1,0,0:0:0:0:
256,192,157369,1,8,0:0:0:0:
256,192,157431,1,8,0:0:0:0:
256,192,157494,1,0,0:0:0:0:
256,192,157556,1,0,0:0:0:0:
256,192,157618,1,8,0:0:0:0:
256,192,157681,1,8,0:0:0:0:
256,192,157744,1,0,0:0:0:0:
256,192,157806,1,0,0:0:0:0:
256,192,157868,1,8,0:0:0:0:
256,192,157931,1,0,0:0:0:0:
256,192,157994,1,8,0:0:0:0:
256,192,158056,1,0,0:0:0:0:
256,192,158119,1,8,0:0:0:0:
256,192,158181,1,0,0:0:0:0:
256,192,158244,1,8,0:0:0:0:
256,192,158369,1,0,0:0:0:0:
256,192,158430,1,0,0:0:0:0:
256,192,158494,1,8,0:0:0:0:
256,192,158618,1,0,0:0:0:0:
256,192,158744,1,8,0:0:0:0:
256,192,158805,1,8,0:0:0:0:
256,192,158868,1,8,0:0:0:0:
256,192,158930,1,0,0:0:0:0:
256,192,158993,1,0,0:0:0:0:
256,192,159118,1,0,0:0:0:0:
256,192,159180,1,0,0:0:0:0:
256,192,159243,1,8,0:0:0:0:
256,192,159368,1,0,0:0:0:0:
256,192,159430,1,0,0:0:0:0:
256,192,159493,1,8,0:0:0:0:
256,192,159618,1,0,0:0:0:0:
256,192,159743,1,8,0:0:0:0:
256,192,159868,1,8,0:0:0:0:
256,192,159930,1,0,0:0:0:0:
256,192,159993,1,8,0:0:0:0:
256,192,160055,1,0,0:0:0:0:
256,192,160118,1,8,0:0:0:0:
256,192,160243,1,4,0:0:0:0:
256,192,160368,1,0,0:0:0:0:
256,192,160430,1,0,0:0:0:0:
256,192,160493,1,8,0:0:0:0:
256,192,160618,1,0,0:0:0:0:
256,192,160744,1,8,0:0:0:0:
256,192,160805,1,8,0:0:0:0:
256,192,160868,1,8,0:0:0:0:
256,192,160930,1,0,0:0:0:0:
256,192,160993,1,0,0:0:0:0:
256,192,161118,1,0,0:0:0:0:
256,192,161180,1,0,0:0:0:0:
256,192,161243,1,8,0:0:0:0:
256,192,161368,1,0,0:0:0:0:
256,192,161430,1,0,0:0:0:0:
256,192,161493,1,8,0:0:0:0:
256,192,161618,1,0,0:0:0:0:
256,192,161743,1,8,0:0:0:0:
256,192,161868,1,8,0:0:0:0:
256,192,161930,1,0,0:0:0:0:
256,192,161993,1,8,0:0:0:0:
256,192,162055,1,0,0:0:0:0:
256,192,162118,1,8,0:0:0:0:
256,192,162243,1,4,0:0:0:0:
256,192,162368,1,0,0:0:0:0:
256,192,162430,1,0,0:0:0:0:
256,192,162493,1,8,0:0:0:0:
256,192,162618,1,0,0:0:0:0:
256,192,162744,1,8,0:0:0:0:
256,192,162805,1,8,0:0:0:0:
256,192,162868,1,8,0:0:0:0:
256,192,162930,1,0,0:0:0:0:
256,192,162993,1,0,0:0:0:0:
256,192,163118,1,0,0:0:0:0:
256,192,163180,1,0,0:0:0:0:
256,192,163243,1,8,0:0:0:0:
256,192,163368,1,0,0:0:0:0:
256,192,163430,1,0,0:0:0:0:
256,192,163493,1,8,0:0:0:0:
256,192,163618,1,0,0:0:0:0:
256,192,163743,1,8,0:0:0:0:
256,192,163868,1,8,0:0:0:0:
256,192,163930,1,0,0:0:0:0:
256,192,163993,1,8,0:0:0:0:
256,192,164055,1,0,0:0:0:0:
256,192,164118,1,8,0:0:0:0:
256,192,164243,1,4,0:0:0:0:
256,192,164368,1,0,0:0:0:0:
256,192,164430,1,0,0:0:0:0:
256,192,164493,1,8,0:0:0:0:
256,192,164618,1,0,0:0:0:0:
256,192,164744,1,8,0:0:0:0:
256,192,164805,1,8,0:0:0:0:
256,192,164868,1,8,0:0:0:0:
256,192,164930,1,0,0:0:0:0:
256,192,164993,1,0,0:0:0:0:
256,192,165118,1,0,0:0:0:0:
256,192,165243,1,6,0:0:0:0:
256,192,165368,1,0,0:0:0:0:
256,192,165494,1,0,0:0:0:0:
256,192,165619,1,6,0:0:0:0:
256,192,165743,1,0,0:0:0:0:
256,192,165869,1,0,0:0:0:0:
256,192,165932,1,0,0:0:0:0:
256,192,165995,1,8,0:0:0:0:
256,192,166057,1,0,0:0:0:0:
256,192,166120,1,8,0:0:0:0:
256,192,166245,1,4,0:0:0:0:
256,192,166370,1,0,0:0:0:0:
256,192,166432,1,0,0:0:0:0:
256,192,166495,1,8,0:0:0:0:
256,192,166620,1,0,0:0:0:0:
256,192,166745,1,8,0:0:0:0:
256,192,166806,1,8,0:0:0:0:
256,192,166869,1,8,0:0:0:0:
256,192,166931,1,0,0:0:0:0:
256,192,166994,1,0,0:0:0:0:
256,192,167119,1,0,0:0:0:0:
256,192,167181,1,0,0:0:0:0:
256,192,167244,1,8,0:0:0:0:
256,192,167369,1,0,0:0:0:0:
256,192,167431,1,0,0:0:0:0:
256,192,167494,1,8,0:0:0:0:
256,192,167619,1,0,0:0:0:0:
256,192,167744,1,8,0:0:0:0:
256,192,167869,1,8,0:0:0:0:
256,192,167931,1,0,0:0:0:0:
256,192,167994,1,8,0:0:0:0:
256,192,168056,1,0,0:0:0:0:
256,192,168119,1,8,0:0:0:0:
256,192,168244,1,4,0:0:0:0:
256,192,168369,1,0,0:0:0:0:
256,192,168431,1,0,0:0:0:0:
256,192,168494,1,8,0:0:0:0:
256,192,168619,1,0,0:0:0:0:
256,192,168745,1,8,0:0:0:0:
256,192,168806,1,8,0:0:0:0:
256,192,168869,1,8,0:0:0:0:
256,192,168931,1,0,0:0:0:0:
256,192,168994,1,0,0:0:0:0:
256,192,169119,1,0,0:0:0:0:
256,192,169181,1,0,0:0:0:0:
256,192,169244,1,8,0:0:0:0:
256,192,169369,1,0,0:0:0:0:
256,192,169431,1,0,0:0:0:0:
256,192,169494,1,8,0:0:0:0:
256,192,169619,1,0,0:0:0:0:
256,192,169744,1,8,0:0:0:0:
256,192,169869,1,8,0:0:0:0:
256,192,169931,1,0,0:0:0:0:
256,192,169994,1,8,0:0:0:0:
256,192,170056,1,0,0:0:0:0:
256,192,170119,1,8,0:0:0:0:
256,192,170244,1,4,0:0:0:0:
256,192,170369,1,0,0:0:0:0:
256,192,170431,1,0,0:0:0:0:
256,192,170494,1,8,0:0:0:0:
256,192,170619,1,0,0:0:0:0:
256,192,170745,1,8,0:0:0:0:
256,192,170806,1,8,0:0:0:0:
256,192,170869,1,8,0:0:0:0:
256,192,170931,1,0,0:0:0:0:
256,192,170994,1,0,0:0:0:0:
256,192,171119,1,0,0:0:0:0:
256,192,171181,1,0,0:0:0:0:
256,192,171244,1,8,0:0:0:0:
256,192,171369,1,0,0:0:0:0:
256,192,171431,1,0,0:0:0:0:
256,192,171494,1,8,0:0:0:0:
256,192,171619,1,0,0:0:0:0:
256,192,171744,1,8,0:0:0:0:
256,192,171869,1,8,0:0:0:0:
256,192,171931,1,0,0:0:0:0:
256,192,171994,1,8,0:0:0:0:
256,192,172056,1,0,0:0:0:0:
256,192,172119,1,8,0:0:0:0:
256,192,172244,1,4,0:0:0:0:
256,192,172369,1,0,0:0:0:0:
256,192,172431,1,0,0:0:0:0:
256,192,172494,1,8,0:0:0:0:
256,192,172619,1,0,0:0:0:0:
256,192,172745,1,8,0:0:0:0:
256,192,172806,1,8,0:0:0:0:
256,192,172869,1,8,0:0:0:0:
256,192,172931,1,0,0:0:0:0:
256,192,172994,1,0,0:0:0:0:
256,192,173120,1,0,0:0:0:0:
256,192,173245,1,6,0:0:0:0:
256,192,173370,1,0,0:0:0:0:
256,192,173494,1,0,0:0:0:0:
256,192,173619,1,6,0:0:0:0:
256,192,173745,1,0,0:0:0:0:
256,192,173869,1,12,0:0:0:0:
256,192,173995,1,12,0:0:0:0:
256,192,174119,1,12,0:0:0:0:
