osu file format v14

[General]
AudioFilename: Megalovania - Metal Cover.mp3
AudioLeadIn: 0
PreviewTime: 21801
Countdown: 0
SampleSet: Normal
StackLeniency: 0.7
Mode: 0
LetterboxInBreaks: 0
WidescreenStoryboard: 1

[Editor]
Bookmarks: 22036,38036,174036
DistanceSpacing: 2
BeatDivisor: 4
GridSize: 4
TimelineZoom: 2.999999

[Metadata]
Title:Megalovania - Metal Cover
TitleUnicode:Megalovania - Metal Cover
Artist:RichaadEB feat. Thunderscott
ArtistUnicode:RichaadEB feat. Thunderscott
Creator:Saten
Version:Genocide
Source:UNDERTALE
Tags:Saten-san Sans toby fox Ace Waters
BeatmapID:912636
BeatmapSetID:422050

[Difficulty]
HPDrainRate:3
CircleSize:4
OverallDifficulty:9
ApproachRate:9.5
SliderMultiplier:2
SliderTickRate:2

[Events]
//Background and Video events
0,0,"underfell_sans.jpg",0,0
//Break Periods
//Storyboard Layer 0 (Background)
//Storyboard Layer 1 (Fail)
//Storyboard Layer 2 (Pass)
//Storyboard Layer 3 (Foreground)
//Storyboard Sound Samples

[TimingPoints]
6051,250,4,2,1,50,1,0
6051,-125,4,2,1,50,0,0
14051,-111.111111111111,4,2,1,60,0,0
21801,-111.111111111111,4,2,1,60,0,0
22051,-100,4,1,1,60,0,0
46051,-100,4,1,1,60,0,1
86051,-100,4,1,1,60,0,0
118051,-100,4,1,1,60,0,1
150051,-100,4,1,1,60,0,0

[HitObjects]
232,288,6051,5,0,0:0:0:0:
304,144,6176,1,0,0:0:0:0:
416,356,6301,1,2,0:0:0:0:
52,288,6551,1,2,0:0:0:0:
480,68,6926,2,0,P|495:104|491:144,1,80,2|0,0:0|0:0,0:0:0:0:
208,168,7176,2,0,P|204:128|219:91,1,80,2|0,0:0|0:0,0:0:0:0:
316,320,7426,2,0,P|252:368|176:356,1,160,2|2,0:0|0:0,0:0:0:0:
116,208,7801,1,0,0:0:0:0:
304,144,7926,1,2,0:0:0:0:
248,296,8051,6,0,L|224:372,1,80
96,276,8301,1,2,0:0:0:0:
404,364,8551,1,2,0:0:0:0:
48,44,8926,1,2,0:0:0:0:
452,192,9176,1,2,0:0:0:0:
163,327,9426,2,0,P|115:267|132:192,1,160,2|2,0:0|0:0,0:0:0:0:
256,88,9801,1,0,0:0:0:0:
256,304,9926,1,2,0:0:0:0:
159,107,10051,6,0,P|155:68|174:34,1,80
344,168,10301,2,0,L|344:332,1,160,2|2,0:0|0:0,0:0:0:0:
24,56,10926,2,0,L|76:120,1,80,2|0,0:0|0:0,0:0:0:0:
256,192,11176,2,0,L|204:128,1,80,2|0,0:0|0:0,0:0:0:0:
172,288,11426,2,0,P|235:331|311:312,1,160,2|2,0:0|0:0,0:0:0:0:
348,156,11801,1,0,0:0:0:0:
180,208,11926,1,2,0:0:0:0:
380,252,12051,6,0,P|420:236|444:208,1,80
364,68,12301,1,2,0:0:0:0:
476,368,12551,1,2,0:0:0:0:
32,192,12926,1,2,0:0:0:0:
304,24,13176,1,2,0:0:0:0:
256,340,13426,2,0,P|184:304|168:232,1,160,2|2,0:0|0:0,0:0:0:0:
304,148,13801,1,0,0:0:0:0:
332,304,13926,1,2,0:0:0:0:
224,160,14051,6,0,P|221:115|243:76,1,89.9999972534181,2|0,0:0|0:0,0:0:0:0:
416,136,14301,2,0,P|418:180|396:219,1,89.9999972534181,2|0,0:0|0:0,0:0:0:0:
220,256,14551,1,2,0:0:0:0:
328,112,14676,1,0,0:0:0:0:
396,280,14801,1,0,0:0:0:0:
256,168,14926,6,0,L|208:88,1,89.9999972534181,2|0,0:0|0:0,0:0:0:0:
124,252,15176,2,0,L|170:329,1,89.9999972534181,2|0,0:0|0:0,0:0:0:0:
296,204,15426,2,0,L|203:49,1,179.999994506836,2|2,0:0|0:0,0:0:0:0:
56,152,15801,1,2,0:0:0:0:
212,240,15926,1,0,0:0:0:0:
256,64,16051,6,0,L|180:16,1,89.9999972534181,2|0,0:0|0:0,0:0:0:0:
296,204,16301,2,0,L|372:252,1,89.9999972534181,2|0,0:0|0:0,0:0:0:0:
496,116,16551,1,2,0:0:0:0:
296,292,16676,1,0,0:0:0:0:
472,260,16801,1,0,0:0:0:0:
368,112,16926,6,0,L|284:80,1,89.9999972534181,2|0,0:0|0:0,0:0:0:0:
144,272,17176,2,0,L|228:304,1,89.9999972534181,2|0,0:0|0:0,0:0:0:0:
345,176,17426,2,0,L|168:207,1,179.999994506836,2|2,0:0|0:0,0:0:0:0:
256,368,17801,1,2,0:0:0:0:
412,280,17926,1,0,0:0:0:0:
256,192,18051,6,0,L|176:152,1,89.9999972534181,2|0,0:0|0:0,0:0:0:0:
344,88,18301,2,0,L|424:128,1,89.9999972534181,2|0,0:0|0:0,0:0:0:0:
336,284,18551,1,2,0:0:0:0:
272,116,18676,1,0,0:0:0:0:
432,200,18801,1,0,0:0:0:0:
263,260,18926,6,0,P|220:271|176:264,1,89.9999972534181,2|0,0:0|0:0,0:0:0:0:
92,104,19176,2,0,P|136:96|179:108,1,89.9999972534181,2|0,0:0|0:0,0:0:0:0:
116,336,19426,2,0,P|79:257|125:184,1,179.999994506836,2|2,0:0|0:0,0:0:0:0:
336,192,19801,1,2,0:0:0:0:
168,260,19926,1,0,0:0:0:0:
255,104,20051,6,0,P|292:78|336:76,1,89.9999972534181,2|0,0:0|0:0,0:0:0:0:
396,244,20301,2,0,P|359:269|315:271,1,89.9999972534181,2|0,0:0|0:0,0:0:0:0:
172,160,20551,1,2,0:0:0:0:
340,224,20676,1,0,0:0:0:0:
166,182,20801,1,0,0:0:0:0:
346,202,20926,6,0,L|435:214,1,89.9999972534181,2|0,0:0|0:0,0:0:0:0:
166,182,21176,2,0,L|76:169,1,89.9999972534181,2|0,0:0|0:0,0:0:0:0:
243,281,21426,2,0,L|268:102,1,179.999994506836,2|2,0:0|0:0,0:0:0:0:
496,192,21801,1,8,2:1:0:0:
496,192,22051,6,0,L|396:192,1,100,4|0,0:0|0:0,0:0:0:0:
208,256,22301,2,0,L|308:256,1,100,8|0,0:0|0:0,0:0:0:0:
420,92,22551,1,0,0:0:0:0:
236,168,22676,1,0,0:0:0:0:
396,292,22801,1,8,0:0:0:0:
455,99,22926,6,0,P|417:68|368:63,1,100
244,220,23176,2,0,P|282:251|331:256,1,100,0|8,0:0|0:0,0:0:0:0:
244,76,23426,2,0,P|194:80|156:112,1,100
224,300,23676,1,0,0:0:0:0:
320,124,23801,1,8,0:0:0:0:
140,212,23926,1,0,0:0:0:0:
336,252,24051,6,0,L|428:208,1,100,4|0,0:0|0:0,0:0:0:0:
256,104,24301,2,0,L|164:148,1,100,8|0,0:0|0:0,0:0:0:0:
256,324,24551,1,0,0:0:0:0:
344,144,24676,1,0,0:0:0:0:
168,236,24801,1,8,0:0:0:0:
364,284,24926,6,0,P|412:278|443:240,1,100
272,136,25176,2,0,P|241:174|246:223,1,100,0|8,0:0|0:0,0:0:0:0:
432,144,25426,2,0,P|426:95|388:64,1,100
212,164,25676,1,0,0:0:0:0:
384,264,25801,1,8,0:0:0:0:
212,364,25926,5,0,0:0:0:0:
212,364,25988,1,0,0:0:0:0:
212,364,26051,2,0,P|164:360|128:324,1,100,4|0,0:0|0:0,0:0:0:0:
280,192,26301,2,0,P|311:228|311:279,1,100,8|0,0:0|0:0,0:0:0:0:
116,224,26551,1,0,0:0:0:0:
256,80,26676,1,0,0:0:0:0:
240,280,26801,1,8,0:0:0:0:
140,108,26926,6,0,L|180:16,1,100
386,133,27176,2,0,L|446:214,1,100,0|8,0:0|0:0,0:0:0:0:
241,334,27426,2,0,L|141:345,1,100
80,156,27676,1,0,0:0:0:0:
240,280,27801,1,8,0:0:0:0:
40,272,27926,1,0,0:0:0:0:
212,164,28051,6,0,P|264:164|308:184,1,100,4|0,0:0|0:0,0:0:0:0:
168,328,28301,2,0,P|131:291|114:245,1,100,8|0,0:0|0:0,0:0:0:0:
256,104,28551,1,0,0:0:0:0:
320,296,28676,1,0,0:0:0:0:
152,188,28801,1,8,0:0:0:0:
352,184,28926,1,0,0:0:0:0:
184,292,29051,6,0,P|137:307|88:300,1,100,8|0,0:0|0:0,0:0:0:0:
24,108,29301,1,0,0:0:0:0:
216,56,29426,2,0,P|253:88|270:135,1,100,8|0,0:0|0:0,0:0:0:0:
136,286,29676,1,0,0:0:0:0:
111,88,29801,1,8,0:0:0:0:
256,224,29926,1,8,0:0:0:0:
56,200,30051,5,4,0:0:0:0:
56,200,30113,1,0,0:0:0:0:
56,200,30176,1,0,0:0:0:0:
56,200,30238,1,0,0:0:0:0:
56,200,30301,2,0,L|156:176,1,100,8|0,0:0|0:0,0:0:0:0:
348,128,30551,2,0,L|248:152,1,100
324,340,30801,1,8,0:0:0:0:
460,192,30926,6,0,P|484:144|480:96,1,100
288,144,31176,2,0,P|285:193|308:237,1,100,0|8,0:0|0:0,0:0:0:0:
384,52,31426,2,0,P|340:29|290:31,1,100
192,208,31676,1,0,0:0:0:0:
392,236,31801,1,8,0:0:0:0:
256,92,31926,1,0,0:0:0:0:
200,284,32051,6,0,L|244:312,3,50,4|0|0|0,0:0|0:0|0:0|0:0,0:0:0:0:
276,312,32301,2,0,L|324:224,1,100,8|0,0:0|0:0,0:0:0:0:
424,48,32551,2,0,L|376:136,1,100
184,196,32801,1,8,0:0:0:0:
288,28,32926,6,0,P|300:80|280:120,1,100
97,246,33176,2,0,P|137:209|181:207,1,100,0|8,0:0|0:0,0:0:0:0:
382,301,33426,2,0,P|330:286|306:248,1,100
220,68,33676,1,0,0:0:0:0:
364,208,33801,1,8,0:0:0:0:
166,285,33926,1,0,0:0:0:0:
256,192,34051,5,4,0:0:0:0:
260,188,34113,1,0,0:0:0:0:
264,184,34176,1,0,0:0:0:0:
268,180,34238,1,0,0:0:0:0:
272,176,34301,2,0,L|340:104,1,100,8|0,0:0|0:0,0:0:0:0:
508,212,34551,2,0,L|440:284,1,100
240,264,34801,1,8,0:0:0:0:
256,64,34926,6,0,P|300:36|348:32,1,100
145,256,35176,2,0,P|98:231|71:192,1,100,0|8,0:0|0:0,0:0:0:0:
366,256,35426,2,0,P|369:308|348:351,1,100
204,212,35676,1,0,0:0:0:0:
376,112,35801,1,8,0:0:0:0:
288,292,35926,1,0,0:0:0:0:
256,96,36051,6,0,P|269:48|307:17,1,100,4|0,0:0|0:0,0:0:0:0:
256,288,36301,2,0,P|242:335|204:366,1,100,8|0,0:0|0:0,0:0:0:0:
60,228,36551,1,0,0:0:0:0:
256,192,36676,1,0,0:0:0:0:
116,332,36801,1,8,0:0:0:0:
148,132,36926,1,0,0:0:0:0:
240,308,37051,6,0,P|276:344|324:348,1,100,8|0,0:0|0:0,0:0:0:0:
448,192,37301,1,0,0:0:0:0:
256,244,37426,2,0,P|220:208|216:160,1,100,8|0,0:0|0:0,0:0:0:0:
371,34,37676,1,0,0:0:0:0:
392,232,37801,1,8,0:0:0:0:
256,84,37926,1,8,0:0:0:0:
452,124,38051,1,4,0:0:0:0:
