osu file format v6

[General]
AudioFilename: 04-Minutos.Mp3
AudioLeadIn: 0
PreviewTime: 74704
Countdown: 0
SampleSet: Soft
StackLeniency: 0.7
Mode: 0
LetterboxInBreaks: 1

[Editor]
Bookmarks: 9604,19204,32404,43204,53304,63004,76804,88869,108269,119569,132469,138569,146669,149169,156919,168269,180369,190169,218769
DistanceSpacing: 0.800000011920929
BeatDivisor: 4
GridSize: 8

[Metadata]
Title:Minutos
Artist:Ricardo Arjona
Creator:AdvanceBoy
Version:Easy
Source:
Tags:

[Difficulty]
HPDrainRate:3
CircleSize:3
OverallDifficulty:3
SliderMultiplier:1
SliderTickRate:2

[Events]
//Background and Video events
0,0,"Ricardo_Arjona-Santo_Pecado-Frontal.jpg"
//Break Periods
2,29304,31264
2,58704,61864
2,100133,107229
//Storyboard Layer 0 (Background)
//Storyboard Layer 1 (Fail)
//Storyboard Layer 2 (Pass)
//Storyboard Layer 3 (Foreground)
//Storyboard Sound Samples
//Background Colour Transformations
3,100,0,0,89

[TimingPoints]
3904.93301638837,600,4,2,0,100,1,0
76604,-100,4,2,0,100,0,1
78333,600,4,2,0,100,1,1
79274,-100,4,2,0,100,0,0
87969,-100,4,2,0,100,0,1
93858,-100,4,2,0,100,0,0
93933,-100,4,2,0,100,0,1
108069,600,4,2,0,40,1,0
109269,-100,4,2,0,0,0,0
109719,-100,4,2,0,30,0,0
119169,600,4,2,0,100,1,0
147969,-100,4,2,0,100,0,1
158431,-100,4,2,0,100,0,0
158469,-100,4,2,0,100,0,1
171069,-100,4,2,0,100,0,0
197239,600,4,2,0,50,1,0
197239,-100,4,2,0,50,0,0
199564,600,4,2,0,100,1,0
209244,-100,4,2,0,100,0,0
209319,-100,4,2,0,100,0,1
216439,-100,4,2,0,50,0,0

[Colours]
Combo1 : 132,79,0
Combo2 : 2,91,2
Combo3 : 2,2,117
Combo4 : 119,2,2

[HitObjects]
256,192,9904,1,4
432,192,12304,6,0,B|440:248|328:312,1,150,2|2
256,192,14704,5,4
80,192,17104,6,0,B|72:248|184:312,1,150,2|2
336,280,19504,5,0
336,120,20704,1,2
176,120,21904,5,0
176,280,23104,1,2
296,176,24304,6,0,B|464:176,2,150,0|0|2
224,136,26704,2,0,B|72:136,2,150,0|0|2
256,64,29104,5,4
64,136,32704,6,2,B|304:328,1,300
304,240,35104,2,0,B|136:104,1,200
224,88,36904,2,0,B|304:152,1,100
312,72,38104,1,0
392,72,38704,5,4
352,144,39304,5,8
352,224,39904,1,0
272,224,40504,1,8
272,304,41104,2,0,B|200:368|128:328,1,150,0|4
328,304,43504,5,4
384,248,44104,1,8
328,192,44704,1,0
272,248,45304,1,8
256,168,45904,2,0,B|336:112|408:184,1,150,0|4
256,24,48304,6,0,B|256:344,1,300,4|2
304,264,50704,6,2,B|80:216|432:160|200:80,1,300,8|2
128,56,53104,5,4
72,112,53704,2,0,B|16:160|72:216,1,100,0|2
96,272,54904,2,0,B|144:328|200:272,1,100,0|8
224,216,56104,5,2
272,152,56704,1,0
344,120,57304,1,2
416,160,57904,1,2
432,240,58504,1,4
328,192,63304,6,0,B|432:192,2,100,2|0|2
184,192,65704,2,0,B|80:192,2,100,0|0|0
256,160,67504,5,4
208,96,68104,1,0
256,32,68704,2,4,B|256:160,1,100
256,208,69904,5,2
304,272,70504,1,2
232,304,71104,1,4
152,280,71704,5,4
88,224,72304,5,4
136,160,72904,5,2
200,112,73504,2,0,B|224:72|296:88,1,100
336,152,74704,5,2
336,232,75304,1,2
264,264,75904,2,2,B|200:216|258:188,1,100
256,208,76654,12,4,78333
256,184,78933,5,4
256,360,79833,6,0,B|256:280,1,50,8|0
296,272,80433,1,8
256,232,80733,2,8,B|112:232,2,100,2|2|2
296,192,82233,6,8,B|296:72,1,100,8|8
240,96,83133,2,2,B|24:96,1,200,4|4
40,152,84633,5,2
40,208,84933,2,0,B|120:208,2,50,8|2|0
40,264,85833,1,4
256,208,86133,12,4,88533
256,192,89133,5,4
256,192,89733,1,4
256,328,90633,5,0
176,96,91533,1,2
336,96,92133,1,4
256,248,93033,5,2
256,248,93333,1,0
256,136,93933,1,4
256,208,94233,12,4,98733
256,192,99333,5,0
256,192,99933,5,4
376,160,108669,6,0,B|288:296,1,150
256,304,109869,6,2,B|192:296|-24:248|168:80,1,350
200,72,112269,1,0
280,64,112869,1,4
336,80,113319,6,2,B|402:124|336:296,1,225
216,192,115869,2,0,B|152:176|304:40|336:248|248:280,1,250,2|2
256,208,117669,12,4,119169
152,304,119769,5,2
232,304,120369,2,0,B|296:328|296:248,1,100,0|2
224,224,121569,1,0
208,144,122169,2,0,B|144:120|144:200,2,100,2|0|2
256,80,123969,5,4
320,128,124569,2,0,B|264:216,1,100,8|2
208,160,125769,2,0,B|264:248,1,100,8|2
256,328,126969,5,8
280,248,127569,1,2
240,176,128169,1,8
256,96,128769,1,4
48,48,129369,6,0,B|152:48,2,100,2|0|2
464,344,131769,2,2,B|352:344,1,100,2|0
288,344,132969,1,2
208,344,133569,1,0
128,344,134169,6,0,B|128:232,2,100,2|0|2
384,136,136569,2,0,B|384:16,3,100,2|0|2|4
304,56,138969,5,2
232,96,139569,1,8
184,160,140169,1,2
176,240,140769,5,8
208,312,141369,1,2
288,328,141969,1,4
336,264,142569,5,4
320,184,143169,5,4
272,120,143769,2,0,B|224:72|160:80,1,100,0|2
112,112,144969,2,0,B|72:216|104:216,1,100,0|4
152,264,146169,1,4
256,208,146769,12,4,149169
256,192,149769,5,4
472,104,150669,6,8,B|256:288,1,250,8|4
248,288,152469,2,0,B|151:198,1,100,0|2
200,192,153369,2,0,B|144:144,1,50,0|2
136,192,153969,2,0,B|-8:128|152:64,1,200,4|4
176,96,155469,5,0
208,120,155769,1,8
272,168,156369,1,0
304,192,156669,1,4
256,208,156969,12,4,159369
256,96,159669,5,4
256,96,159969,5,4
256,256,160569,5,4
376,296,161469,6,4,B|416:168|256:-16|64:192|144:304,1,500,8|4
256,192,165669,1,4
88,216,163869,6,4,B|168:120|256:80|352:120|424:224,1,400,4|8
256,208,166269,12,4,168369
256,208,168819,12,4,170769
