osu file format v9

[General]
AudioFilename: Pocket Monsters BW - Best Wishes! (TV Size).mp3
AudioLeadIn: 0
PreviewTime: 45025
Countdown: 1
SampleSet: Soft
StackLeniency: 0.7
Mode: 0
LetterboxInBreaks: 1

[Editor]
DistanceSpacing: 0.8
BeatDivisor: 2
GridSize: 4

[Metadata]
Title:Best Wishes! (TV Size)
Artist:Rica Matsumoto
Creator:Ekaru
Version:Normal
Source:Pokemon: Best Wishes!
Tags:Pikachu Records Black and White Rika NoHItter

[Difficulty]
HPDrainRate:3
CircleSize:4
OverallDifficulty:4
ApproachRate:5
SliderMultiplier:1.3
SliderTickRate:2

[Events]
//Background and Video events
0,0,"bg.jpg"
//Break Periods
2,30213,31814
//Storyboard Layer 0 (Background)
//Storyboard Layer 1 (Fail)
//Storyboard Layer 2 (Pass)
//Storyboard Layer 3 (Foreground)
//Storyboard Sound Samples
//Background Colour Transformations
3,100,163,162,255

[TimingPoints]
10,375.046880860108,4,2,0,70,1,0
33014,-120.481927710843,4,2,0,70,0,0
39014,-100,4,2,0,70,0,0
60017,-120.481927710843,4,2,0,70,0,0
63017,-108.695652173913,4,2,0,70,0,0
66018,-100,4,2,0,70,0,0
69018,-120.481927710843,4,2,0,70,0,1
81020,-100,4,2,0,70,0,0

[Colours]
Combo1 : 122,200,6
Combo2 : 4,130,255

[HitObjects]
256,112,9011,1,4
192,336,9761,2,0,B|32:312|48:136,1,260
120,40,10886,1,2
256,40,11261,1,2
352,124,11636,1,0
256,216,12011,1,0
216,344,12386,1,0
296,344,12574,1,2
408,288,12949,6,0,B|408:80,1,195
328,192,13886,1,2
248,192,14074,1,0
88,192,14449,2,2,B|88:128|128:112|160:112|160:112|184:112|264:112,1,195,2|4
376,112,15386,5,0
424,240,15761,1,8
344,336,16137,1,0
224,336,16512,1,8
288,240,16887,1,8
160,240,17262,1,8
32,240,17637,1,0
96,136,18012,1,4
256,352,19137,5,8
256,192,19512,1,0
256,192,19699,1,2
256,32,20075,1,0
256,32,20262,1,4
88,88,21387,5,0
48,208,21762,1,0
136,296,22137,1,0
240,216,22512,2,0,B|448:216,1,195
344,128,23450,5,0
344,128,23637,1,8
264,128,23825,1,0
264,128,24013,2,0,B|120:128,1,130,8|0
64,128,24575,1,2
66,254,24950,6,0,B|258:334|458:246,1,390
256,208,26638,1,2
256,208,26825,1,4
256,40,27388,5,0
384,40,27763,1,0
276,112,28138,1,0
156,112,28513,1,2
156,112,28701,1,2
156,112,28888,1,8
144,248,29263,2,0,B|176:344|272:376|376:312,1,260,0|4
147,56,33014,6,2,B|379:56,1,215.799992025137,4|2
363,192,34514,2,2,B|139:192,1,215.799992025137
147,344,36014,2,2,B|395:344,1,215.799992025137
256,248,37514,5,8
256,136,37889,1,8
352,192,38264,1,0
352,192,38452,1,8
352,192,38639,1,4
80,72,39389,5,2
80,192,39764,1,2
80,312,40140,1,2
192,248,40515,2,0,B|336:248,1,130,8|2
320,136,41265,2,0,B|184:136,1,130,8|2
256,48,42015,5,4
424,48,42577,1,4
424,208,43140,1,4
336,336,43702,1,4
256,208,44265,1,4
120,320,45765,5,0
176,88,46515,1,2
304,192,47078,1,2
421,294,47640,2,0,B|360:351|303:291,3,130,2|8|8|4
168,208,49516,5,0
256,320,49891,1,2
344,208,50266,1,2
384,88,50641,2,0,B|312:48|200:48|120:96,1,260,2|2
160,336,52516,5,0
160,176,53079,2,0,B|296:176,1,130
296,336,54016,2,0,B|432:296|472:144,1,260,8|4
256,40,55516,5,0
256,176,55891,1,0
256,176,56079,1,8
256,304,56454,1,8
256,304,56642,1,0
128,304,57017,2,0,B|12:192|128:64,3,260,4|4|4|4
192,256,60017,6,0,B|344:352|499:254,1,323.699988037706,8|0
384,192,61517,1,0
256,160,61892,1,0
136,192,62267,1,2
128,80,63017,6,0,B|304:16|493:89,1,358.800006843567,8|0
392,192,64518,1,0
256,232,64893,1,0
120,192,65268,1,2
64,320,66018,6,0,B|256:384|464:320,1,390,8|0
416,192,67518,1,0
256,152,67893,1,0
104,192,68268,1,2
360,96,69018,6,0,B|248:40|144:104,1,215.799992025137,4|8
232,184,70143,1,0
148,272,70518,2,0,B|380:272,1,215.799992025137,0|8
328,48,72769,5,0
224,112,73144,1,0
224,232,73519,1,2
136,312,73894,1,0
48,232,74269,1,2
48,112,74644,1,0
256,336,75769,5,8
256,216,76144,1,0
256,96,76519,1,8
400,112,77082,2,0,B|496:144|496:304|392:336,1,269.749990031422,0|4
256,328,78769,5,0
144,328,79144,1,0
96,232,79519,1,2
96,112,79894,1,0
216,112,80270,1,2
216,232,80645,1,0
312,320,81020,6,0,B|448:272|464:120,3,260,2|8|8|4
256,192,84020,12,4,86270
