osu file format v9

[General]
AudioFilename: Pocket Monsters BW - Best Wishes! (TV Size).mp3
AudioLeadIn: 0
PreviewTime: 45025
Countdown: 1
SampleSet: Soft
StackLeniency: 0.7
Mode: 0
LetterboxInBreaks: 1

[Editor]
DistanceSpacing: 1.5
BeatDivisor: 4
GridSize: 8

[Metadata]
Title:Best Wishes! (TV Size)
Artist:Rica Matsumoto
Creator:Ekaru
Version:Hard
Source:Pokemon: Best Wishes!
Tags:Pikachu Records Black and White Rika NoHItter

[Difficulty]
HPDrainRate:5
CircleSize:4
OverallDifficulty:7
ApproachRate:7
SliderMultiplier:1.5
SliderTickRate:2

[Events]
//Background and Video events
0,0,"bg.jpg"
//Break Periods
//Storyboard Layer 0 (Background)
//Storyboard Layer 1 (Fail)
//Storyboard Layer 2 (Pass)
//Storyboard Layer 3 (Foreground)
//Storyboard Sound Samples
//Background Colour Transformations
3,100,163,162,255

[TimingPoints]
10,375.046880860108,4,2,0,70,1,0
33014,-120.481927710843,4,2,0,70,0,0
45015,-100,4,2,0,70,0,0
60017,-120.481927710843,4,2,0,70,0,0
62642,-120.481927710843,4,2,0,100,0,0
63017,-108.695652173913,4,2,0,70,0,0
65643,-108.695652173913,4,2,0,100,0,0
66018,-100,4,2,0,70,0,0
69018,-120.481927710843,4,2,0,70,0,1
81020,-100,4,2,0,70,0,0

[Colours]
Combo1 : 122,200,6
Combo2 : 4,130,255

[HitObjects]
256,320,9011,5,4
256,320,9386,1,0
256,192,9761,1,0
200,144,9948,1,0
216,72,10136,1,0
296,72,10323,1,0
312,144,10511,1,0
192,232,10886,1,2
192,232,11073,1,2
320,232,11448,2,0,B|320:320|240:360|152:296,1,225
232,168,12386,1,2
232,168,12574,1,2
256,40,12949,5,0
192,72,13136,1,0
128,40,13324,1,0
64,72,13511,2,2,B|32:160|80:232|176:248,1,225
256,368,14449,1,2
256,280,14636,1,8
256,192,14824,1,8
256,104,15011,1,4
360,40,15386,5,0
472,192,15761,1,2
360,328,16137,1,0
152,328,16512,1,2
40,192,16887,1,8
152,40,17262,1,2
344,40,17637,1,8
256,192,18012,1,4
256,40,19137,5,0
256,112,19324,1,0
256,184,19512,1,4
256,184,19699,1,2
256,352,20075,1,4
256,352,20262,1,2
176,240,20637,1,4
336,240,21012,1,4
480,192,21387,5,0
480,192,21762,1,0
328,152,22137,1,0
256,152,22325,1,0
184,152,22512,1,0
256,280,22887,1,2
256,280,23075,1,2
184,80,23450,6,0,B|96:80,1,75,0|2
32,152,23825,2,0,B|128:152,1,75,0|2
264,152,24388,1,0
264,152,24575,1,0
336,240,24950,1,0
320,312,25138,1,0
256,352,25325,1,0
192,312,25513,1,0
176,240,25700,1,0
256,240,25888,1,2
256,240,26075,1,2
256,40,26638,1,2
256,40,26825,1,2
256,40,27013,1,4
320,184,27388,5,0
256,144,27575,1,0
192,184,27763,1,0
320,104,28138,1,8
256,224,28513,5,2
256,224,28701,1,0
256,224,28888,1,8
112,320,29263,1,2
184,320,29451,1,8
256,320,29638,1,8
328,320,29826,1,4
400,320,30013,1,4
256,40,30388,5,2
256,120,30576,1,0
256,120,30670,1,0
256,120,30763,1,2
256,200,30951,1,4
336,40,31513,5,2
336,120,31701,1,0
336,120,31795,1,0
336,120,31888,1,2
336,200,32076,2,0,B|384:200|424:168|432:128|424:96,1,150,2|4
168,320,33014,6,2,B|72:344|40:224|104:168|184:200,1,248.999990798235,4|2
256,256,34139,1,8
344,320,34514,2,2,B|440:344|472:224|408:168|328:200,1,248.999990798235,0|2
256,128,35639,1,8
160,56,36014,2,0,B|88:88|96:176,1,124.499995399118,8|8
96,232,36577,1,8
96,232,36764,1,8
256,248,37139,1,0
256,56,37514,5,0
320,96,37702,2,0,B|320:232,1,124.499995399118
256,320,38452,1,8
256,320,38639,1,8
256,176,39014,1,4
128,64,39389,5,2
72,120,39577,1,2
40,192,39764,1,2
72,264,39952,1,2
128,320,40140,1,2
192,144,40515,1,2
256,104,40702,1,2
320,144,40890,1,2
192,240,41265,1,2
256,280,41452,1,2
320,240,41640,1,2
488,192,42015,5,4
256,32,42577,1,4
24,192,43140,1,4
256,352,43702,1,4
488,192,44265,1,4
0,192,45015,5,4
136,192,45390,1,0
192,320,45765,1,0
256,368,45953,1,0
320,320,46140,1,0
256,280,46328,1,0
256,200,46515,2,0,B|256:136|256:136|264:88|312:72,1,150,2|8
328,144,47078,2,0,B|328:216|328:216|336:264|384:280,1,150,8|2
400,208,47640,2,0,B|400:40,3,150,8|2|2|4
256,40,49141,5,0
256,112,49328,1,0
256,184,49516,1,0
296,320,49891,1,8
216,320,50078,1,8
328,184,50453,1,0
256,184,50641,1,0
182,185,50828,2,0,B|186:255|256:272|301:247,2,150,2|2|8
184,112,51766,1,8
187,37,51953,6,0,B|120:48|112:104|112:104|112:168,1,150
112,216,52516,1,8
256,216,52891,1,2
256,216,53079,1,2
400,216,53454,1,2
256,144,53829,1,8
256,72,54016,2,0,B|312:75|328:120|328:144|328:144|328:264|328:264|328:320|264:384|192:320|208:248,1,450,8|8
192,112,55516,5,4
104,240,55891,1,0
104,168,56079,1,8
16,288,56454,1,0
16,216,56642,1,8
107,342,57017,2,0,B|160:312|208:336|208:336|256:312|296:336|296:336|352:312|401:342,3,300,4|4|4|4
88,112,60017,6,0,B|0:192|88:272,1,186.749993098676,8|8
256,192,61142,1,0
256,288,61517,1,0
352,192,61892,1,0
256,96,62267,1,0
440,96,62642,5,4
440,96,63017,2,8,B|512:192|432:304,1,207.000003948212
256,192,64143,1,0
256,304,64518,1,0
144,192,64893,1,0
256,80,65268,1,0
72,192,65643,5,4
153,336,66018,2,8,B|201:384|313:384|361:336,2,225
72,192,67518,1,0
256,192,67893,1,0
440,192,68268,1,4
256,40,69018,5,4
328,56,69206,1,0
376,112,69393,1,0
368,184,69581,1,0
320,240,69768,1,10
240,136,70143,1,2
168,248,70518,1,2
168,248,70706,1,0
96,136,71081,2,8,B|32:168|32:240,1,124.499995399118
256,352,71831,5,0
256,352,72019,1,0
256,280,72206,2,0,B|256:144,1,124.499995399118
256,80,72769,1,10
32,192,73144,1,2
104,56,73519,1,2
176,192,73894,1,0
336,192,74269,2,8,B|472:192,1,124.499995399118
256,328,75019,5,4
256,256,75206,1,0
256,184,75394,1,0
256,112,75581,1,0
256,40,75769,1,10
88,64,76144,1,2
128,200,76519,1,2
128,272,76707,1,0
128,344,76894,1,0
0,344,77269,1,8
256,352,77832,5,0
256,352,78019,1,0
256,280,78207,2,0,B|256:136,1,124.499995399118
256,80,78769,1,2
184,176,79144,1,0
328,176,79519,1,2
432,112,79894,1,0
432,248,80270,1,2
384,360,80645,1,4
256,344,81020,6,0,B|256:104,1,225,4|0
160,240,81957,1,0
88,240,82145,1,8
136,128,82520,1,8
184,57,82707,2,0,B|263:21|350:66,1,150,2|2
376,128,83270,1,0
256,360,83645,1,4
256,192,84020,12,4,86270
