osu file format v13

[General]
AudioFilename: kamen rider ryuki op-alive a life.flv.mp3
AudioLeadIn: 2000
PreviewTime: 31126
Countdown: 0
SampleSet: Normal
StackLeniency: 0.7
Mode: 0
LetterboxInBreaks: 0
WidescreenStoryboard: 0

[Editor]
Bookmarks: 40763
DistanceSpacing: 1
BeatDivisor: 4
GridSize: 16
TimelineZoom: 1

[Metadata]
Title:Alive A Life (TV Size)
TitleUnicode:Alive A Life (TV Size)
Artist:Rica Matsumoto
ArtistUnicode:Rica Matsumoto
Creator:hillaryzx
Version:Sword Vent
Source:Kamen Rider Ryuki
Tags:dragon vent opening
BeatmapID:78300
BeatmapSetID:22066

[Difficulty]
HPDrainRate:3
CircleSize:3
OverallDifficulty:2
ApproachRate:3
SliderMultiplier:1
SliderTickRate:1

[Events]
//Background and Video events
0,0,"Ryuki - 1.jpg",0,0
Video,800,"Kamen Rider Ryuki Opening HD_xvid_xvid.avi"
//Break Periods
//Storyboard Layer 0 (Background)
//Storyboard Layer 1 (Fail)
//Storyboard Layer 2 (Pass)
//Storyboard Layer 3 (Foreground)
//Storyboard Sound Samples
//Background Colour Transformations
3,100,193,193,255

[TimingPoints]
478,428.571428571429,4,1,1,100,1,0
10763,-100,4,2,2,90,0,0
29513,-100,4,1,2,100,0,0
30585,-100,4,2,2,100,0,0
31335,-100,4,2,2,100,0,1
44835,-100,4,2,2,90,0,0
45049,-100,4,1,2,100,0,1
58549,-100,4,1,2,30,0,0
60263,-100,4,1,2,90,0,0
66478,-100,4,1,2,65,0,0
66906,-100,4,1,2,45,0,0
67335,-100,4,2,2,25,0,0
67763,-100,4,2,2,15,0,0
68192,-100,4,2,2,10,0,0

[Colours]
Combo1 : 255,255,0
Combo2 : 128,0,255
Combo3 : 255,0,0
Combo4 : 255,128,0

[HitObjects]
256,192,477,12,0,2192,0:0:0:0:
256,192,2835,5,0,0:0:0:0:
408,192,3478,2,0,P|404:140|352:124,1,100,0|4,0:0|0:0,0:0:0:0:
280,64,4335,2,0,B|200:64|200:64|152:128,2,150
256,160,6049,5,0,0:0:0:0:
256,264,6478,2,0,L|224:312,2,50
256,160,7335,2,0,B|304:96|304:96|384:96,2,150,4|0|0,0:0|0:0|0:0,0:0:0:0:
256,192,9049,12,4,10763,0:0:0:0:
128,80,11620,6,0,P|96:128|96:192,1,100,0|8,0:0|0:0,0:0:0:0:
192,160,12478,2,0,P|224:112|224:48,1,100,0|8,0:0|0:0,0:0:0:0:
328,70,13335,1,0,0:0:0:0:
398,140,13763,1,8,0:0:0:0:
400,240,14192,6,0,L|400:352,1,100,0|8,0:0|0:0,0:0:0:0:
304,336,15049,2,0,B|304:288|304:288|272:240,1,100,0|8,0:0|0:0,0:0:0:0:
256,144,15906,5,2,0:0:0:0:
160,152,16335,2,0,P|80:152|80:216,2,150,8|0|4,0:0|0:0|0:0,0:0:0:0:
160,256,18049,5,8,0:0:0:0:
120,344,18478,2,0,L|56:344,2,50,0|0|8,0:0|0:0|0:0,0:0:0:0:
224,344,19335,6,0,B|288:344|288:344|320:296,1,100,0|8,0:0|0:0,0:0:0:0:
312,216,20192,2,0,L|312:152,2,50,0|0|8,0:0|0:0|0:0,0:0:0:0:
208,216,21049,5,0,0:0:0:0:
112,208,21478,2,0,P|144:144|176:128,1,100,8|0,0:0|0:0,0:0:0:0:
240,320,22763,6,0,P|304:320|336:288,1,100,0|8,0:0|0:0,0:0:0:0:
329,198,23620,2,0,L|393:198,2,50,0|0|0,1:0|1:0|1:0,1:1:0:0:
320,96,24478,6,0,P|256:72|176:112,2,150,4|0|0,0:0|0:0|0:0,0:0:0:0:
256,176,26192,1,0,0:0:0:0:
144,344,27049,6,0,B|64:344|64:344|0:280,2,150,2|0|0,0:0|0:0|0:0,0:0:0:0:
240,320,28763,1,2,0:0:0:0:
344,320,29192,1,2,0:0:0:0:
392,232,29620,6,0,L|456:232,4,50
312,176,30906,1,2,0:0:0:0:
256,256,31335,6,0,L|256:320,2,50,4|0|0,1:0|1:0|1:0,0:0:0:0:
192,176,32192,1,0,0:0:0:0:
256,96,32620,2,0,L|256:32,2,50,0|2|0,0:0|0:0|0:0,0:0:0:0:
320,176,33478,5,2,0:0:0:0:
392,248,33906,2,0,L|456:248,2,50
320,312,34763,6,0,B|256:344|256:344|184:312,1,150,4|0,0:0|0:0,0:0:0:0:
256,240,35835,2,0,P|192:192|192:112,1,150
256,192,36906,12,0,38192,0:0:0:0:
112,160,39049,5,0,0:0:0:0:
168,240,39478,1,2,0:0:0:0:
224,160,39906,2,0,P|225:119|272:80,2,100,0|2|0,0:0|0:0|0:0,0:0:0:0:
376,288,41620,6,0,P|424:256|424:208,2,100,0|2|0,0:0|0:0|0:0,0:0:0:0:
184,232,43335,6,0,P|136:264|136:312,2,100,0|2|0,0:0|0:0|0:0,0:0:0:0:
384,200,45049,21,4,0:0:0:0:
328,120,45478,2,2,B|208:120,1,100,2|0,0:0|0:0,0:0:0:0:
136,80,46335,2,2,B|136:192,1,100,2|0,0:0|0:0,0:0:0:0:
296,304,47620,6,0,P|360:304|392:272,2,100,0|0|0,0:0|0:0|0:0,0:0:0:0:
304,104,49335,6,0,P|256:104|208:136,2,100
176,264,51049,6,2,P|232:256|264:208,1,100,2|0,0:0|0:0,0:0:0:0:
184,160,51906,2,0,B|264:96|264:96|360:96|360:96|456:176,1,300
440,264,53620,6,0,B|361:330|361:330|265:330|265:330|185:266,1,300
240,184,55335,1,0,0:0:0:0:
192,96,55763,2,2,L|144:144,1,50,2|0,0:0|0:0,0:0:0:0:
400,96,57049,5,0,0:0:0:0:
352,176,57478,2,0,P|384:208|448:192,1,100
256,192,58549,12,0,60478,0:0:0:0:
128,192,61335,5,0,0:0:0:0:
256,40,62192,1,0,0:0:0:0:
384,192,63049,1,0,0:0:0:0:
256,344,63906,1,0,0:0:0:0:
88,232,64763,38,2,B|84:164|128:124,1,100,2|4,0:0|0:0,0:0:0:0:
216,136,65620,1,4,0:0:0:0:
256,192,65942,12,4,72478,0:0:0:0:
