osu file format v13

[General]
AudioFilename: kamen rider ryuki op-alive a life.flv.mp3
AudioLeadIn: 2000
PreviewTime: 31126
Countdown: 0
SampleSet: Normal
StackLeniency: 0.6
Mode: 0
LetterboxInBreaks: 0
WidescreenStoryboard: 0

[Editor]
Bookmarks: 23519
DistanceSpacing: 1
BeatDivisor: 4
GridSize: 4
TimelineZoom: 1

[Metadata]
Title:Alive A Life (TV Size)
TitleUnicode:Alive A Life (TV Size)
Artist:Rica Matsumoto
ArtistUnicode:Rica Matsumoto
Creator:hillaryzx
Version:Final Vent
Source:Kamen Rider Ryuki
Tags:dragon vent opening
BeatmapID:78299
BeatmapSetID:22066

[Difficulty]
HPDrainRate:7
CircleSize:3
OverallDifficulty:6
ApproachRate:8
SliderMultiplier:1.4
SliderTickRate:1

[Events]
//Background and Video events
0,0,"Ryuki - 1.jpg",0,0
Video,800,"Kamen Rider Ryuki Opening HD_xvid_xvid.avi"
//Break Periods
//Storyboard Layer 0 (Background)
//Storyboard Layer 1 (Fail)
//Storyboard Layer 2 (Pass)
//Storyboard Layer 3 (Foreground)
//Storyboard Sound Samples
//Background Colour Transformations
3,100,163,162,255

[TimingPoints]
478,428.571428571429,4,1,1,100,1,0
10120,-100,4,2,1,90,0,0
23406,-100,4,1,1,100,0,0
24478,-100,4,2,1,90,0,0
24585,-100,4,1,1,100,0,0
30263,-100,4,1,1,30,0,0
30799,-100,4,1,1,100,0,0
31335,-100,4,1,1,100,0,1
44835,-100,4,1,1,90,0,0
45049,-100,4,1,1,100,0,1
58763,-100,4,1,1,90,0,0
66478,-100,4,1,1,65,0,0
66906,-100,4,1,1,45,0,0
67335,-100,4,2,1,25,0,0
67763,-100,4,2,1,15,0,0
68192,-100,4,2,1,10,0,0

[Colours]
Combo1 : 255,255,0
Combo2 : 128,0,255
Combo3 : 255,0,0
Combo4 : 255,128,0

[HitObjects]
256,192,477,12,4,2192,0:0:0:0:
200,168,2406,5,4,0:0:0:0:
200,168,2513,1,0,0:0:0:0:
200,168,2620,1,0,0:0:0:0:
200,240,2835,6,0,B|305:240,1,105,4|0,0:0|0:0,0:0:0:0:
312,136,3478,1,0,0:0:0:0:
328,104,3585,1,0,0:0:0:0:
328,72,3692,1,0,0:0:0:0:
272,32,3906,5,4,0:0:0:0:
200,40,4120,1,0,0:0:0:0:
136,64,4335,2,0,B|80:104|16:48,1,105,2|0,1:0|0:0,0:0:0:0:
8,168,4978,1,0,0:0:0:0:
8,200,5085,1,0,0:0:0:0:
8,232,5192,1,0,0:0:0:0:
80,232,5406,1,0,0:0:0:0:
104,168,5620,5,0,0:0:0:0:
160,216,5835,1,0,0:0:0:0:
208,160,6049,2,0,B|288:126|288:186|356:142,1,140,2|0,0:0|0:0,0:0:0:0:
368,88,6692,1,0,0:0:0:0:
400,88,6799,1,0,0:0:0:0:
432,88,6906,1,0,0:0:0:0:
442,156,7120,6,0,B|480:232,2,70,0|4|0,0:0|0:0|0:0,0:0:0:0:
368,152,7763,2,0,B|368:257,2,105,2|0|0,0:0|0:0|0:0,0:0:0:0:
336,152,8513,1,0,0:0:0:0:
304,152,8620,1,0,0:0:0:0:
240,128,8835,1,0,0:0:0:0:
240,56,9049,6,0,B|208:24|144:24|104:64,1,140
88,120,9692,1,0,0:0:0:0:
88,192,9906,1,2,0:0:0:0:
232,192,10335,1,2,0:0:0:0:
112,264,10763,5,4,0:0:0:0:
176,296,10977,1,0,0:0:0:0:
240,312,11192,1,8,0:0:0:0:
304,296,11406,1,0,0:0:0:0:
360,248,11620,1,0,0:0:0:0:
360,248,11728,1,0,0:0:0:0:
360,248,11835,1,2,0:0:0:0:
360,176,12049,5,0,0:0:0:0:
344,104,12263,1,0,0:0:0:0:
288,64,12477,1,0,0:0:0:0:
216,64,12692,1,0,0:0:0:0:
144,80,12906,1,8,0:0:0:0:
88,128,13120,2,0,B|48:152|32:224|48:288|88:312,1,210,0|8,0:0|0:0,0:0:0:0:
120,328,13870,1,0,0:0:0:0:
152,328,13977,1,0,0:0:0:0:
224,328,14192,5,0,0:0:0:0:
256,192,14620,2,0,L|256:136,1,35
256,192,14835,2,0,L|256:248,1,35
256,192,15049,1,0,0:0:0:0:
328,192,15263,1,2,0:0:0:0:
400,192,15477,6,0,B|472:248|432:336,1,140,8|0,0:0|0:0,0:0:0:0:
376,352,16120,1,0,0:0:0:0:
336,296,16335,1,8,0:0:0:0:
304,296,16442,1,0,0:0:0:0:
240,320,16656,2,0,L|180:320,1,35,2|0,0:0|0:0,0:0:0:0:
144,280,16977,2,0,B|104:256|128:200,1,70,0|8,0:0|0:0,0:0:0:0:
120,144,17406,6,0,B|56:144,2,35,0|0|4,0:0|0:0|0:0,0:0:0:0:
152,80,17835,2,0,B|192:48|240:88,1,70,0|8,0:0|0:0,0:0:0:0:
280,104,18263,1,2,0:0:0:0:
312,168,18478,1,0,0:0:0:0:
256,216,18692,2,0,B|256:304,1,70,0|8,0:0|0:0,0:0:0:0:
320,320,19120,5,0,0:0:0:0:
416,224,19549,1,0,0:0:0:0:
416,80,19978,1,2,0:0:0:0:
416,80,20192,1,0,0:0:0:0:
344,80,20406,2,0,B|256:80,1,70,0|8,0:0|0:0,0:0:0:0:
216,120,20835,1,0,0:0:0:0:
144,120,21049,6,0,B|112:168|112:224|160:256,1,140,0|8,0:0|0:0,0:0:0:0:
144,320,21692,1,2,0:0:0:0:
176,320,21799,1,0,0:0:0:0:
208,320,21906,1,2,0:0:0:0:
352,320,22335,2,0,B|488:320,2,105,8|0|0,0:0|0:0|0:0,0:0:0:0:
312,256,23192,5,8,0:0:0:0:
312,256,23299,1,0,0:0:0:0:
280,208,23513,1,0,0:0:0:0:
280,208,23620,2,0,B|280:120,2,70
280,136,24263,1,0,0:0:0:0:
352,136,24478,1,4,0:0:0:0:
488,160,24906,6,0,B|488:64,1,70
400,200,25549,1,0,0:0:0:0:
400,272,25763,2,0,B|400:328|344:328,1,70,2|0,0:0|0:0,0:0:0:0:
256,240,26406,1,0,0:0:0:0:
112,240,26835,2,0,L|112:192,2,35,0|0|0,0:0|0:0|0:0,0:0:0:0:
161,289,27263,1,0,0:0:0:0:
216,328,27478,1,0,0:0:0:0:
288,336,27692,6,0,B|360:300|360:208,1,140,2|0,0:0|0:0,0:0:0:0:
304,96,28549,1,0,0:0:0:0:
272,112,28656,1,0,0:0:0:0:
240,96,28763,1,0,0:0:0:0:
168,104,28978,1,0,0:0:0:0:
112,152,29192,1,2,0:0:0:0:
192,272,29620,6,2,B|236:346|316:306,1,140,2|2,0:0|0:0,0:0:0:0:
320,240,30263,2,0,P|328:196|296:160,1,70
312,32,30906,1,0,0:0:0:0:
344,32,31013,1,0,0:0:0:0:
376,32,31120,1,0,0:0:0:0:
352,96,31335,5,4,0:0:0:0:
400,144,31549,1,0,0:0:0:0:
400,216,31763,2,0,B|336:264|272:216,1,140,8|0,0:0|0:0,0:0:0:0:
200,216,32406,2,0,B|136:264|72:216,1,140
72,144,33049,2,0,B|136:104|216:144,1,140,0|8,0:0|0:0,0:0:0:0:
272,112,33692,5,0,0:0:0:0:
272,112,33799,1,0,0:0:0:0:
272,112,33906,1,0,0:0:0:0:
344,112,34120,1,0,0:0:0:0:
344,40,34335,1,8,0:0:0:0:
272,40,34549,1,0,0:0:0:0:
200,40,34763,21,4,0:0:0:0:
128,40,34978,2,0,B|88:40|88:96,1,70,0|8,0:0|0:0,0:0:0:0:
80,160,35406,2,0,B|80:216|20:216,1,70
40,280,35835,2,0,B|40:332|92:352,1,70,0|8,0:0|0:0,0:0:0:0:
136,336,36263,2,0,B|232:336,1,70
208,192,36906,37,0,0:0:0:0:
280,192,37120,2,0,B|280:280,1,70
280,336,37549,2,2,B|440:336,1,140,2|0,0:0|0:0,0:0:0:0:
444,311,38085,1,0,0:0:0:0:
468,286,38192,1,0,0:0:0:0:
472,144,38620,1,0,0:0:0:0:
424,88,38835,37,2,0:0:0:0:
376,136,39049,1,0,0:0:0:0:
320,88,39263,1,0,0:0:0:0:
264,136,39478,1,2,0:0:0:0:
216,80,39692,1,0,0:0:0:0:
272,32,39906,1,4,0:0:0:0:
136,80,40335,21,0,0:0:0:0:
136,152,40549,1,0,0:0:0:0:
192,280,40978,2,2,B|256:241|328:280,1,140,2|0,0:0|0:0,0:0:0:0:
352,216,41620,6,0,L|424:176,1,70
448,184,41942,1,0,0:0:0:0:
480,184,42049,1,0,0:0:0:0:
488,112,42263,1,0,0:0:0:0:
432,64,42478,1,8,0:0:0:0:
360,64,42692,1,0,0:0:0:0:
288,64,42906,1,0,0:0:0:0:
232,112,43120,1,0,0:0:0:0:
184,164,43335,1,0,0:0:0:0:
120,192,43549,5,0,0:0:0:0:
88,192,43656,1,0,0:0:0:0:
56,192,43763,1,0,0:0:0:0:
56,264,43978,2,0,L|112:264,1,35
128,264,44192,1,0,0:0:0:0:
168,320,44406,2,0,L|216:248,1,70
216,120,45049,5,4,0:0:0:0:
216,120,45156,1,4,0:0:0:0:
216,120,45263,1,0,0:0:0:0:
288,128,45478,2,0,P|360:108|372:32,1,140,2|0,0:0|0:0,0:0:0:0:
448,48,46120,1,0,0:0:0:0:
480,112,46335,1,8,0:0:0:0:
448,176,46549,2,0,B|384:248,1,70
320,344,47192,2,0,B|252:312|252:380|176:336,1,140,8|0,0:0|0:0,0:0:0:0:
136,288,47835,1,0,0:0:0:0:
136,216,48049,6,0,B|96:192|96:192|40:192,1,70,8|0,0:0|0:0,0:0:0:0:
72,120,48478,1,0,0:0:0:0:
112,64,48692,1,0,0:0:0:0:
112,64,48799,1,0,0:0:0:0:
112,64,48906,1,0,0:0:0:0:
184,64,49120,2,0,L|184:136,1,70
216,200,49549,1,0,0:0:0:0:
288,200,49763,1,8,0:0:0:0:
288,128,49977,1,0,0:0:0:0:
288,56,50192,1,0,0:0:0:0:
424,56,50620,5,0,0:0:0:0:
424,56,50728,1,0,0:0:0:0:
424,56,50835,2,2,B|384:80|384:156|432:172,1,140,2|0,0:0|0:0,0:0:0:0:
432,240,51477,1,8,0:0:0:0:
376,280,51692,2,0,B|376:324|376:324|347:359,1,70
256,248,52335,5,0,0:0:0:0:
256,248,52442,1,0,0:0:0:0:
256,248,52549,2,2,B|96:248,1,140,2|0,0:0|0:0,0:0:0:0:
48,248,53192,1,8,0:0:0:0:
48,176,53406,1,0,0:0:0:0:
48,144,53513,1,0,0:0:0:0:
48,112,53620,1,0,0:0:0:0:
64,40,53835,5,0,0:0:0:0:
136,40,54049,1,8,0:0:0:0:
200,64,54263,2,0,B|232:16|304:24|328:88,1,140
352,128,54906,1,8,0:0:0:0:
378,190,55120,1,0,0:0:0:0:
360,256,55335,5,0,0:0:0:0:
312,304,55549,1,0,0:0:0:0:
240,320,55763,1,8,0:0:0:0:
176,304,55977,1,0,0:0:0:0:
120,256,56192,2,0,B|72:192|120:128,1,140,0|8,0:0|0:0,0:0:0:0:
168,72,56835,1,0,0:0:0:0:
240,64,57049,2,0,L|304:64,2,35,0|0|0,0:0|0:0|0:0,0:0:0:0:
240,136,57478,1,0,0:0:0:0:
256,192,57692,12,4,58763,0:0:0:0:
312,256,59192,6,0,B|368:288|432:232,1,105
410,143,59835,2,0,B|410:63,3,70
336,72,60692,1,0,0:0:0:0:
266,72,60906,2,0,B|232:32|160:32|128:92,1,140,2|0,0:0|0:0,0:0:0:0:
71,71,61549,1,0,0:0:0:0:
21,120,61763,1,0,0:0:0:0:
21,189,61977,38,0,B|109:189,2,70,0|4|0,0:0|0:0|0:0,0:0:0:0:
21,259,62620,2,0,B|21:319|21:319|65:351,2,105,2|0|0,0:0|0:0|0:0,0:0:0:0:
91,259,63477,1,0,0:0:0:0:
161,259,63692,2,0,B|161:315,1,35
220,380,64120,1,0,0:0:0:0:
280,344,64335,21,0,0:0:0:0:
230,294,64549,1,0,0:0:0:0:
279,244,64763,1,0,0:0:0:0:
229,194,64977,1,0,0:0:0:0:
278,144,65192,1,0,0:0:0:0:
408,192,65620,1,4,0:0:0:0:
256,192,65835,12,0,72478,0:0:0:0:
