osu file format v13

[General]
AudioFilename: kamen rider ryuki op-alive a life.flv.mp3
AudioLeadIn: 2000
PreviewTime: 31126
Countdown: 0
SampleSet: Normal
StackLeniency: 0.6
Mode: 0
LetterboxInBreaks: 0
WidescreenStoryboard: 0

[Editor]
Bookmarks: 30912
DistanceSpacing: 1
BeatDivisor: 4
GridSize: 8
TimelineZoom: 1

[Metadata]
Title:Alive A Life (TV Size)
TitleUnicode:Alive A Life (TV Size)
Artist:Rica Matsumoto
ArtistUnicode:Rica Matsumoto
Creator:hillaryzx
Version:Advent
Source:Kamen Rider Ryuki
Tags:dragon vent opening
BeatmapID:78298
BeatmapSetID:22066

[Difficulty]
HPDrainRate:4
CircleSize:3
OverallDifficulty:4
ApproachRate:5
SliderMultiplier:1.4
SliderTickRate:2

[Events]
//Background and Video events
0,0,"Ryuki - 1.jpg",0,0
Video,800,"Kamen Rider Ryuki Opening HD_xvid_xvid.avi"
//Break Periods
//Storyboard Layer 0 (Background)
//Storyboard Layer 1 (Fail)
//Storyboard Layer 2 (Pass)
//Storyboard Layer 3 (Foreground)
//Storyboard Sound Samples
//Background Colour Transformations
3,100,163,162,255

[TimingPoints]
478,428.571428571429,4,1,1,100,1,0
10763,-100,4,2,1,90,0,0
22763,-100,4,1,2,100,0,0
31335,-100,4,1,2,100,0,1
44835,-100,4,1,2,90,0,0
45049,-100,4,1,2,100,0,1
50192,-100,4,1,2,100,0,1
58763,-100,4,1,2,90,0,0
66478,-100,4,1,2,65,0,0
66906,-100,4,1,2,45,0,0
67335,-100,4,2,2,25,0,0
67763,-100,4,2,2,15,0,0
68192,-100,4,2,2,10,0,0

[Colours]
Combo1 : 255,255,0
Combo2 : 128,0,255
Combo3 : 255,0,0
Combo4 : 255,128,0

[HitObjects]
256,192,477,12,4,2192,0:0:0:0:
32,296,2835,5,0,0:0:0:0:
244,296,3478,2,0,B|300:288|324:264|332:208|316:176,1,140,2|4,0:0|0:0,0:0:0:0:
188,164,4335,5,0,0:0:0:0:
139,32,4763,1,0,0:0:0:0:
188,81,4978,1,0,0:0:0:0:
237,34,5192,2,0,B|325:34,1,70,2|0,0:0|0:0,0:0:0:0:
312,104,5620,2,0,B|312:200|400:200,1,140,0|0,0:0|0:0,0:0:0:0:
308,312,6478,2,0,P|384:346|448:322,1,140,0|0,0:0|0:0,0:0:0:0:
476,196,7335,5,4,0:0:0:0:
424,68,7763,1,2,0:0:0:0:
288,96,8192,2,0,B|234:33|234:33|218:33,2,70,0|0|0,0:0|0:0|0:0,0:0:0:0:
252,232,9049,1,0,0:0:0:0:
384,280,9478,1,2,0:0:0:0:
252,324,9906,1,0,0:0:0:0:
384,280,10335,1,0,0:0:0:0:
252,324,10763,38,0,B|152:332|96:280|104:180|168:128,1,280,4|0,0:0|0:0,0:0:0:0:
252,44,12049,2,0,B|340:36|396:100|404:188|332:252,1,280,8|8,0:0|0:0,0:0:0:0:
256,136,13335,2,0,L|256:216,1,70
256,275,13763,38,0,B|228:311|156:311|112:271,2,140,8|2|8,0:0|0:0|0:0,0:0:0:0:
396,275,15049,1,0,0:0:0:0:
288,184,15478,2,0,B|232:128|232:128|276:88|176:32|176:32|76:88|120:128|120:128|52:192,1,420,8|0,0:0|0:0,0:0:0:0:
80,248,16978,1,8,0:0:0:0:
124,304,17192,1,8,0:0:0:0:
256,352,17620,37,4,0:0:0:0:
392,320,18049,1,8,0:0:0:0:
468,200,18478,1,0,0:0:0:0:
420,96,18906,2,0,B|256:96,1,140,8|0,0:0|0:0,0:0:0:0:
172,72,19763,1,8,0:0:0:0:
92,152,20192,1,0,0:0:0:0:
232,152,20620,1,8,0:0:0:0:
344,68,21049,5,0,0:0:0:0:
464,144,21478,1,8,0:0:0:0:
344,220,21906,2,0,P|300:277|228:245,1,140,0|8,0:0|0:0,0:0:0:0:
172,256,22549,2,0,L|88:256,1,70,0|0,0:0|0:0,0:0:0:0:
102,256,22978,1,0,0:0:0:0:
104,188,23192,5,0,0:0:0:0:
124,120,23406,1,0,0:0:0:0:
168,68,23620,1,0,0:0:0:0:
300,20,24049,1,2,0:0:0:0:
304,160,24478,21,4,0:0:0:0:
392,52,24906,2,0,B|488:52,1,70
460,192,25549,1,2,0:0:0:0:
460,260,25763,1,0,0:0:0:0:
460,332,25978,1,0,0:0:0:0:
256,140,26835,37,2,0:0:0:0:
132,208,27263,1,2,0:0:0:0:
100,268,27478,1,0,0:0:0:0:
140,324,27692,2,2,B|204:372|276:324,1,140,2|0,0:0|0:0,0:0:0:0:
400,276,28549,6,0,L|400:316,2,35,0|0|0,0:0|0:0|0:0,0:0:0:0:
400,204,28978,2,0,L|400:164,2,35,0|0|0,0:0|0:0|0:0,0:0:0:0:
400,204,29406,1,0,0:0:0:0:
256,192,29620,12,4,31335,0:0:0:0:
112,72,31763,5,0,0:0:0:0:
112,144,31978,1,0,0:0:0:0:
116,284,32406,1,0,0:0:0:0:
236,212,32835,1,0,0:0:0:0:
375,212,33263,6,0,L|447:212,1,70
448,72,33906,1,0,0:0:0:0:
312,32,34335,1,0,0:0:0:0:
176,32,34763,22,0,B|24:32|24:184|24:304|208:304,1,420,4|0,0:0|0:0,0:0:0:0:
313,306,36478,2,0,B|384:293|440:225|426:138|368:90,1,280
256,168,37763,2,0,L|312:168,1,35,0|0,0:0|0:0,0:0:0:0:
256,72,38192,1,0,0:0:0:0:
120,88,38620,6,0,B|88:120|88:168,1,70
72,288,39263,2,0,L|72:328,2,35,0|0|0,0:0|0:0|0:0,0:0:0:0:
144,288,39692,1,0,0:0:0:0:
208,264,39906,1,2,0:0:0:0:
336,208,40335,1,0,0:0:0:0:
320,72,40763,2,0,B|256:112|256:56|176:88,3,140
256,192,42478,1,0,0:0:0:0:
256,192,42692,2,0,L|256:280,1,70
256,192,43335,12,0,44835,0:0:0:0:
352,160,45049,6,0,B|344:80|256:40|168:80|168:104,1,210,4|0,0:0|0:0,0:0:0:0:
168,220,46120,1,0,0:0:0:0:
32,248,46549,2,0,B|21:313|79:372|161:372|200:328,1,210
256,236,47620,2,0,B|208:172|256:108,1,140,2|0,0:0|0:0,0:0:0:0:
380,44,48478,6,0,B|468:44,1,70
450,44,48906,2,0,B|450:116,1,70
472,252,49549,2,0,B|468:318|425:343|348:333,1,140,2|0,0:0|0:0,0:0:0:0:
100,324,50835,6,0,B|28:308|-12:220|28:132|100:116,1,280,4|0,0:0|0:0,0:0:0:0:
168,108,51906,1,0,0:0:0:0:
376,144,52549,5,2,0:0:0:0:
444,264,52978,1,0,0:0:0:0:
376,268,53192,2,0,B|384:308|352:332,2,70
256,196,54049,1,0,0:0:0:0:
120,40,54692,5,2,0:0:0:0:
160,96,54906,1,2,0:0:0:0:
224,112,55120,1,0,0:0:0:0:
296,104,55335,2,0,P|368:140|376:196,1,140
376,263,55978,1,2,0:0:0:0:
256,344,56406,1,0,0:0:0:0:
256,200,56835,1,0,0:0:0:0:
256,192,57049,12,0,58763,0:0:0:0:
256,72,59192,5,0,0:0:0:0:
256,212,59620,1,0,0:0:0:0:
396,216,60049,2,0,B|428:208|436:152|424:104|396:96,2,140
396,216,61335,1,0,0:0:0:0:
328,340,61763,1,0,0:0:0:0:
187,340,62192,1,0,0:0:0:0:
164,200,62620,22,0,B|260:200|260:296,1,140
399,280,63478,2,0,B|471:264|511:176|471:88|399:72,1,280
324,192,64763,2,2,B|308:240|264:256|200:256|160:216|152:184|152:184|152:176,1,210,2|4,0:0|0:0,0:0:0:0:
88,192,65620,1,0,0:0:0:0:
256,192,65835,12,0,72478,0:0:0:0:
