osu file format v9

[General]
AudioFilename: Pokemon master.mp3
AudioLeadIn: 0
PreviewTime: 50145
Countdown: 0
SampleSet: Normal
StackLeniency: 0.7
Mode: 0
LetterboxInBreaks: 0
StoryFireInFront: 0
SkinPreference:taiko

[Editor]
Bookmarks: 2174,9031,22745,35602,37316,39031,41174,43316,50174,70745,86368
DistanceSpacing: 0.8
BeatDivisor: 4
GridSize: 8

[Metadata]
Title:High Touch! (TV Size)
Artist:Rica Matsumoto & Megumi Toyoguchi
Creator:arien666
Version:Muzukashii
Source:Pokemon: Diamond and Pearl
Tags:arken1015 NoHItter taiko no tatsujin wii 2 taikosu

[Difficulty]
HPDrainRate:5
CircleSize:4
OverallDifficulty:5
ApproachRate:6
SliderMultiplier:1.44
SliderTickRate:1

[Events]
//Background and Video events
Video,1120,"MISSING NO.avi"
0,0,"Pikapika.jpg"
//Break Periods
//Storyboard Layer 0 (Background)
//Storyboard Layer 1 (Fail)
//Storyboard Layer 2 (Pass)
//Storyboard Layer 3 (Foreground)
//Storyboard Sound Samples
//Background Colour Transformations
3,100,163,162,255

[TimingPoints]
2128,428.571428571429,4,1,1,100,1,0
50128,-100,4,1,1,100,0,1
63842,-100,4,1,1,100,0,0
70699,-100,4,1,1,100,0,1
87842,-100,4,1,1,100,0,0

[Colours]
Combo1 : 243,89,34
Combo2 : 112,196,193

[HitObjects]
256,48,4913,1,8
256,48,5128,1,8
256,48,5342,1,2
312,304,7270,6,0,B|280:360|232:360|200:304,3,144,0|0|0|2
256,208,8985,1,0
368,192,9413,6,0,B|416:192|448:160,3,72,0|8|0|8
480,128,10270,2,0,B|512:96|512:56,2,72,0|8|0
384,192,11127,2,0,B|328:248,1,72,8|0
218,242,11770,2,0,B|166:190,1,72,0|8
88,112,12413,1,0
0,192,12842,6,0,B|0:240|32:272,3,72,0|8|0|8
56,304,13699,2,0,B|88:336|128:336,2,72,0|8|0
96,192,14556,2,0,B|168:144,1,72,8|0
256,88,15199,2,0,B|308:140,1,72,0|8
384,224,15842,5,0
304,304,16270,1,8
200,360,16699,2,0,B|152:360|120:328,2,72,0|0|8
312,360,17556,1,0
424,360,17985,2,0,B|424:312|400:288,1,72,8|0
312,224,18628,2,0,B|291:204|291:156,1,72,0|8
280,40,19270,5,0
168,64,19699,1,8
72,128,20128,2,0,B|32:160|32:200,2,72,0|0|8
168,64,20985,1,0
256,344,22699,5,0
256,232,23128,1,8
152,288,23556,2,0,B|117:303|80:288,2,72,0|0|8
120,176,24413,1,0
226,131,24842,2,0,B|178:67,1,72,8|0
282,131,25485,2,0,B|330:67,1,72,0|8
360,184,26128,6,0,B|416:208|416:280|360:296,1,144,0|8
256,248,26985,1,0
256,304,27199,1,0
256,360,27413,1,8
160,296,27842,2,0,B|120:264|56:328|16:296,1,144,0|8
24,240,28485,1,0
128,192,28913,1,0
184,192,29128,1,8
256,104,29556,6,0,B|256:32,2,72,0|0|8
328,192,30413,1,0
384,192,30628,1,0
328,192,30842,1,8
256,280,31270,2,0,B|256:352,2,72,0|0|8
184,192,32128,1,0
128,192,32342,1,0
184,192,32556,1,8
173,77,32985,5,0
229,53,33199,1,0
285,53,33413,1,8
341,77,33628,1,0
256,152,34056,2,0,B|240:176|272:200|256:224,1,72,0|2
333,308,36413,5,0
285,340,36628,1,0
229,340,36842,1,8
181,308,37056,1,0
257,220,37485,1,0
257,164,37699,1,8
360,104,38128,5,0
392,152,38342,1,0
360,200,38556,1,8
392,248,38770,1,0
360,360,39199,1,0
328,312,39413,1,8
256,224,39842,5,0
224,176,40056,1,0
184,136,40270,1,8
128,112,40485,1,8
72,128,40699,1,0
32,168,40913,1,8
8,216,41128,1,0
8,272,41342,5,0
90,352,41770,2,0,B|122:336|162:352,1,72,0|8
218,352,42199,2,0,B|290:352,1,72,8|0
346,352,42628,2,0,B|378:368|418:352,1,72,8|0
472,248,43270,5,0
472,136,43699,1,8
368,192,44127,1,0
312,192,44342,1,0
256,192,44556,1,8
152,248,44985,5,0
164,133,45413,1,8
176,18,45842,1,0
208,66,46056,1,0
256,98,46270,1,8
304,66,46485,1,0
336,18,46699,1,0
451,18,47127,6,0,B|451:98,1,72,8|0
397,192,47770,2,0,B|397:264,1,72,8|0
309,192,48413,2,0,B|309:112,1,72,8|0
221,192,49056,2,0,B|221:288,1,72,8|0
47,115,50127,5,0
79,163,50342,1,8
79,219,50556,1,0
47,259,50770,1,8
144,328,51199,2,0,B|176:352|224:344,2,72,8|0|8
144,272,51842,5,4
184,232,52056,1,12
280,144,52485,1,12
368,56,52913,1,0
408,96,53127,1,8
448,136,53342,1,8
448,192,53556,5,0
448,248,53770,1,8
408,288,53985,1,0
368,328,54199,1,8
256,304,54627,2,0,B|256:376,2,72,8|0|8
200,288,55270,5,0
228,237,55485,1,0
284,237,55699,1,8
312,288,55913,1,0
256,184,56342,1,8
256,128,56556,1,8
256,72,56770,1,0
256,16,56985,5,0
184,112,57413,2,0,B|144:176,1,72,8|0
256,192,58056,2,0,B|256:264,2,72,0|8|0
328,112,58913,2,0,B|368:176,2,72,0|0|0
312,56,59556,1,4
200,56,59985,1,12
256,152,60413,1,4
256,336,63199,5,0
256,336,63413,1,0
256,336,63627,1,0
256,280,63842,5,8
214,172,64270,2,8,B|182:164|166:188|142:172,1,72
254,140,64913,2,8,B|262:108|238:92|254:68,2,72
368,168,65770,2,8,B|336:176|320:152|296:168,2,72
283,253,66627,1,8
227,253,66842,1,8
96,136,67270,5,8
200,88,67699,1,8
200,144,67913,1,8
312,144,68342,1,8
312,88,68556,1,8
416,136,68985,1,0
416,192,69199,1,8
392,248,69413,1,8
336,272,69627,1,8
280,272,69842,1,2
64,192,70699,5,0
120,192,70913,1,8
160,152,71127,1,0
216,152,71342,1,8
296,72,71770,1,8
352,72,71985,1,0
392,112,72199,1,8
392,168,72413,1,4
392,224,72627,2,4,B|392:296|312:336,1,144,12|12
200,344,73485,1,0
144,336,73699,1,8
96,304,73913,1,8
64,256,74127,5,0
104,208,74342,1,8
88,152,74556,1,0
128,104,74770,1,8
208,24,75199,1,8
256,56,75413,1,0
304,24,75627,1,8
320,136,76056,1,8
344,192,76270,1,0
320,248,76485,1,8
256,344,76913,2,8,B|224:368|176:368,1,72
128,368,77342,1,0
72,368,77556,6,0,B|16:312,1,72
21,259,77985,1,8
21,201,78199,2,0,B|77:145,1,72
112,109,78627,1,8
152,68,78842,2,0,B|229:68,1,72
281,68,79270,1,8
338,68,79485,2,0,B|394:124,1,72
429,159,79913,1,8
429,216,80127,2,4,B|429:285|319:308,1,144,4|6
256,192,80985,12,0,83342
256,99,83770,5,0
285,148,83985,1,0
227,148,84199,1,8
120,192,84627,1,0
92,243,84842,1,0
148,243,85056,1,8
256,192,85485,5,0
312,192,85699,1,8
344,240,85913,1,8
448,192,86342,1,4
448,136,86556,1,12
448,80,86770,1,12
