osu file format v9

[General]
AudioFilename: Pokemon master.mp3
AudioLeadIn: 0
PreviewTime: 50145
Countdown: 0
SampleSet: Normal
StackLeniency: 0.7
Mode: 0
LetterboxInBreaks: 0
StoryFireInFront: 0
SkinPreference:taiko

[Editor]
Bookmarks: 2174,9031,22745,35602,37316,39031,41174,43316,50174,70745,86368
DistanceSpacing: 0.6
BeatDivisor: 1
GridSize: 8

[Metadata]
Title:High Touch! (TV Size)
Artist:Rica Matsumoto & Megumi Toyoguchi
Creator:arien666
Version:Kantan
Source:Pokemon: Diamond and Pearl
Tags:arken1015 NoHItter taiko no tatsujin wii 2 taikosu

[Difficulty]
HPDrainRate:2
CircleSize:3
OverallDifficulty:3
ApproachRate:3
SliderMultiplier:1.28
SliderTickRate:1

[Events]
//Background and Video events
Video,1120,"MISSING NO.avi"
0,0,"Pikapika.jpg"
//Break Periods
//Storyboard Layer 0 (Background)
//Storyboard Layer 1 (Fail)
//Storyboard Layer 2 (Pass)
//Storyboard Layer 3 (Foreground)
//Storyboard Sound Samples
//Background Colour Transformations
3,100,163,162,255

[TimingPoints]
2128,428.571428571429,4,1,1,100,1,0
50128,-100,4,1,1,100,0,1
63841,-100,4,1,1,100,0,0
70698,-100,4,1,1,100,0,1
87842,-100,4,1,1,100,0,0

[Colours]
Combo1 : 243,89,34
Combo2 : 112,196,193

[HitObjects]
104,88,2128,1,0
408,88,3842,1,0
256,352,5556,1,0
216,48,7270,6,0,B|144:88|158:195|256:246|354:195|368:88|292:44,1,384,0|2
256,110,8985,5,0
128,192,9842,2,0,B|114:270|192:296,1,128
201,218,10699,1,0
480,344,12413,5,0
480,192,13270,2,0,B|494:114|416:88,1,128
407,166,14127,1,0
104,192,15842,5,8
128,40,16699,1,8
256,128,17556,1,2
472,344,19270,5,8
402,206,20128,1,8
256,256,20985,1,2
472,40,22699,5,0
328,88,23556,1,0
256,64,23985,1,0
184,88,24413,1,0
256,224,25270,1,8
176,352,26128,5,0
48,264,26985,1,0
24,192,27413,1,0
48,120,27842,1,0
184,192,28699,1,8
256,56,29556,5,8
104,56,30413,1,2
256,56,31270,1,8
256,328,32985,5,8
408,328,33842,1,8
256,328,34699,1,2
256,24,36413,5,0
256,256,37699,2,0,B|296:296|216:336|256:376,1,128
484,373,39413,6,0,B|444:333|524:293|484:253,1,128
408,120,40699,1,8
256,80,41556,5,0
152,192,42413,1,8
256,304,43270,5,0
360,192,44127,1,0
318,127,44556,1,0
256,80,44985,1,0
104,48,45842,1,8
256,192,46699,12,4,49270
80,56,50127,6,0,B|48:80|56:112|48:144|80:168,1,128
136,112,50985,1,0
256,224,51842,5,4
256,72,52699,1,4
400,136,53556,6,0,B|440:168|360:224|400:256,1,128,8|8
472,232,54413,1,8
336,296,55270,5,2
176,296,56127,1,8
256,160,56985,5,0
176,32,57842,1,8
328,32,58699,1,0
256,160,59556,1,2
256,192,60413,12,2,62770
408,192,63842,5,8
104,192,65556,1,2
168,152,65985,1,8
168,232,66413,1,8
256,360,67270,5,2
256,56,68985,1,2
32,272,70699,5,0
86,217,71127,1,0
158,192,71556,1,0
291,116,72413,1,4
291,268,73270,1,4
424,192,74127,5,8
364,243,74556,1,8
291,269,74985,1,8
160,344,75842,1,2
160,192,76699,1,8
256,72,77556,5,0
408,72,78413,1,8
332,205,79270,1,0
180,205,80127,1,8
256,192,80985,12,0,84199
256,64,85913,5,4
256,320,86770,1,4
