osu file format v9

[General]
AudioFilename: Rhythmics - Happiness (Helblinde remix).mp3
AudioLeadIn: 250
PreviewTime: -1
Countdown: 1
SampleSet: Normal
StackLeniency: 0.3
Mode: 0
LetterboxInBreaks: 1

[Editor]
Bookmarks: -35,2788,8435,14082,19729,25376,31023,36670,42317,47964,53612,59259,64906,70553,76200,81847,87494,93141,98788,105847,111494,117141,122788,128435,134082,136376
DistanceSpacing: 0.6
BeatDivisor: 2
GridSize: 8

[Metadata]
Title:Happiness (Helblinde remix)
Artist:Rhythmics
Creator:Fapfrit
Version:Easy
Source:
Tags:Hitomi May grumd inaba-tan

[Difficulty]
HPDrainRate:1
CircleSize:3
OverallDifficulty:1
ApproachRate:1
SliderMultiplier:0.799999999999999
SliderTickRate:1

[Events]
//Background and Video events
0,0,"BG.jpg"
//Break Periods
2,48164,57494
//Storyboard Layer 0 (Background)
//Storyboard Layer 1 (Fail)
//Storyboard Layer 2 (Pass)
//Storyboard Layer 3 (Foreground)
//Storyboard Sound Samples
//Background Colour Transformations
3,100,0,0,0

[TimingPoints]
-35,352.941176470588,4,1,0,70,1,0
23964,-100,4,2,0,100,0,0
25376,-100,4,1,0,70,0,0
36670,-100,4,1,0,80,0,0
48141,-100,4,2,0,60,0,0
64906,-100,4,1,0,60,0,0
66317,-100,4,1,0,70,0,0
67729,-100,4,1,0,80,0,0
69141,-100,4,2,0,100,0,0
70553,-100,4,1,0,80,0,0
83259,-100,4,1,0,5,0,1
84670,-100,4,1,0,80,0,0
86082,-100,4,2,0,100,0,0
87494,-100,4,1,0,80,0,0
104435,-100,4,2,0,100,0,0
105847,-100,4,1,0,80,0,0
133376,-100,4,1,0,50,0,0
134082,-100,4,1,0,30,0,0

[Colours]
Combo1 : 255,0,0
Combo2 : 5,240,5
Combo3 : 5,5,240
Combo4 : 255,255,128

[HitObjects]
464,62,2787,2,0,B|472:200|432:312|432:312|368:336,1,320,0|8
272,336,4905,1,0
176,328,5611,6,0,B|152:248|200:104|368:104,1,320,0|8
424,160,7728,1,0
360,232,8434,6,0,B|256:224,1,79.9999999999999,4|0
240,256,9140,2,0,B|152:264,1,79.9999999999999
112,248,9846,1,8
64,168,10552,1,0
136,104,11258,6,0,B|232:96,1,79.9999999999999
256,128,11963,2,0,B|352:120,1,79.9999999999999
384,104,12670,2,0,B|440:112,4,40,8|0|0|0|0
80,344,14081,6,0,B|48:152|48:152|32:80|48:48|80:24,1,320,0|8
160,56,16199,1,0
248,104,16905,6,0,B|336:96,1,79.9999999999999
368,120,17611,2,0,B|448:136,1,79.9999999999999
440,184,18316,2,0,B|361:168,1,79.9999999999999,8|0
352,216,19022,2,0,B|432:232,1,79.9999999999999,0|0
448,280,19728,5,0
368,336,20434,1,0
272,336,21140,1,8
176,336,21846,1,0
80,344,22552,6,0,B|72:240,1,79.9999999999999
80,216,23258,1,8
96,168,23611,1,0
128,128,23963,6,0,B|168:144|168:144|296:128,1,160,0|4
320,40,25375,6,0,B|432:72|432:72|464:128,1,160,8|0
448,160,26434,1,0
400,168,26787,2,0,B|280:152|280:152|224:192,1,160,8|0
240,224,27846,1,0
272,256,28199,6,8,B|368:248|432:312,1,160,8|0
448,344,29258,1,0
400,344,29611,2,8,B|347:290|251:298,1,160,8|0
208,320,30669,1,0
160,336,31022,6,0,B|56:320,1,79.9999999999999,8|0
48,288,31728,2,0,B|48:200,1,79.9999999999999,0|0
72,168,32434,1,8
48,72,33140,1,0
144,56,33846,6,8,B|184:72|184:72|336:56,1,160,8|0
344,72,34905,1,0
392,88,35258,2,0,B|448:80,4,40,8|0|0|0|8
464,336,36669,6,0,B|384:328,1,79.9999999999999,8|0
344,296,37375,1,8
408,224,38081,2,0,B|400:128,1,79.9999999999999,8|0
360,112,38787,1,8
304,192,39493,6,0,B|224:208,1,79.9999999999999,8|0
176,192,40199,2,0,B|136:272,1,79.9999999999999
152,312,40905,2,0,B|72:328,1,79.9999999999999,8|0
48,288,41611,1,0
48,240,41963,1,0
72,200,42316,6,0,B|74:74|74:74|104:32,1,160,8|0
144,40,43375,1,0
184,72,43729,2,8,B|310:70|310:70|352:40,1,160,8|0
338,51,44787,1,0
256,192,45141,12,4,47964
320,40,59258,5,0
136,104,60669,5,2
136,200,61375,1,0
168,288,62081,1,0
320,168,63493,5,2
368,88,64199,1,0
448,32,64905,6,0,B|488:112|448:192,1,160,8|0
408,208,65963,1,0
360,192,66316,2,0,B|240:176|240:176|184:208,1,160,8|0
184,240,67375,1,0
168,288,67728,6,0,B|72:296,1,79.9999999999999,0|0
48,264,68434,1,8
120,200,69140,2,0,B|64:184|48:80|120:56,1,160,0|4
184,40,70552,5,0
224,72,70905,2,0,B|304:64,1,79.9999999999999,8|0
352,80,71611,1,0
400,80,71963,1,0
472,144,72669,1,8
432,232,73375,6,0,B|336:200|232:288|112:246,1,320
48,176,75493,1,8
136,128,76199,6,0,B|240:112,1,79.9999999999999,0|8
248,152,76905,2,0,B|168:164,1,79.9999999999999
120,152,77611,2,0,B|88:240,1,79.9999999999999
112,272,78316,1,8
192,328,79022,5,0
288,304,79728,2,0,B|376:312,1,79.9999999999999,0|8
408,288,80434,1,0
368,200,81140,6,0,B|456:208,1,79.9999999999999,0|8
480,176,81846,1,0
424,96,82552,1,0
264,64,83258,5,0
264,144,83611,5,0
264,224,83964,5,0
264,304,84316,5,0
304,336,84669,6,0,B|304:248,1,79.9999999999999,8|0
344,224,85375,2,0,B|344:136,1,79.9999999999999,0|0
312,112,86081,2,4,B|192:112|192:112|152:128,1,160,0|4
64,88,87493,5,0
40,128,87846,2,0,B|40:224,1,79.9999999999999,8|0
48,256,88552,1,0
96,240,88905,2,0,B|136:160|272:144|336:200,1,240,0|8
344,216,90316,6,0,B|440:208,1,79.9999999999999,0|8
456,176,91022,1,0
472,80,91728,2,0,B|384:120,1,79.9999999999999,0|8
352,96,92434,1,0
256,96,93140,5,4
88,192,94552,5,4
256,280,95964,5,4
256,88,97375,5,4
72,48,98787,5,4
80,144,99493,1,8
112,232,100199,5,0
184,296,100905,1,8
256,192,101612,12,4,105141
456,88,105846,6,0,B|376:80,1,79.9999999999999,0|8
344,112,106552,2,0,B|240:128,1,79.9999999999999,0|8
216,128,107258,1,0
168,144,107611,2,0,B|120:160|96:208,1,79.9999999999999,8|0
88,240,108316,1,8
128,272,108669,6,0,B|240:256|240:256|288:232,1,160
328,216,109728,1,8
368,184,110081,2,0,B|424:224|416:304|368:344,1,160
336,336,111140,1,8
288,320,111493,6,0,B|80:320|80:320|24:296,1,240,0|8
32,264,112905,2,0,B|288:264,1,240,0|8
312,240,114316,6,0,B|416:256,1,79.9999999999999,0|8
432,232,115022,1,0
472,144,115728,2,0,B|368:160,1,79.9999999999999,0|8
352,136,116434,1,0
256,136,117140,5,0
176,80,117846,1,0
168,128,118199,1,8
176,176,118552,1,0
264,216,119258,1,0
296,256,119611,1,8
312,304,119964,5,0
224,336,120669,2,0,B|144:328,1,79.9999999999999,0|8
112,296,121375,1,0
80,208,122081,2,0,B|159:215,1,79.9999999999999,0|8
200,240,122787,6,0,B|280:256|368:232|424:136,1,240,8|0
448,128,124199,2,0,B|408:312|408:312|368:352,1,240,8|0
320,352,125611,5,8
280,328,125964,2,0,B|200:328,1,79.9999999999999
160,352,126669,1,0
112,336,127022,1,8
80,304,127375,2,0,B|72:256|104:200,1,79.9999999999999
128,192,128081,1,0
176,184,128434,6,0,B|280:152|312:256|312:256|344:328|432:304|432:232,1,320,4|0
456,224,130199,2,0,B|440:136,1,79.9999999999999,0|8
408,112,130905,1,0
368,88,131258,6,0,B|248:112|248:112|184:80,1,160,8|0
176,64,132316,1,0
136,88,132669,2,0,B|56:200|160:336|304:264,1,320,8|4
