osu file format v5

[General]
AudioFilename: Remix10.mp3
AudioLeadIn: 0
PreviewTime: -1
Countdown: 1
SampleSet: Normal
StackLeniency: 0.7
Mode: 0
LetterboxInBreaks: 1

[Metadata]
Title:Rhythm Tengoku Gold Remix 10
Artist:Rhythm Tengoku Gold
Creator:Vytaan
Version:Hard
Source:Rhythm Tengoku
Tags:rhythm tengoku DS game music final stage

[Difficulty]
HPDrainRate:6
CircleSize:5
OverallDifficulty:6
SliderMultiplier:1.4
SliderTickRate:1

[Events]
//Background and Video events
1,1,"Remix10.avi"
0,0,"bg.JPG"
//Break Periods
2,56480,61606
2,110303,115429
//Storyboard Layer 0 (Background)
//Storyboard Layer 1 (Failing)
//Storyboard Layer 2 (Passing)
//Storyboard Layer 3 (Foreground)
//Storyboard Sound Samples
//Background Colour Transformations
3,100,163,162,255

[TimingPoints]
2462,375,4,1,0,70,1
146485,187.5375075015,4,1,0,70,1
152486,375.075015003001,4,1,0,70,1

[HitObjects]
256,200,8837,1,0
152,104,9208,1,0
256,8,9583,1,0
304,104,9864,2,0,C|304:312,1,175,0|8
160,280,10708,1,0
40,200,11083,1,0
40,128,11271,1,0
40,88,11364,2,0,L|40:24|168:24|168:24|168:24,1,175,0|8
288,24,12208,1,0
288,168,12583,1,0
192,216,12865,6,0,L|8:216,1,175,0|8
16,72,13709,1,8
160,72,14087,1,8
264,72,14365,1,2
416,160,14834,5,0
328,272,15209,1,0
184,272,15584,1,0
184,168,15865,2,0,L|184:56|280:56,1,175,0|8
384,56,16709,1,0
384,200,17084,1,0
328,240,17272,1,0
288,240,17366,2,0,L|176:240|176:136|176:24,1,315,0|2
48,248,18866,5,8
120,248,19053,1,0
120,248,19147,1,0
192,248,19335,1,8
264,248,19522,1,0
336,248,19710,1,8
144,88,20835,5,8
424,88,21585,1,8
216,280,22335,1,8
288,280,22523,1,8
256,72,23085,1,8
80,296,23836,5,8
224,296,24211,1,8
224,152,24586,1,8
368,152,24962,1,8
368,296,25336,2,8,L|312:216,1,70,8|10
176,88,26086,1,8
80,192,26461,5,0
152,192,26649,1,0
224,192,26836,1,8
224,48,27211,1,0
296,48,27399,1,0
368,48,27586,1,8
368,192,27961,1,0
368,264,28149,1,8
488,192,28524,2,0,L|488:272,1,70,0|2
416,264,28899,1,0
344,264,29087,1,8
200,272,29462,5,0
200,200,29649,1,0
200,128,29837,1,8
56,128,30212,1,0
56,200,30399,1,0
56,272,30587,1,8
200,272,30962,1,0
248,224,31150,1,8
352,128,31525,2,0,L|456:16,1,140
424,288,32603,5,0
320,264,32884,1,0
224,224,33165,1,0
136,168,33447,1,0
64,96,33728,1,2
80,232,34103,5,0
184,208,34384,1,0
280,168,34666,1,0
376,120,34947,1,0
464,64,35228,1,2
424,216,35650,5,0
320,184,35932,1,0
232,152,36166,1,0
136,112,36447,1,0
48,48,36729,1,2
48,136,36963,5,0
88,192,37151,1,0
136,136,37338,1,0
176,192,37526,1,0
224,136,37713,2,2,L|448:136,1,210
80,136,39214,5,0
192,48,39589,1,0
192,192,39964,1,0
256,192,40339,12,4,41464
408,192,42214,5,0
408,48,42589,1,0
288,120,42964,1,0
256,192,43340,12,4,44090
72,56,44465,6,0,L|120:136,1,70,0|8
144,176,44840,2,0,L|224:144,1,70,0|8
272,128,45215,1,0
312,184,45402,1,8
312,184,45496,1,2
456,80,45965,6,0,L|384:136,1,70,0|8
400,192,46340,2,0,L|400:264,1,70,0|8
328,264,46715,1,0
280,216,46903,1,8
280,216,46996,1,2
256,40,47465,6,0,L|256:120,1,70
256,176,47840,1,0
256,248,48028,1,0
256,320,48215,2,0,L|128:320,1,105
88,232,48778,1,0
88,160,48966,1,0
208,96,49341,2,0,L|208:16|296:16,1,140
280,152,50091,5,0
280,80,50278,1,0
352,80,50466,2,0,L|400:136,1,70
400,200,50841,2,0,L|344:256,1,70
280,248,51216,2,0,L|184:112,1,140
128,136,51779,1,0
56,136,51966,2,0,L|56:64,3,70
200,64,52904,5,0
200,136,53091,1,0
272,136,53279,1,0
272,208,53467,2,0,L|224:296,1,70
304,272,53842,2,0,L|360:320,1,70
408,272,54217,2,0,L|440:200,1,70
440,136,54592,1,0
440,64,54779,1,0
296,64,55154,1,0
152,64,55529,1,0
152,208,55905,1,0
24,144,56280,1,0
112,48,62656,5,0
256,48,63031,1,0
256,120,63219,1,0
256,264,63594,1,0
400,264,63969,1,0
400,120,64344,1,0
256,120,64719,1,0
112,120,65094,1,0
112,192,65281,1,0
112,336,65656,5,0
256,336,66032,2,0,L|256:264,1,70
400,264,66594,2,0,L|400:184,1,70
400,120,66969,1,0
288,32,67344,1,0
144,32,67719,1,0
144,176,68094,1,0
288,168,68470,5,0
288,32,68845,2,0,L|184:32,1,70
144,32,69220,2,0,L|144:200,1,140,0|0
232,272,69970,1,0
304,272,70157,1,0
376,272,70345,1,0
448,272,70532,1,0
448,128,70908,5,0
320,56,71283,1,0
320,128,71470,1,0
192,56,71845,2,0,L|128:112,1,70
32,192,72408,1,0
128,296,72783,2,0,L|240:192|320:312|480:192,1,490
384,88,74471,5,0
240,88,74846,1,0
136,184,75221,1,0
208,184,75408,1,0
264,224,75596,1,0
320,184,75784,1,0
376,224,75971,1,0
376,296,76159,1,0
376,296,76252,1,0
376,296,76346,1,0
72,112,77284,5,0
72,112,77378,1,0
72,112,77471,1,0
72,112,77659,2,0,L|160:112,1,70
144,184,78034,1,0
144,184,78128,1,0
144,184,78222,1,0
144,184,78409,2,0,L|64:184,1,70
72,256,78784,1,0
72,256,78878,1,0
72,256,78972,1,0
144,256,79159,1,0
144,256,79253,1,0
144,256,79347,1,0
160,56,80472,5,0
256,104,80753,1,0
352,56,81035,1,0
360,200,81410,1,0
304,240,81597,1,0
240,200,81785,1,0
184,248,81972,1,0
120,208,82160,1,0
120,136,82347,1,0
120,136,82441,1,0
120,136,82535,1,0
304,248,83098,5,0
296,104,83473,1,0
416,176,83848,1,0
272,176,84223,1,0
152,248,84598,1,0
288,200,84973,2,0,L|288:344,1,140
144,344,85723,2,0,L|-16:344,1,140
88,224,86473,5,0
192,128,86848,1,0
296,32,87223,1,0
392,128,87598,1,0
288,224,87973,1,0
336,272,88161,1,0
392,224,88349,1,0
344,168,88536,1,0
336,96,88724,1,0
192,104,89099,1,0
200,240,89474,5,0
80,176,89849,1,0
72,40,90224,1,0
208,40,90599,1,0
312,120,90974,1,0
312,184,91162,1,0
312,248,91349,1,0
312,312,91537,1,0
248,312,91724,1,0
144,224,92099,5,0
144,88,92474,1,0
280,88,92849,1,0
400,24,93225,1,0
400,160,93600,1,0
280,216,93975,1,0
160,152,94350,1,0
160,16,94725,1,0
40,88,95100,5,0
40,224,95475,1,0
144,304,95850,1,0
256,224,96225,1,0
368,304,96600,1,0
368,168,96975,1,0
256,88,97350,1,0
144,160,97725,1,0
144,24,98101,1,0
208,24,98288,1,0
256,56,100914,5,0
256,120,101101,1,0
256,288,102977,5,0
152,192,103352,1,0
256,96,103727,1,0
352,192,104102,1,0
352,48,104477,5,0
208,48,104852,1,0
208,120,105039,1,0
208,264,105414,1,0
64,264,105790,1,0
64,192,105977,2,0,L|64:56|216:56,1,280
352,56,107102,5,0
240,144,107477,1,0
352,232,107852,1,0
424,232,108040,1,0
424,88,108415,1,0
280,88,108790,1,0
160,168,109165,1,0
160,240,109353,2,0,L|48:240|48:72,1,280
72,56,116479,6,0,L|144:56,1,70
208,56,116854,1,0
208,128,117042,2,0,L|208:224,1,70
208,264,117417,1,0
400,184,117980,6,0,L|304:184,1,70
256,184,118355,1,0
208,128,118542,2,0,L|208:32,1,70
280,56,118917,1,0
168,240,119480,6,0,L|272:240,1,70
304,240,119855,1,0
376,240,120042,1,0
376,168,120230,1,0
304,168,120418,1,0
232,168,120605,2,0,L|160:168,1,70
88,168,120980,2,0,L|88:88,1,70
88,24,121355,1,0
160,24,121543,1,0
232,24,121730,1,0
304,24,121918,1,0
256,232,122480,5,0
256,160,122668,1,0
184,160,122855,1,0
112,160,123043,1,0
112,232,123231,1,0
112,304,123418,1,0
184,304,123606,1,0
256,304,123793,1,0
320,280,123981,2,0,L|392:224,1,70
424,184,124356,5,0
144,184,125106,5,0
384,48,125856,5,0
112,48,126606,5,0
208,144,126981,5,0
344,144,127356,5,0
344,280,127731,5,0
272,280,127919,1,0
200,280,128107,1,0
112,176,128482,5,0
248,176,128857,2,0,L|312:104,1,70
352,88,129232,2,0,L|352:184,1,70
352,224,129607,1,0
216,224,129982,2,0,L|216:296,1,70
280,288,130357,2,0,L|360:288,1,70
416,288,130732,1,0
416,160,131087,1,0
280,104,131482,5,0
208,216,131857,2,0,L|136:216,1,70
88,168,132232,2,0,L|32:104,1,70
48,48,132607,1,0
184,48,132983,2,0,L|256:48,1,70
256,112,133358,2,0,L|256:40,1,70
320,48,133733,1,0
456,48,134108,1,0
344,96,134483,6,0,L|344:280|104:280,1,420
40,280,135796,1,0
40,64,136358,1,0
112,64,136546,1,0
216,248,137108,5,0
288,248,137296,2,0,L|288:88,1,140
288,32,137859,1,0
232,72,138046,1,0
176,32,138234,1,0
120,72,138421,1,0
120,144,138609,2,0,L|120:240,1,70
176,256,138984,5,0
248,256,139171,1,0
248,184,139359,1,0
392,184,139734,1,0
392,256,139921,1,0
464,256,140109,1,0
256,192,140672,12,0,145735
56,104,146860,6,0,L|344:104,1,280
432,216,147610,2,0,L|152:216,1,280
152,32,149485,6,0,L|152:328,1,280
336,312,150235,2,0,L|336:24,1,280
160,64,152486,5,0
208,112,152673,1,0
256,64,152861,1,0
304,112,153048,1,0
360,64,153236,2,0,L|360:232,1,140
360,344,153986,1,0
312,288,154173,1,0
168,288,154548,2,0,L|168:72,1,210
304,40,155486,5,0
440,80,155861,1,0
440,224,156236,1,0
304,272,156611,1,0
160,272,156986,6,0,B|96:232|224:232|248:232|96:200|96:200|248:192|248:192|96:160|96:160,1,455
488,40,159237,5,0
360,104,159612,1,0
224,48,159987,1,0
96,104,160362,1,0
224,168,160737,1,0
224,312,161112,1,0
80,312,161487,2,0,B|80:240,4,70
80,168,162613,1,0
200,88,162988,5,0
200,88,163081,1,0
200,88,163175,1,0
272,88,163363,1,0
272,232,163738,1,0
272,232,163832,1,0
272,232,163925,1,0
344,232,164113,1,0
344,128,164394,1,0
168,128,164863,5,0
24,128,165238,1,0
104,8,165613,1,0
208,8,165894,2,0,C|208:200,1,175
352,184,166738,1,0
344,328,167113,1,0
272,328,167301,1,0
272,288,167394,2,0,L|272:224|400:224|400:224|400:224,1,175
384,80,168238,1,0
240,80,168613,1,0
240,184,168895,6,0,L|64:184,1,175
64,40,169739,1,0
208,40,170114,1,0
312,40,170395,1,0
312,216,170864,5,0
200,304,171239,1,0
88,216,171614,1,0
192,216,171895,2,0,L|192:104|280:104,1,175
392,104,172739,1,0
392,248,173114,1,0
320,248,173302,1,0
280,248,173396,2,0,L|168:248|168:144|168:40,1,315
80,272,174896,5,0
152,272,175084,1,0
152,272,175178,1,0
224,272,175365,1,0
296,272,175553,1,0
368,272,175740,1,0
368,128,176115,1,0
256,192,176397,12,0,177991
256,192,178928,5,0
256,192,179210,1,0
256,192,179491,1,0
