osu file format v5

[General]
AudioFilename: Rhymes_With_Stomach-Rainbow_Road.mp3
AudioLeadIn: 0
PreviewTime: -1
Countdown: 1
SampleSet: None
StackLeniency: 0.7
Mode: 0
LetterboxInBreaks: 1

[Metadata]
Title:Rainbow Road
Artist:Rhymes With Stomach
Creator:WolfRhapsody
Version:"Where you go, when you die."
Source:
Tags:

[Difficulty]
HPDrainRate:6
CircleSize:6
OverallDifficulty:7
SliderMultiplier:1.3
SliderTickRate:1

[Events]
//Background and Video events
0,0,"mario-kart-64.jpg"
//Break Periods
//Storyboard Layer 0 (Background)
//Storyboard Layer 1 (Failing)
//Storyboard Layer 2 (Passing)
//Storyboard Layer 3 (Foreground)
//Storyboard Sound Samples
//Background Colour Transformations
3,100,163,162,255

[TimingPoints]
7356,412.384843869256,4,0,0,50,1

[Colours]
Combo1 : 255,0,0
Combo2 : 128,0,255
Combo3 : 0,0,160
Combo4 : 0,255,0
Combo5 : 255,255,0

[HitObjects]
0,192,1227,6,8,B|352:192|352:192,4,325
256,192,5472,12,4,6964
256,192,7024,12,4,8610
256,192,8628,12,4,10152
256,192,10245,12,4,11935
256,192,12012,5,0
192,192,12171,1,0
128,192,12381,1,0
160,128,12544,1,0
224,128,12961,1,0
288,128,13187,1,0
352,128,13354,5,0
320,160,13592,1,0
288,192,13778,1,0
224,192,14174,2,10,L|96:192,2,128
192,128,15441,1,0
256,128,15667,1,0
320,128,15892,1,0
224,192,16312,1,0
160,192,16506,1,0
160,256,16762,6,10,L|352:256,3,130
352,224,18555,5,0
288,224,18763,1,0
224,224,18977,1,0
160,224,19185,1,0
96,224,19585,1,0
128,160,19803,5,0
192,128,20003,1,0
256,96,20235,1,0
320,64,20422,1,0
320,128,20817,2,10,L|192:128,3,128
160,224,22298,5,0
224,192,22497,1,0
288,128,22977,2,10,L|160:128,2,128,10|2|10
96,128,24123,5,0
96,64,24540,1,0
192,64,25289,1,0
256,64,25466,5,0
320,64,25653,1,0
352,128,25809,1,0
288,128,26195,1,0
224,128,26370,1,0
160,128,26620,5,0
96,160,26819,1,0
64,224,27043,1,0
96,288,27440,2,10,L|224:288,2,128,2|10|2
256,288,28713,1,0
256,224,28907,5,0
256,160,29091,1,0
224,96,29536,1,0
192,160,29806,2,10,L|320:160,5,128
128,96,32193,5,0
96,32,32354,1,0
160,32,32809,1,0
192,32,32989,1,0
224,32,33218,2,10,L|224:192,3,130
192,192,34618,1,0
160,160,34797,5,0
128,128,34975,6,10,L|492:52|480:32,2,390
448,32,38433,5,0
384,32,38635,1,0
320,32,38864,1,0
256,32,39107,1,0
256,64,39370,1,0
256,96,39522,5,0
320,96,40027,1,0
288,96,40273,1,0
256,96,40515,1,0
224,128,40754,1,0
192,160,41091,5,0
128,160,41330,1,0
128,224,41740,1,0
160,224,41964,1,0
224,224,42164,1,0
288,224,42395,5,0
384,224,42722,1,0
384,224,42933,1,0
352,160,43357,1,0
288,160,43533,1,0
224,160,43780,5,0
160,160,44013,1,0
160,160,44124,1,0
192,96,44388,1,0
224,96,44584,1,0
320,96,45107,5,0
320,32,45302,1,0
256,32,45486,1,0
192,32,45711,1,0
128,32,45917,1,0
64,32,46097,5,0
64,96,46290,1,0
64,224,46656,1,0
64,288,46868,1,0
64,352,47099,1,0
128,352,47313,5,0
160,352,47402,1,0
160,320,47701,1,0
160,288,47914,1,0
160,288,48388,6,10,L|448:288,5,260
160,224,52928,1,0
160,160,53114,1,0
160,64,54100,5,0
160,64,54252,1,0
224,64,54586,1,0
288,64,54800,2,8,L|288:288,2,130
192,192,56141,1,0
96,192,56394,1,0
96,160,56604,1,0
160,160,57273,5,0
192,160,57424,1,0
256,160,57876,1,0
288,160,58127,2,10,L|0:160,2,260
0,96,60510,5,0
64,96,60697,1,0
128,96,61097,1,0
192,96,61372,1,0
256,96,61561,1,0
256,160,61568,6,10,L|0:160,3,130
96,160,63035,2,10,L|36:125|128:0,5,130
160,192,65723,5,0
160,128,66164,1,0
160,64,66354,1,0
224,64,67163,1,0
256,64,67338,1,0
288,128,67812,5,0
288,160,68042,2,8,C|288:320,2,130
224,288,69337,5,0
160,224,69570,1,0
224,160,69852,1,0
160,96,70708,1,0
96,160,71148,1,0
192,224,71464,2,10,L|448:224,5,130
320,160,73883,5,0
320,128,74021,1,0
192,128,74333,1,0
192,160,74580,1,0
256,160,74806,2,10,L|256:0,5,130
256,160,77393,1,0
384,96,78152,6,10,L|64:96,2,260
64,128,80672,1,0
0,128,81060,1,0
0,64,81445,2,10,L|416:64,2,390
352,128,84803,5,0
256,128,85220,1,0
160,128,85601,1,0
64,128,85999,5,0
160,128,86408,1,0
256,128,86819,1,0
352,128,87224,5,0
256,128,87658,1,0
160,128,88093,1,0
64,128,88477,5,0
160,128,88876,1,0
256,128,89307,1,0
352,128,89716,5,0
448,128,90124,5,0
448,224,90541,5,0
352,224,90938,5,0
256,224,91378,1,0
224,224,91588,1,0
192,224,91777,1,0
160,224,92006,1,0
160,128,92395,5,0
224,128,92593,1,0
288,128,92774,1,0
352,128,92979,1,0
352,192,93153,1,0
288,192,93658,6,10,L|128:192,2,130
160,160,94897,5,0
160,128,95090,1,0
160,96,95317,1,0
160,32,95748,1,0
192,32,95917,1,0
192,96,96301,6,10,L|192:256,3,130
160,224,97973,5,0
128,224,98261,1,0
96,224,98423,1,0
64,224,98593,1,0
64,160,98993,1,0
128,160,99202,1,0
192,160,99420,5,0
256,160,99641,1,0
256,224,99811,1,0
192,224,100242,2,10,L|192:384,3,130
224,352,101770,5,0
256,352,101953,1,0
320,352,102377,1,0
320,256,103402,1,0
320,224,103569,1,0
320,160,103953,5,0
256,160,104594,1,0
192,160,104843,1,0
160,160,105050,1,0
128,128,105229,1,0
160,96,105652,5,0
192,64,105846,1,0
256,64,106043,1,0
320,64,106273,1,0
384,64,106498,1,0
384,128,106915,6,10,L|224:128,2,130
192,128,108158,1,0
128,128,108348,1,0
160,64,108544,1,0
224,64,108961,1,0
288,64,109153,5,0
256,128,109424,6,10,L|544:128,2,260
512,192,111820,1,0
448,192,112284,1,0
384,192,112467,1,0
320,192,112693,1,0
256,192,112764,6,10,L|96:192,1,130
96,192,113920,5,0
128,160,114163,5,0
256,192,114369,6,10,L|128:128|288:64|288:64|320:96|288:128|288:128|320:160|320:160|288:192|224:224,2,520
