osu file format v12

[General]
AudioFilename: jumping!!.mp3
AudioLeadIn: 0
PreviewTime: 60455
Countdown: 0
SampleSet: Soft
StackLeniency: 0.5
Mode: 0
LetterboxInBreaks: 1
WidescreenStoryboard: 1

[Editor]
Bookmarks: 122849,165020
DistanceSpacing: 1.1
BeatDivisor: 4
GridSize: 4
TimelineZoom: 1.5

[Metadata]
Title:Jumping!!
TitleUnicode:Jumping!!
Artist:Rhodanthe*
ArtistUnicode:Rhodanthe*
Creator:yf_bmp
Version:Fycho's Hard
Source:Kin-iro Mosaic
Tags:Fycho sammy711 Sharlo opening op studio gokumi kinmoza kiniro oomiya shinobu alice cartelet inokuma youko komichi aya kujou karen karasuma sakura isami
BeatmapID:388580
BeatmapSetID:152595

[Difficulty]
HPDrainRate:6
CircleSize:4
OverallDifficulty:6
ApproachRate:8
SliderMultiplier:1.5
SliderTickRate:1

[Events]
//Background and Video events
0,0,"BG.png",0,0
//Break Periods
2,84991,93299
2,194163,203013
//Storyboard Layer 0 (Background)
//Storyboard Layer 1 (Fail)
//Storyboard Layer 2 (Pass)
//Storyboard Layer 3 (Foreground)
//Storyboard Sound Samples
//Background Colour Transformations
3,100,163,162,255

[TimingPoints]
3535,342.857142857143,4,2,1,70,1,0
4906,-125,4,2,3,70,0,0
15877,-100,4,2,3,80,0,0
16563,-100,4,2,3,60,0,0
16906,-100,4,2,1,80,0,0
17249,-100,4,2,1,90,0,1
17592,-100,4,2,1,60,0,1
17677,-100,4,2,1,90,0,1
22392,-90.9090909090909,4,2,1,90,0,1
22735,-100,4,2,1,90,0,1
28220,-100,4,2,2,80,0,0
38163,-100,4,2,2,80,0,0
38677,-100,4,2,2,80,0,0
49135,-100,4,2,2,80,0,0
49306,-100,4,2,3,60,0,0
49820,-100,4,2,3,40,0,0
50163,-100,4,2,2,40,0,0
50506,-125,4,2,2,60,0,0
58392,-100,4,2,1,60,0,0
59592,-100,4,2,2,60,0,0
60792,-83.3333333333333,4,2,1,60,0,0
61049,-100,4,2,1,20,0,0
61135,-100,4,2,1,90,0,1
71506,-100,4,2,1,50,0,1
71763,-100,4,2,3,40,0,0
71935,-100,4,2,1,50,0,0
72106,-100,4,2,1,90,0,1
82477,-100,4,2,1,50,0,1
82735,-100,4,2,3,50,0,1
82906,-100,4,2,1,50,0,1
84106,-100,4,2,1,50,0,1
84449,-100,4,2,1,50,0,0
84792,-100,4,2,1,70,0,1
84877,-100,4,2,1,80,0,0
95420,-100,4,2,2,80,0,0
105363,-100,4,2,2,80,0,0
106392,-100,4,2,2,80,0,0
116335,-100,4,2,2,80,0,0
116506,-100,4,2,3,80,0,0
116849,-100,4,2,3,50,0,0
117363,-100,4,2,2,40,0,0
117706,-125,4,2,2,80,0,0
125592,-100,4,2,1,80,0,0
126792,-100,4,2,2,80,0,0
127649,-100,4,2,2,30,0,0
127992,-83.3333333333333,4,2,1,80,0,0
128249,-100,4,2,1,10,0,0
128335,-100,4,2,1,90,0,1
138620,-100,4,2,1,90,0,1
138706,-100,4,2,1,50,0,1
138963,-100,4,2,3,40,0,0
139049,-83.3333333333333,4,2,1,40,0,0
139306,-100,4,2,1,90,0,1
149935,-100,4,1,3,70,0,1
150277,-100,4,2,1,70,0,1
151306,-100,4,2,1,90,0,1
151649,-100,4,2,1,80,0,0
154392,-100,4,2,1,50,0,0
154735,-100,4,2,3,50,0,0
154992,-100,4,2,1,20,0,0
155077,-100,4,2,3,30,0,0
155249,-100,4,2,1,20,0,0
155420,-100,4,2,1,50,0,0
155763,-100,4,2,1,70,0,0
169477,-125,4,2,1,50,0,0
171877,-100,4,2,1,70,0,0
174449,-100,4,2,3,40,0,0
174792,-100,4,2,1,40,0,0
174963,-125,4,2,1,50,0,0
177363,-100,4,2,1,70,0,0
179763,-100,4,2,1,50,0,0
180449,-100,4,2,1,70,0,0
190735,-100,4,2,1,50,0,0
191420,-100,4,2,1,70,0,0
192792,-100,4,2,1,50,0,0
193820,-100,4,2,1,70,0,0
194163,-100,4,2,1,30,0,0
203592,-100,4,2,1,50,0,0
204106,-100,4,2,1,70,0,0
204449,-100,4,2,1,50,0,0
204792,-100,4,2,3,70,0,0
204877,-100,4,2,3,50,0,0
204963,-100,4,2,3,40,0,0
205135,-100,4,2,1,90,0,1
210277,-100,4,2,1,90,0,1
210620,-100,4,2,1,90,0,1
215506,-100,4,2,1,50,0,1
215763,-100,4,2,3,50,0,0
215935,-100,4,2,1,40,0,0
216106,-100,4,2,1,90,0,1
221249,-100,4,2,1,90,0,1
221592,-100,4,2,1,90,0,1
226563,-100,4,2,3,60,0,1
226735,-100,4,2,3,40,0,1
227077,-100,4,2,1,60,0,1
227420,-100,4,2,1,80,0,1
227763,-100,4,2,1,70,0,1
227849,-100,4,2,1,50,0,1
228106,-100,4,2,3,50,0,1
228192,-100,4,2,1,50,0,1
228449,-100,4,2,2,80,0,0
228706,-100,4,2,2,10,0,0
228792,-100,4,2,2,80,0,1
229049,-100,4,2,2,10,0,1
229135,-100,4,2,1,80,0,1
233935,-100,4,2,1,60,0,1
234106,-100,4,2,1,80,0,1
238049,-100,4,2,1,80,0,1
239077,-100,4,2,1,80,0,1
239249,-100,4,2,1,60,0,1
239420,-100,4,2,1,80,0,0
241306,-133.333333333333,4,2,3,20,0,0

[Colours]
Combo1 : 255,255,0
Combo2 : 255,0,128
Combo3 : 255,255,85
Combo4 : 255,128,64
Combo5 : 0,128,255
Combo6 : 255,0,0
Combo7 : 108,0,217
Combo8 : 255,128,0

[HitObjects]
166,42,4906,6,0,P|128:86|130:145,1,120,0|8,0:0|0:0,0:0:0:0:
167,222,5420,1,8,0:0:0:0:
167,222,5592,2,0,P|212:241|283:223,1,120,0|8,0:0|0:0,0:0:0:0:
443,155,6277,6,0,L|434:89,2,60,0|0|8,0:0|0:0|0:0,0:0:0:0:
400,224,6792,2,0,L|385:350,1,120,8|0,0:0|0:0,0:0:0:0:
312,325,7306,2,0,L|252:317,1,60,8|0,0:0|0:0,0:0:0:0:
170,324,7649,6,0,P|156:280|140:200,1,120,2|10,0:0|0:0,0:0:0:0:
170,130,8163,1,8,0:0:0:0:
239,185,8335,2,0,P|282:190|356:147,1,120,2|10,0:0|0:0,0:0:0:0:
481,216,9020,6,0,L|467:87,1,120,2|8,0:0|0:0,0:0:0:0:
407,39,9535,2,0,P|345:38|312:89,1,120,10|2,0:0|0:0,0:0:0:0:
235,33,10049,1,8,0:0:0:0:
235,33,10392,70,0,P|199:38|165:46,1,60,0|0,0:0|0:0,0:0:0:0:
126,101,10735,2,0,P|100:79|89:51,1,60,8|8,0:0|0:0,0:0:0:0:
47,143,11077,2,0,P|39:198|28:275,2,120,0|8|0,0:0|0:0|0:0,0:0:0:0:
125,102,11935,5,0,0:0:0:0:
200,144,12106,1,8,0:0:0:0:
271,102,12277,2,0,P|313:84|388:113,1,120,8|0,0:0|0:0,0:0:0:0:
397,187,12792,2,0,L|397:250,1,60,8|0,0:0|0:0,0:0:0:0:
475,182,13135,6,0,L|475:55,1,120,2|8,0:0|0:0,0:0:0:0:
408,17,13649,1,8,0:0:0:0:
330,43,13820,2,0,L|255:43,1,60,2|0,0:0|0:0,0:0:0:0:
191,19,14163,1,8,0:0:0:0:
42,130,14506,6,0,B|134:117|134:117|165:126,1,120,0|8,0:0|0:0,0:0:0:0:
164,204,15020,2,0,P|147:261|164:318,1,120,8|0,0:0|0:0,0:0:0:0:
230,368,15535,1,8,0:0:0:0:
230,368,15877,6,0,L|316:354,1,75,2|0,0:0|0:0,0:0:0:0:
355,266,16220,2,0,L|280:278,1,75,2|0,0:0|0:0,0:0:0:0:
234,196,16563,2,0,L|320:182,1,75,0|0,3:0|3:0,0:0:0:0:
363,108,16906,1,8,0:0:0:0:
363,108,17249,6,0,P|425:62|505:81,2,150,4|12|8,0:1|0:0|0:3,0:0:0:0:
300,168,18106,1,10,0:3:0:0:
228,133,18277,2,0,P|188:129|148:120,1,75,8|0,0:0|0:0,0:0:0:0:
98,186,18620,6,0,P|91:246|86:343,1,150,10|8,0:3|0:0,0:0:0:0:
165,316,19135,2,0,P|228:312|305:355,1,150,10|10,0:3|0:3,0:0:0:0:
381,300,19649,2,0,L|388:376,1,75,8|0,0:0|0:0,0:0:0:0:
465,318,19992,5,8,0:3:0:0:
487,237,20163,2,0,L|489:159,2,75,2|8|0,0:0|0:0|0:0,0:0:0:0:
401,172,20677,1,8,0:3:0:0:
437,98,20849,2,0,L|522:80,2,75,2|8|0,0:0|0:0|0:0,0:0:0:0:
339,127,21363,86,0,P|274:120|241:47,1,150,10|8,0:3|0:0,0:0:0:0:
157,24,21877,2,0,B|43:31|43:31|9:72,1,150,10|8,0:3|0:3,0:0:0:0:
31,156,22392,102,0,P|75:140|95:104,1,82.5000025177003,8|0,0:0|0:0,0:0:0:0:
37,282,22735,6,0,L|113:268,1,75,10|0,0:3|0:0,0:0:0:0:
193,251,23077,2,0,P|251:205|324:213,1,150,12|8,0:0|0:3,0:0:0:0:
365,288,23592,1,10,0:3:0:0:
445,319,23763,1,8,0:0:0:0:
512,274,23935,1,0,0:0:0:0:
512,189,24106,6,0,L|499:115,1,75,10|0,0:3|0:0,0:0:0:0:
414,105,24449,1,8,0:0:0:0:
426,189,24620,2,0,P|434:231|450:357,1,150,10|10,0:3|0:3,0:0:0:0:
361,298,25135,2,0,P|323:304|278:323,1,75,8|0,0:0|0:0,0:0:0:0:
218,349,25477,5,8,0:3:0:0:
132,336,25649,1,2,0:0:0:0:
98,252,25820,1,8,0:0:0:0:
147,182,25992,1,0,0:0:0:0:
231,210,26163,2,0,P|271:209|308:206,1,75,8|2,0:3|0:0,0:0:0:0:
372,150,26506,2,0,L|380:65,1,75,8|0,0:0|0:0,0:0:0:0:
276,26,26849,70,0,P|228:69|252:164,1,150,12|0,0:0|0:0,0:0:0:0:
339,248,27363,2,0,L|299:86,1,150,12|0,0:0|0:0,0:0:0:0:
199,62,27877,2,0,L|115:64,1,75,8|8,0:0|0:0,0:0:0:0:
24,58,28220,53,12,0:3:0:0:
69,282,28563,2,0,B|116:270|116:270|163:276|163:276|218:259,1,150,8|8,0:0|0:3,0:0:0:0:
221,180,29077,2,0,P|261:170|296:163,1,75,0|8,0:0|0:0,0:0:0:0:
341,234,29420,6,0,B|391:264|442:262|442:262|481:239,1,150,8|0,0:3|0:0,0:0:0:0:
498,157,29935,2,0,P|491:104|485:70,1,75,8|0,0:0|0:0,0:0:0:0:
413,42,30277,1,8,0:3:0:0:
413,42,30449,1,0,0:0:0:0:
346,90,30620,2,0,P|309:96|271:101,1,75,8|0,0:0|0:0,0:0:0:0:
185,106,30963,6,0,P|130:77|39:108,1,150,8|8,0:3|0:0,0:0:0:0:
47,187,31477,1,0,0:0:0:0:
104,253,31649,2,0,L|95:340,1,75,8|8,0:3|0:3,0:0:0:0:
185,326,31992,1,8,0:0:0:0:
237,253,32163,6,0,P|300:215|373:223,1,150,8|0,0:3|0:0,0:0:0:0:
452,286,32677,2,0,L|459:127,1,150,8|8,0:0|0:3,0:0:0:0:
408,70,33192,1,8,0:3:0:0:
336,118,33363,2,0,P|298:124|255:120,1,75,8|0,0:0|0:0,0:0:0:0:
167,87,33706,69,8,0:3:0:0:
167,87,34049,1,8,0:0:0:0:
140,168,34220,2,0,P|130:243|127:318,1,150,0|8,0:0|0:3,0:0:0:0:
49,302,34735,1,8,0:0:0:0:
47,218,34906,6,0,P|50:123|48:62,1,150,8|8,0:3|0:3,0:0:0:0:
112,9,35420,2,0,P|179:34|191:113,1,150,8|8,0:0|0:3,0:0:0:0:
212,188,35935,1,8,0:3:0:0:
274,242,36106,2,0,L|261:318,1,75,8|0,0:0|0:0,0:0:0:0:
356,286,36449,5,8,0:3:0:0:
356,286,36620,1,0,0:0:0:0:
444,257,36792,1,8,0:0:0:0:
444,257,36963,2,0,L|461:86,1,150,0|8,0:0|0:3,0:0:0:0:
400,46,37477,1,8,0:0:0:0:
316,65,37649,6,0,P|315:149|370:185,1,150,8|8,0:3|0:3,0:0:0:0:
416,243,38163,1,8,0:0:0:0:
360,308,38335,2,0,B|258:321|258:321|219:347,1,150,8|8,0:3|0:3,0:0:0:0:
140,361,38849,1,8,3:2:0:0:
57,352,39020,1,0,3:0:0:0:
23,276,39192,70,0,P|23:191|28:122,1,150,4|8,0:0|0:0,0:0:0:0:
85,67,39706,1,0,0:0:0:0:
131,136,39877,2,0,P|171:142|204:141,1,75,8|8,0:3|0:3,0:0:0:0:
282,103,40220,1,8,0:0:0:0:
345,165,40392,6,0,P|411:177|470:112,1,150,8|8,0:3|0:3,0:0:0:0:
461,204,40906,2,0,L|481:282,1,75,8|0,0:0|0:0,0:0:0:0:
400,302,41249,1,8,0:3:0:0:
400,302,41420,2,0,L|394:386,2,75,8|8|0,0:3|0:0|0:0,0:0:0:0:
319,288,41935,6,0,P|283:296|240:298,1,75,8|0,0:3|0:0,0:0:0:0:
194,229,42277,2,0,P|186:193|184:150,1,75,8|0,0:0|0:0,0:0:0:0:
273,171,42620,1,8,0:3:0:0:
359,192,42792,1,8,0:3:0:0:
426,130,42963,1,8,0:0:0:0:
394,44,43135,6,0,L|241:26,1,150,8|8,0:3|0:3,0:0:0:0:
207,115,43649,2,0,L|54:97,1,150,8|8,0:0|0:3,0:0:0:0:
0,161,44163,1,8,0:3:0:0:
52,233,44335,2,0,L|36:312,1,75,8|0,0:0|0:0,0:0:0:0:
114,354,44677,69,8,0:3:0:0:
114,354,45020,1,8,0:0:0:0:
162,280,45192,2,0,P|232:293|276:364,1,150,0|8,0:0|0:3,0:0:0:0:
353,349,45706,1,8,0:0:0:0:
407,286,45877,6,0,B|392:221|392:221|400:198|400:198|385:134,1,150,0|0,0:0|0:0,0:0:0:0:
374,61,46392,2,0,P|307:63|273:147,1,150,8|8,0:0|0:3,0:0:0:0:
291,209,46906,1,8,0:3:0:0:
266,287,47077,2,0,L|191:298,1,75,8|0,0:0|0:0,0:0:0:0:
114,274,47420,5,8,0:3:0:0:
60,206,47592,1,0,0:0:0:0:
85,113,47763,1,8,0:0:0:0:
144,184,47935,2,0,P|219:194|271:146,1,150,8|8,0:3|0:3,0:0:0:0:
336,196,48449,1,8,0:0:0:0:
412,172,48620,6,0,L|389:24,1,150,8|8,0:3|0:3,0:0:0:0:
305,29,49135,1,8,0:0:0:0:
268,113,49306,2,0,L|257:266,1,150,8|8,0:3|0:3,0:0:0:0:
385,318,49820,1,4,0:3:0:0:
335,245,49992,1,0,0:0:0:0:
245,351,50163,69,4,0:1:0:0:
245,351,50506,2,0,L|186:351,1,60,0|8,0:0|0:3,0:0:0:0:
105,324,50849,2,0,P|95:267|137:217,1,120,0|0,0:0|0:0,0:0:0:0:
216,236,51363,6,0,B|256:242|278:224|278:224|300:204|341:215,2,120,8|0|8,0:3|0:0|0:3,0:0:0:0:
216,236,52392,1,8,0:3:0:0:
237,141,52563,2,0,L|314:137,1,60,8|0,0:0|0:0,0:0:0:0:
393,130,52906,69,8,0:3:0:0:
393,130,53249,2,0,L|393:189,1,60,0|8,0:0|0:3,0:0:0:0:
366,270,53592,2,0,P|309:280|259:238,1,120,0|0,0:0|0:0,0:0:0:0:
278,159,54106,6,0,B|284:119|266:97|266:97|246:75|257:34,2,120,8|0|8,0:3|0:0|0:3,0:0:0:0:
278,159,55135,1,8,0:3:0:0:
183,138,55306,2,0,L|179:61,1,60,8|0,0:0|0:0,0:0:0:0:
104,29,55649,5,8,0:3:0:0:
37,197,55992,2,0,L|54:266,1,60,0|8,0:0|0:3,0:0:0:0:
109,308,56335,2,0,P|183:309|227:354,1,120,0|0,0:0|0:0,0:0:0:0:
294,329,56849,6,0,B|337:335|368:319|368:319|377:271,2,120,8|0|8,0:3|0:0|0:3,0:0:0:0:
256,257,57706,2,0,L|253:185,1,60,0|0,0:0|0:0,0:0:0:0:
331,145,58049,2,0,L|333:204,1,60,8|0,0:0|0:0,0:0:0:0:
256,256,58392,6,0,L|164:266,1,75,4|0,0:0|0:0,0:0:0:0:
334,204,58735,2,0,L|408:195,1,75,8|0,0:0|0:0,0:0:0:0:
253,167,59077,6,0,L|243:75,1,75,0|0,0:0|0:0,0:0:0:0:
334,204,59420,1,8,0:0:0:0:
323,45,59592,1,4,0:0:0:0:
323,45,59935,5,4,0:0:0:0:
464,118,60106,1,4,0:0:0:0:
334,204,60277,1,4,0:0:0:0:
334,204,60792,6,0,B|297:218|263:209|263:209|225:199|190:215,1,134.999995880127,8|0,0:0|0:0,0:0:0:0:
153,271,61135,102,0,L|78:278,1,75,12|0,0:3|0:0,0:0:0:0:
34,199,61477,2,0,P|30:161|42:126,1,75,8|0,0:0|0:0,0:0:0:0:
120,84,61820,2,0,P|193:95|255:56,1,150,10|8,0:3|0:0,0:0:0:0:
342,49,62335,1,0,0:0:0:0:
393,119,62506,6,0,L|404:202,1,75,10|0,0:3|0:0,0:0:0:0:
358,270,62849,1,8,0:0:0:0:
274,238,63020,2,0,P|210:231|150:299,1,150,10|10,0:3|0:3,0:0:0:0:
94,213,63535,2,0,L|75:137,1,75,10|0,0:0|0:0,0:0:0:0:
17,254,63877,6,0,L|7:337,1,75,10|0,0:3|0:0,0:0:0:0:
102,294,64220,2,0,L|92:377,1,75,8|0,0:0|0:0,0:0:0:0:
195,230,64563,2,0,L|185:313,1,75,10|8,0:3|0:3,0:0:0:0:
280,270,64906,2,0,L|270:353,1,75,8|0,0:0|0:0,0:0:0:0:
362,326,65249,6,0,P|424:287|495:304,1,150,10|8,0:3|0:0,0:0:0:0:
483,209,65763,2,0,L|469:49,1,150,10|10,0:3|0:3,0:0:0:0:
397,18,66277,1,10,0:0:0:0:
327,68,66449,1,0,0:0:0:0:
245,40,66620,70,0,P|170:33|118:92,2,150,12|8|10,0:3|0:0|0:3,0:0:0:0:
272,123,67477,1,8,0:3:0:0:
257,209,67649,2,0,L|251:294,1,75,8|0,0:0|0:0,0:0:0:0:
352,342,67992,6,0,L|338:262,1,75,10|0,0:3|0:0,0:0:0:0:
257,210,68335,1,8,0:0:0:0:
170,275,68506,2,0,P|96:285|30:251,1,150,10|10,0:3|0:3,0:0:0:0:
49,165,69020,2,0,P|59:130|61:92,1,75,10|0,0:0|0:0,0:0:0:0:
125,18,69363,5,8,0:3:0:0:
179,96,69535,1,2,0:0:0:0:
268,65,69706,2,0,P|282:99|282:136,1,75,10|0,0:0|0:0,0:0:0:0:
240,239,70049,1,8,0:3:0:0:
167,168,70220,1,10,0:3:0:0:
287,145,70392,2,0,P|322:137|365:130,1,75,10|0,0:0|0:0,0:0:0:0:
445,87,70735,6,0,P|478:152|468:226,1,150,8|8,1:3|1:3,0:0:0:0:
386,270,71249,1,0,0:0:0:0:
304,222,71420,2,0,L|265:222,2,37.5,8|8|8,0:0|0:0|0:0,0:0:0:0:
239,131,71763,2,0,L|191:123,2,37.5,8|0|8,1:3|1:0|0:0,0:0:0:0:
358,157,72106,70,0,P|431:166|478:111,2,150,12|8|10,0:3|0:0|0:3,0:0:0:0:
318,241,72963,1,8,0:3:0:0:
318,241,73135,2,0,L|314:316,1,75,8|0,0:0|0:0,0:0:0:0:
234,347,73477,5,10,0:3:0:0:
146,348,73649,1,0,0:0:0:0:
104,273,73820,1,8,0:0:0:0:
146,196,73992,2,0,P|135:112|75:77,1,150,10|10,0:3|0:3,0:0:0:0:
27,150,74506,2,0,L|19:233,1,75,10|0,0:0|0:0,0:0:0:0:
104,273,74849,6,0,P|165:281|217:250,1,112.5,12|0,0:3|0:0,0:0:0:0:
265,310,75192,2,0,L|263:397,1,75,8|0,0:0|0:0,0:0:0:0:
388,328,75535,2,0,L|392:198,1,112.5,12|0,0:3|0:0,0:0:0:0:
375,139,75877,2,0,P|415:131|454:123,1,75,8|0,0:0|0:0,0:0:0:0:
389,221,76220,5,10,0:3:0:0:
306,216,76392,1,0,0:0:0:0:
271,142,76563,1,8,0:0:0:0:
191,115,76735,2,0,P|107:103|79:47,1,150,10|10,0:3|0:3,0:0:0:0:
21,127,77249,2,0,L|12:212,1,75,10|0,0:0|0:0,0:0:0:0:
92,208,77592,70,0,L|91:375,1,150,12|8,0:3|0:0,0:0:0:0:
172,365,78106,1,0,0:0:0:0:
192,284,78277,2,0,P|266:231|326:247,1,150,10|8,0:3|0:0,0:0:0:0:
394,208,78792,1,0,0:0:0:0:
424,288,78963,6,0,L|428:376,1,75,10|0,0:3|0:0,0:0:0:0:
512,312,79306,1,8,0:0:0:0:
512,312,79477,2,0,L|497:146,1,150,10|10,0:3|0:3,0:0:0:0:
412,160,79992,1,10,0:0:0:0:
337,117,80163,1,0,0:0:0:0:
391,47,80335,6,0,L|472:42,1,75,8|2,0:3|0:0,0:0:0:0:
337,117,80677,2,0,L|262:121,1,75,10|0,0:0|0:0,0:0:0:0:
194,47,81020,2,0,L|275:42,1,75,8|10,0:3|0:3,0:0:0:0:
184,145,81363,2,0,L|109:149,1,75,10|0,0:0|0:0,0:0:0:0:
43,229,81706,6,0,B|87:246|139:230|139:230|129:254|136:281,1,150,12|8,0:0|0:0,0:0:0:0:
188,361,82220,1,0,0:0:0:0:
249,278,82392,1,8,0:0:0:0:
302,370,82563,1,8,0:0:0:0:
188,361,82735,1,8,1:3:0:0:
298,193,83077,70,0,L|224:178,1,75,2|0,0:0|0:0,0:0:0:0:
130,118,83420,2,0,L|223:98,1,75,2|0,0:0|0:0,0:0:0:0:
269,46,83763,6,0,L|319:58,3,37.5,0|8|8|8,0:0|0:0|0:0|0:0,0:0:0:0:
339,68,84106,2,0,L|376:61,3,37.5,8|8|8|8,0:0|0:0|0:0|0:0,0:0:0:0:
389,105,84449,6,0,B|434:127|501:104|501:104|488:150,1,150,6|12,0:0|0:0,0:0:0:0:
288,252,94049,86,0,P|360:259|419:215,1,150,12|0,0:0|0:0,0:0:0:0:
410,80,94563,2,0,P|337:72|278:116,1,150,12|0,0:0|0:0,0:0:0:0:
337,183,95077,2,0,L|484:131,1,150,8|4,0:0|0:0,0:0:0:0:
417,319,95763,54,0,B|320:353|320:353|268:342,1,150,8|8,0:0|0:3,0:0:0:0:
236,274,96277,2,0,P|196:284|161:293,1,75,0|8,0:0|0:0,0:0:0:0:
148,214,96620,6,0,B|98:184|47:186|47:186|8:209,1,150,8|8,0:3|0:3,0:0:0:0:
19,109,97135,2,0,P|13:72|9:35,1,75,8|0,0:0|0:0,0:0:0:0:
92,35,97477,1,8,0:3:0:0:
163,78,97649,1,8,0:3:0:0:
231,126,97820,2,0,P|270:121|306:115,1,75,8|0,0:0|0:0,0:0:0:0:
391,157,98163,6,0,P|420:102|389:11,1,150,8|8,0:3|0:0,0:0:0:0:
317,26,98677,1,0,0:0:0:0:
301,111,98849,2,0,L|293:185,1,75,8|8,0:3|0:3,0:0:0:0:
209,134,99192,1,8,0:0:0:0:
197,226,99363,6,0,P|134:264|61:256,1,150,8|8,0:3|0:3,0:0:0:0:
7,150,99877,2,0,L|166:157,1,150,8|8,0:0|0:3,0:0:0:0:
242,131,100392,1,8,0:3:0:0:
307,186,100563,2,0,P|313:224|309:267,1,75,8|0,0:0|0:0,0:0:0:0:
242,131,100906,69,8,0:3:0:0:
242,131,101249,1,8,0:0:0:0:
326,96,101420,2,0,B|329:62|313:42|313:42|356:51|416:31,1,150,0|8,0:0|0:3,0:0:0:0:
478,72,101935,1,8,0:0:0:0:
479,154,102106,6,0,P|482:223|475:308,1,150,8|8,0:3|0:3,0:0:0:0:
403,347,102620,2,0,P|324:353|283:300,1,150,8|8,0:0|0:3,0:0:0:0:
285,220,103135,1,8,0:3:0:0:
256,143,103306,2,0,L|269:67,1,75,8|0,0:0|0:0,0:0:0:0:
198,23,103649,5,8,0:3:0:0:
114,45,103820,1,0,0:0:0:0:
82,124,103992,1,8,0:0:0:0:
124,202,104163,2,0,P|118:247|117:364,1,150,8|8,0:3|0:3,0:0:0:0:
194,325,104677,1,8,0:0:0:0:
245,259,104849,6,0,P|236:175|175:145,1,150,8|8,0:3|0:3,0:0:0:0:
254,90,105363,1,8,0:0:0:0:
316,29,105535,2,0,B|418:16|418:16|473:32,1,150,8|8,0:3|0:3,0:0:0:0:
484,109,106049,1,8,3:2:0:0:
492,190,106220,1,0,3:0:0:0:
456,263,106392,70,0,P|371:263|302:258,1,150,12|8,0:3|0:0,0:0:0:0:
224,277,106906,1,0,0:0:0:0:
152,320,107077,2,0,P|113:320|71:304,1,75,8|0,0:3|0:0,0:0:0:0:
30,239,107420,1,8,0:0:0:0:
54,155,107592,6,0,B|162:129|162:129|205:142,1,150,8|8,0:3|0:3,0:0:0:0:
239,213,108106,2,0,L|317:193,1,75,8|0,0:0|0:0,0:0:0:0:
319,112,108449,1,8,0:3:0:0:
319,112,108620,2,0,L|325:28,2,75,8|8|0,0:3|0:0|0:0,0:0:0:0:
302,200,109135,6,0,P|340:196|381:190,1,75,8|0,0:3|0:0,0:0:0:0:
283,288,109477,2,0,P|244:292|204:298,1,75,8|0,0:0|0:0,0:0:0:0:
139,246,109820,1,8,0:3:0:0:
132,162,109992,1,8,0:3:0:0:
207,119,110163,1,8,0:0:0:0:
284,174,110335,6,0,L|437:192,1,150,8|8,0:3|0:3,0:0:0:0:
353,88,110849,2,0,L|204:70,1,150,8|8,0:0|0:3,0:0:0:0:
127,117,111363,1,8,0:3:0:0:
55,73,111535,2,0,L|71:-6,1,75,8|0,0:0|0:0,0:0:0:0:
127,117,111877,69,8,0:3:0:0:
127,117,112220,1,8,0:0:0:0:
152,208,112392,2,0,P|223:222|284:181,1,150,0|0,0:0|0:0,0:0:0:0:
353,134,112906,1,8,0:0:0:0:
412,193,113077,6,0,B|445:245|446:306|446:306|434:345,1,150,8|8,0:3|0:3,0:0:0:0:
349,309,113592,2,0,P|282:311|230:381,1,150,8|8,0:0|0:3,0:0:0:0:
159,331,114106,1,8,0:3:0:0:
98,277,114277,2,0,L|11:283,1,75,8|0,0:0|0:0,0:0:0:0:
0,207,114620,5,8,0:3:0:0:
53,137,114792,1,0,0:0:0:0:
141,137,114963,1,8,0:0:0:0:
199,200,115135,2,0,P|274:203|334:148,1,150,8|8,0:3|0:3,0:0:0:0:
391,103,115649,1,8,0:0:0:0:
464,140,115820,6,0,P|496:213|491:287,1,150,8|8,0:3|0:3,0:0:0:0:
413,329,116335,1,8,0:0:0:0:
357,264,116506,2,0,P|285:246|215:272,1,150,8|8,0:3|0:3,0:0:0:0:
147,338,117020,1,4,0:3:0:0:
119,259,117192,1,0,0:0:0:0:
243,351,117363,69,4,0:1:0:0:
231,60,117706,2,0,L|171:60,1,60,0|8,0:0|0:3,0:0:0:0:
126,126,118049,2,0,L|66:126,1,60,0|0,0:0|0:0,0:0:0:0:
29,45,118392,1,0,0:0:0:0:
126,126,118563,6,0,P|135:181|100:245,1,120,8|0,0:3|0:0,0:0:0:0:
35,295,119077,1,0,0:0:0:0:
103,350,119249,2,0,B|144:367|190:335|190:335|204:304|197:319,1,120,8|8,0:3|0:3,0:0:0:0:
248,248,119763,2,0,P|277:260|303:270,1,60,8|0,0:0|0:0,0:0:0:0:
391,283,120106,69,8,0:3:0:0:
391,283,120449,1,0,0:0:0:0:
452,213,120620,2,0,P|461:150|421:99,1,120,8|0,0:3|0:0,0:0:0:0:
349,97,121135,1,0,0:0:0:0:
287,150,121306,70,0,P|232:170|176:152,1,120,8|0,0:3|0:0,0:0:0:0:
107,99,121820,1,0,0:0:0:0:
76,178,121992,2,0,B|58:219|90:265|90:265|121:279|106:272,1,120,8|8,0:3|0:3,0:0:0:0:
187,295,122506,2,0,L|174:356,1,60,8|0,0:0|0:0,0:0:0:0:
273,281,122849,69,8,0:3:0:0:
434,216,123192,2,0,L|417:147,1,60,0|8,0:0|0:3,0:0:0:0:
403,76,123535,1,0,0:0:0:0:
403,76,123706,6,0,P|329:75|285:30,2,120,0|8|0,0:0|0:3|0:0,0:0:0:0:
370,159,124563,2,0,L|359:232,1,60,0|8,0:0|0:3,0:0:0:0:
287,235,124906,2,0,L|299:308,1,60,0|0,0:0|0:0,0:0:0:0:
209,355,125249,2,0,L|220:291,1,60,8|0,0:0|0:0,0:0:0:0:
278,158,125592,6,0,L|287:233,1,75,4|0,0:0|0:0,0:0:0:0:
170,185,125935,2,0,L|159:107,1,75,8|0,0:0|0:0,0:0:0:0:
237,11,126277,2,0,L|247:103,1,75,0|0,0:0|0:0,0:0:0:0:
159,109,126620,1,8,0:0:0:0:
334,64,126792,1,4,0:0:0:0:
334,64,127135,21,4,0:0:0:0:
284,246,127306,1,4,0:0:0:0:
159,109,127477,1,4,0:0:0:0:
159,109,127992,6,0,B|173:146|164:180|164:180|154:218|170:253,1,134.999995880127,8|0,0:0|0:0,0:0:0:0:
214,300,128335,102,0,L|289:293,1,75,12|0,0:3|0:0,0:0:0:0:
376,298,128677,2,0,P|380:336|368:371,1,75,8|0,0:0|0:0,0:0:0:0:
291,272,129020,2,0,P|291:215|309:158,1,112.5,10|0,0:3|0:0,0:0:0:0:
342,160,129363,2,0,P|383:160|418:147,1,75,8|0,0:0|0:0,0:0:0:0:
480,96,129706,6,0,L|469:13,1,75,10|0,0:3|0:0,0:0:0:0:
392,11,130049,1,8,0:0:0:0:
327,60,130220,2,0,P|263:102|190:98,1,150,10|10,0:3|0:3,0:0:0:0:
172,184,130735,2,0,L|191:260,1,75,10|0,0:0|0:0,0:0:0:0:
281,322,131077,6,0,L|291:239,1,75,10|0,0:3|0:0,0:0:0:0:
407,177,131420,2,0,L|398:251,1,75,8|0,0:0|0:0,0:0:0:0:
330,127,131763,2,0,L|340:44,1,75,10|0,0:3|0:0,0:0:0:0:
454,22,132106,2,0,L|445:96,1,75,8|0,0:0|0:0,0:0:0:0:
406,176,132449,5,10,0:3:0:0:
323,223,132620,1,0,0:0:0:0:
245,171,132792,1,8,0:0:0:0:
159,223,132963,2,0,P|152:268|134:374,1,150,10|10,0:3|0:3,0:0:0:0:
62,307,133477,1,10,0:0:0:0:
65,223,133649,1,0,0:0:0:0:
95,134,133820,70,0,P|179:133|222:82,2,150,12|8|10,0:3|0:0|0:3,0:0:0:0:
39,197,134677,1,8,0:3:0:0:
67,275,134849,2,0,L|61:349,1,75,8|0,0:0|0:0,0:0:0:0:
144,213,135192,6,0,L|158:293,1,75,10|0,0:3|0:0,0:0:0:0:
214,342,135535,1,8,0:0:0:0:
282,299,135706,2,0,P|356:289|422:323,1,150,10|10,0:3|0:3,0:0:0:0:
450,238,136220,2,0,P|457:201|461:164,1,75,10|0,0:0|0:0,0:0:0:0:
392,103,136563,5,8,0:3:0:0:
363,186,136735,1,2,0:0:0:0:
293,245,136906,2,0,P|279:211|279:174,1,75,10|0,0:0|0:0,0:0:0:0:
296,91,137249,1,8,0:3:0:0:
207,108,137420,1,10,0:3:0:0:
164,184,137592,2,0,P|129:192|86:199,1,75,10|0,0:0|0:0,0:0:0:0:
133,87,137935,6,0,L|298:52,1,150,8|8,0:0|0:0,0:0:0:0:
366,85,138449,1,0,0:0:0:0:
415,156,138620,1,8,0:0:0:0:
415,156,138706,1,8,0:0:0:0:
415,156,138792,1,8,0:0:0:0:
353,221,138963,70,0,P|327:270|324:325,1,112.5,8|8,1:3|0:0,0:0:0:0:
298,358,139306,22,0,B|262:355|234:377|234:377|199:345|197:304,2,150,12|8|10,0:3|0:0|0:3,0:0:0:0:
308,272,140163,1,8,0:3:0:0:
308,272,140335,2,0,L|312:197,1,75,8|0,0:0|0:0,0:0:0:0:
314,111,140677,5,10,0:3:0:0:
396,92,140849,1,0,0:0:0:0:
455,149,141020,1,8,0:0:0:0:
429,232,141192,2,0,P|421:298|429:399,1,150,10|10,0:3|0:3,0:0:0:0:
325,367,141706,2,0,L|333:284,1,75,10|0,0:0|0:0,0:0:0:0:
294,202,142049,70,0,P|233:194|181:225,1,112.5,12|0,0:3|0:0,0:0:0:0:
146,150,142392,2,0,P|150:104|152:71,1,75,8|0,0:0|0:0,0:0:0:0:
34,52,142735,2,0,P|60:104|45:166,1,112.5,12|0,0:3|0:0,0:0:0:0:
63,234,143077,2,0,P|61:273|57:314,1,75,8|0,0:0|0:0,0:0:0:0:
213,238,143420,5,10,0:3:0:0:
240,316,143592,1,0,0:0:0:0:
167,367,143763,1,8,0:0:0:0:
96,319,143935,2,0,B|92:242|92:242|59:223|21:229,1,150,10|10,0:3|0:3,0:0:0:0:
102,158,144449,2,0,L|175:145,1,75,10|0,0:0|0:0,0:0:0:0:
275,124,144792,6,0,L|418:166,1,150,12|8,0:3|0:0,0:0:0:0:
462,236,145306,1,0,0:0:0:0:
463,319,145477,2,0,P|389:372|329:356,1,150,10|8,0:3|0:0,0:0:0:0:
303,287,145992,1,0,0:0:0:0:
311,201,146163,6,0,L|307:113,1,75,10|0,0:3|0:0,0:0:0:0:
217,64,146506,1,8,0:0:0:0:
217,64,146677,2,0,P|225:120|232:230,1,150,10|10,0:3|0:3,0:0:0:0:
164,270,147192,1,10,0:0:0:0:
85,242,147363,1,0,0:0:0:0:
59,159,147535,70,0,L|133:154,1,75,8|2,0:3|0:0,0:0:0:0:
221,193,147877,1,10,0:0:0:0:
221,193,148049,1,0,0:0:0:0:
299,93,148220,2,0,L|218:98,1,75,8|10,0:3|0:3,0:0:0:0:
221,193,148563,1,10,0:0:0:0:
221,193,148735,1,0,0:0:0:0:
279,268,148906,6,0,B|286:295|276:319|276:319|328:303|372:320,1,150,8|8,0:3|0:0,0:0:0:0:
445,251,149420,1,8,0:3:0:0:
346,191,149592,1,8,0:0:0:0:
446,143,149763,1,8,0:0:0:0:
368,92,149935,1,8,0:3:0:0:
476,48,150106,1,4,0:3:0:0:
332,11,150277,5,10,0:0:0:0:
134,118,150620,1,10,0:0:0:0:
244,313,150963,1,10,0:0:0:0:
442,206,151306,1,10,0:0:0:0:
247,92,151649,21,8,0:0:0:0:
195,216,151992,1,8,0:0:0:0:
327,242,152335,1,8,0:0:0:0:
381,118,152677,1,8,0:0:0:0:
247,92,153020,5,8,0:0:0:0:
258,226,153363,1,8,0:0:0:0:
371,153,153706,2,0,L|368:62,1,75,8|0,0:0|0:0,0:0:0:0:
449,147,154049,2,0,L|451:221,1,75,8|0,0:0|0:0,0:0:0:0:
407,318,154392,5,8,0:0:0:0:
407,318,154477,2,0,L|259:324,1,112.5,8|8,0:0|1:3,0:0:0:0:
259,336,154820,1,0,0:0:0:0:
147,257,155077,1,8,0:3:0:0:
147,257,155163,2,0,L|132:144,1,112.5,0|8,0:0|0:0,0:0:0:0:
407,57,155763,6,0,P|331:61|288:117,1,150,4|8,0:0|0:0,0:0:0:0:
304,196,156277,1,0,0:0:0:0:
338,268,156449,2,0,L|347:346,1,75,8|8,0:3|0:3,0:0:0:0:
268,356,156792,1,8,0:0:0:0:
200,311,156963,1,0,0:0:0:0:
117,329,157135,70,0,L|28:317,1,75,8|0,0:3|0:0,0:0:0:0:
5,250,157477,1,8,0:0:0:0:
55,183,157649,2,0,P|80:114|52:46,1,150,8|8,0:3|0:3,0:0:0:0:
136,25,158163,2,0,P|175:20|210:15,1,75,8|0,0:0|0:0,0:0:0:0:
263,79,158506,6,0,P|340:112|404:86,2,150,8|8|8,0:3|0:0|0:3,0:0:0:0:
202,142,159363,1,8,0:3:0:0:
246,213,159535,2,0,P|250:271|248:298,1,75,8|0,0:0|0:0,0:0:0:0:
312,353,159877,6,0,P|380:361|436:292,1,150,8|8,0:3|0:0,0:0:0:0:
432,225,160392,2,0,P|419:140|411:67,1,150,8|8,0:3|0:3,0:0:0:0:
317,40,160906,2,0,P|322:82|327:118,1,75,8|0,0:0|0:0,0:0:0:0:
299,211,161249,6,0,P|216:242|160:213,1,150,4|8,0:0|0:0,0:0:0:0:
81,164,161763,2,0,P|60:236|47:310,1,150,0|8,0:0|0:3,0:0:0:0:
128,355,162277,1,8,0:0:0:0:
209,324,162449,1,0,0:0:0:0:
301,337,162620,70,0,B|352:322|352:322|408:340|467:323,1,150,8|8,0:3|0:0,0:0:0:0:
487,252,163135,2,0,L|494:177,1,75,8|0,0:3|0:0,0:0:0:0:
463,96,163477,1,8,0:3:0:0:
388,61,163649,1,8,0:0:0:0:
321,111,163820,1,0,0:0:0:0:
306,196,163992,6,0,L|304:276,1,75,8|0,0:0|0:0,0:0:0:0:
216,238,164335,2,0,L|199:166,1,75,8|0,0:0|0:0,0:0:0:0:
125,223,164677,1,8,0:0:0:0:
125,223,164849,2,0,L|122:306,1,75,0|8,0:0|0:0,0:0:0:0:
34,227,165192,1,0,0:0:0:0:
69,143,165363,6,0,L|149:131,1,75,8|0,0:0|0:0,0:0:0:0:
232,122,165706,1,8,0:0:0:0:
310,160,165877,2,0,P|321:197|312:239,1,75,0|8,0:0|0:0,0:0:0:0:
222,286,166220,2,0,P|211:249|220:207,1,75,0|8,0:0|0:0,0:0:0:0:
315,167,166563,1,0,0:0:0:0:
315,167,166649,1,0,0:0:0:0:
315,167,166735,6,0,L|406:161,1,75,8|0,0:0|0:0,0:0:0:0:
479,126,167077,1,8,0:0:0:0:
503,204,167249,1,0,0:0:0:0:
450,282,167420,2,0,P|441:318|438:355,1,75,10|2,0:0|0:0,0:0:0:0:
346,237,167763,2,0,P|379:219|413:204,1,75,10|2,0:0|0:0,0:0:0:0:
358,324,168106,5,8,0:0:0:0:
274,292,168277,1,8,0:0:0:0:
190,257,168449,1,8,0:0:0:0:
105,225,168620,1,8,0:0:0:0:
105,225,169477,54,0,L|97:77,1,120,8|8,0:3|0:3,0:0:0:0:
163,48,169992,1,0,0:0:0:0:
225,101,170163,2,0,P|255:102|284:92,1,60,8|0,0:3|0:0,0:0:0:0:
361,70,170506,1,8,0:3:0:0:
405,138,170677,6,0,P|420:195|413:254,1,120,0|0,0:0|0:0,0:0:0:0:
348,302,171192,1,8,0:3:0:0:
280,257,171363,2,0,B|234:240|202:271|156:247,1,120,0|0,0:0|0:0,0:0:0:0:
98,190,171877,2,0,P|99:152|98:115,1,75,8|0,0:0|0:0,0:0:0:0:
149,44,172220,5,12,0:3:0:0:
200,114,172392,2,0,P|261:146|343:123,1,150,8|0,0:3|0:0,0:0:0:0:
419,11,172906,2,0,L|270:67,1,150,8|8,0:0|0:3,0:0:0:0:
191,203,173420,6,0,P|176:268|217:345,1,150,8|8,0:3|0:0,0:0:0:0:
299,327,173935,2,0,P|339:320|382:316,1,75,0|0,0:0|0:0,0:0:0:0:
433,244,174277,2,0,P|450:276|472:315,1,75,8|8,0:0|0:3,0:0:0:0:
342,222,174620,2,0,P|359:181|373:150,1,75,4|8,0:3|0:3,0:0:0:0:
321,73,174963,69,8,0:3:0:0:
321,73,175135,1,0,0:0:0:0:
244,123,175306,2,0,L|169:133,1,60,8|0,0:3|0:0,0:0:0:0:
128,198,175649,2,0,B|141:230|146:273|146:273|125:311,1,120,8|8,0:3|0:3,0:0:0:0:
57,259,176163,6,0,L|31:136,1,120,0|0,0:0|0:0,0:0:0:0:
83,82,176677,1,8,0:3:0:0:
137,142,176849,2,0,B|186:160|186:160|259:150,1,120,0|0,0:0|0:0,0:0:0:0:
339,125,177363,2,0,L|425:113,1,75,8|0,0:0|0:0,0:0:0:0:
441,191,177706,5,12,0:3:0:0:
365,243,177877,2,0,P|281:251|233:315,1,150,8|0,0:3|0:0,0:0:0:0:
157,261,178392,2,0,L|153:340,1,75,8|0,0:0|0:0,0:0:0:0:
72,282,178735,1,8,0:3:0:0:
40,201,178906,6,0,L|50:121,2,75,8|0|8,0:0|0:0|0:0,0:0:0:0:
72,282,179420,1,0,0:0:0:0:
157,260,179592,1,0,0:0:0:0:
220,323,179763,2,0,P|268:354|328:348,1,112.5,8|0,0:0|0:0,0:0:0:0:
353,337,180106,2,0,L|405:330,2,37.5,8|8|8,0:0|0:0|0:0,0:0:0:0:
491,216,180449,69,12,0:3:0:0:
404,251,180620,1,0,0:0:0:0:
336,198,180792,2,0,P|285:186|238:178,1,75,8|0,0:0|0:0,0:0:0:0:
199,242,181135,2,0,L|176:316,1,75,8|8,0:3|0:3,0:0:0:0:
279,287,181477,1,8,0:0:0:0:
180,335,181649,6,0,L|30:318,1,150,8|8,0:3|0:3,0:0:0:0:
71,237,182163,2,0,P|96:198|56:102,1,150,8|8,0:0|0:3,0:0:0:0:
119,46,182677,1,8,0:3:0:0:
186,96,182849,2,0,L|277:86,1,75,8|0,0:0|0:0,0:0:0:0:
337,42,183192,6,0,P|403:11|471:37,2,150,12|8|8,0:3|0:0|0:3,0:0:0:0:
315,126,184049,2,0,P|324:167|334:210,1,75,8|8,0:3|0:0,0:0:0:0:
238,190,184392,6,0,P|157:204|103:148,1,150,12|0,0:3|0:0,0:0:0:0:
90,268,184906,2,0,L|76:343,1,75,8|0,0:0|0:0,0:0:0:0:
161,360,185249,1,8,0:3:0:0:
235,316,185420,1,8,0:3:0:0:
317,342,185592,1,8,0:0:0:0:
390,304,185763,1,0,0:0:0:0:
480,300,185935,70,0,B|458:249|464:208|464:208|491:194|516:177,1,150,12|8,0:3|0:0,0:0:0:0:
430,132,186449,2,0,P|336:139|291:105,1,150,8|8,0:3|0:3,0:0:0:0:
253,32,186963,1,8,0:0:0:0:
188,91,187135,6,0,B|143:66|143:66|98:91|40:75,1,150,12|8,0:3|0:3,0:0:0:0:
34,165,187649,2,0,L|30:250,1,75,8|0,0:0|0:0,0:0:0:0:
109,311,187992,2,0,L|112:236,1,75,8|8,0:3|0:3,0:0:0:0:
173,174,188335,1,8,0:0:0:0:
243,219,188506,1,0,0:0:0:0:
327,182,188677,6,0,P|350:127|297:56,1,150,12|8,0:3|0:0,0:0:0:0:
233,110,189192,2,0,P|231:192|232:267,1,150,0|8,0:0|0:3,0:0:0:0:
293,314,189706,1,8,0:0:0:0:
359,259,189877,6,0,P|434:253|495:304,1,150,4|8,0:0|0:3,0:0:0:0:
403,342,190392,2,0,L|228:349,1,150,8|8,0:0|0:0,0:0:0:0:
168,355,190906,1,8,0:0:0:0:
93,319,191077,2,0,L|51:324,2,37.5,8|8|8,0:0|0:0|0:0,0:0:0:0:
156,258,191420,5,4,0:0:0:0:
83,116,191592,1,4,0:0:0:0:
156,173,191763,1,4,0:0:0:0:
0,243,191935,1,4,0:0:0:0:
0,243,192277,5,4,0:0:0:0:
156,258,192449,1,4,0:0:0:0:
161,91,192620,1,4,0:0:0:0:
256,192,192706,12,8,193820,0:1:0:0:
334,183,203763,102,0,L|426:179,1,75,8|0,0:0|0:0,0:0:0:0:
246,120,204106,2,0,L|171:123,1,75,8|0,0:0|0:0,0:0:0:0:
250,206,204449,2,0,L|253:280,1,75,8|8,0:0|0:0,0:0:0:0:
334,97,204792,2,0,L|330:22,1,75,8|0,1:3|1:0,0:0:0:0:
250,206,205135,6,0,P|170:215|125:158,2,150,12|10|8,0:3|0:0|0:3,0:0:0:0:
314,261,205992,1,10,0:3:0:0:
379,210,206163,2,0,L|455:191,1,75,10|0,0:0|0:0,0:0:0:0:
498,265,206506,6,0,L|473:105,1,150,10|8,0:3|0:0,0:0:0:0:
372,81,207020,2,0,P|343:148|384:214,1,150,10|10,0:3|0:3,0:0:0:0:
340,288,207535,2,0,L|320:363,1,75,10|0,0:0|0:0,0:0:0:0:
242,314,207877,6,0,P|199:295|101:336,2,150,10|10|10,0:3|0:0|0:3,0:0:0:0:
275,228,208735,1,8,0:3:0:0:
358,199,208906,2,0,L|462:189,1,75,10|0,0:0|0:0,0:0:0:0:
484,121,209249,69,10,0:3:0:0:
432,57,209420,1,0,0:0:0:0:
347,64,209592,1,8,0:0:0:0:
284,126,209763,2,0,B|226:161|187:151|187:151|163:99,1,150,10|10,0:3|0:3,0:0:0:0:
108,181,210277,2,0,L|103:261,1,75,10|0,0:0|0:0,0:0:0:0:
87,85,210620,5,12,0:3:0:0:
87,85,210963,2,0,L|173:69,1,75,10|0,0:0|0:0,0:0:0:0:
237,117,211306,1,8,0:3:0:0:
224,201,211477,1,10,0:3:0:0:
157,254,211649,2,0,L|167:345,1,75,10|0,0:0|0:0,0:0:0:0:
240,361,211992,6,0,P|277:350|314:340,1,75,10|0,0:3|0:0,0:0:0:0:
393,344,212335,1,8,0:0:0:0:
437,273,212506,2,0,P|442:141|445:102,1,150,10|10,0:3|0:3,0:0:0:0:
350,64,213020,2,0,P|357:100|361:138,1,75,10|0,0:0|0:0,0:0:0:0:
249,108,213363,5,8,0:3:0:0:
283,204,213535,1,2,0:0:0:0:
167,184,213706,2,0,L|83:195,1,75,10|0,0:0|0:0,0:0:0:0:
36,126,214049,1,8,0:3:0:0:
0,227,214220,1,10,0:3:0:0:
80,295,214392,2,0,L|164:284,1,75,10|0,0:0|0:0,0:0:0:0:
227,338,214735,70,0,L|404:322,1,150,8|8,0:0|0:0,0:0:0:0:
463,301,215249,1,0,0:0:0:0:
466,208,215420,2,0,L|508:173,2,37.5,8|8|8,0:0|0:0|0:0,0:0:0:0:
373,232,215763,1,0,1:3:0:0:
373,232,215849,1,0,1:0:0:0:
373,232,215935,1,8,0:0:0:0:
313,151,216106,6,0,L|328:70,1,75,12|0,0:3|0:0,0:0:0:0:
231,111,216449,2,0,L|148:132,1,75,10|0,0:0|0:0,0:0:0:0:
236,201,216792,2,0,L|295:256,1,75,8|10,0:3|0:3,0:0:0:0:
397,320,217135,1,10,0:0:0:0:
373,232,217306,1,0,0:0:0:0:
291,331,217477,6,0,P|241:351|139:317,1,150,10|8,0:3|0:0,0:0:0:0:
128,238,217992,2,0,P|140:134|148:90,1,150,10|10,0:3|0:3,0:0:0:0:
60,112,218506,2,0,P|56:152|43:190,1,75,10|0,0:0|0:0,0:0:0:0:
3,40,218849,6,0,L|121:20,1,112.5,12|0,0:3|0:0,0:0:0:0:
176,73,219192,2,0,L|258:60,1,75,10|0,0:0|0:0,0:0:0:0:
0,195,219535,2,0,L|117:175,1,112.5,12|8,0:3|0:3,0:0:0:0:
173,225,219878,2,0,L|255:212,1,75,10|0,0:0|0:0,0:0:0:0:
329,252,220220,69,10,0:3:0:0:
401,201,220392,1,0,0:0:0:0:
380,116,220563,1,8,0:0:0:0:
295,102,220735,2,0,B|197:133|197:133|150:122,1,150,10|10,0:3|0:3,0:0:0:0:
96,192,221249,2,0,L|84:266,1,75,10|0,0:0|0:0,0:0:0:0:
138,338,221592,6,0,P|206:348|261:272,1,150,12|10,0:3|0:0,0:0:0:0:
239,214,222106,1,0,0:0:0:0:
277,136,222277,2,0,L|351:120,1,75,8|10,0:3|0:3,0:0:0:0:
408,188,222620,2,0,L|425:285,1,75,10|0,0:0|0:0,0:0:0:0:
354,316,222963,5,10,0:3:0:0:
272,321,223135,1,0,0:0:0:0:
219,257,223306,1,8,0:0:0:0:
257,182,223477,2,0,B|311:171|348:164|348:164|385:176|404:210,1,150,10|10,0:3|0:3,0:0:0:0:
386,284,223992,2,0,L|374:373,1,75,10|0,0:0|0:0,0:0:0:0:
272,321,224335,6,0,L|186:331,1,75,8|2,0:3|0:0,0:0:0:0:
115,298,224677,1,10,0:0:0:0:
331,207,225020,2,0,L|245:217,1,75,8|10,0:3|0:3,0:0:0:0:
174,184,225362,1,10,0:0:0:0:
402,88,225706,70,0,L|316:98,1,75,12|0,0:0|0:0,0:0:0:0:
243,55,226049,1,8,0:0:0:0:
170,120,226220,2,0,P|103:151|32:131,1,150,0|8,0:0|1:3,0:0:0:0:
43,225,226735,2,0,L|33:312,1,75,4|0,0:3|0:0,0:0:0:0:
126,306,227077,6,0,P|248:320|273:344,1,150,2|2,0:0|0:0,0:0:0:0:
357,321,227592,1,0,0:0:0:0:
357,231,227763,6,0,L|338:186,3,37.5,8|0|0|0,0:0|0:0|0:0|0:0,0:0:0:0:
299,186,228106,2,0,L|259:171,3,37.5,8|8|8|8,0:0|0:0|0:0|0:0,0:0:0:0:
220,192,228449,6,0,B|162:198|162:198|135:165|131:107,2,150,8|4|8,0:3|0:0|0:3,0:0:0:0:
281,137,229306,1,10,0:3:0:0:
361,153,229477,1,8,0:0:0:0:
433,112,229649,1,0,0:0:0:0:
462,188,229820,6,0,L|456:278,1,75,10|0,0:3|0:0,0:0:0:0:
398,320,230163,1,8,0:0:0:0:
328,259,230335,2,0,P|275:218|189:226,1,150,10|10,0:3|0:3,0:0:0:0:
116,275,230849,2,0,L|101:355,1,75,8|0,0:0|0:0,0:0:0:0:
25,280,231192,69,8,0:3:0:0:
63,194,231363,2,0,L|147:181,2,75,2|8|0,0:0|0:0|0:0,0:0:0:0:
105,96,231877,1,8,0:3:0:0:
193,55,232049,2,0,L|199:130,2,75,10|8|0,0:3|0:0|0:0,0:0:0:0:
279,91,232563,6,0,P|317:91|357:83,1,75,0|2,0:0|0:0,0:0:0:0:
428,40,232906,1,8,0:0:0:0:
394,162,233077,2,0,P|385:207|374:313,1,150,10|8,0:3|0:3,0:0:0:0:
512,340,233592,1,8,0:0:0:0:
454,276,233763,1,0,0:0:0:0:
393,347,233935,6,0,B|288:360|288:360|242:344,2,150,10|12|8,0:3|0:0|0:3,0:0:0:0:
377,262,234792,2,0,L|381:177,1,75,10|8,0:3|0:0,0:0:0:0:
332,111,235135,1,0,0:0:0:0:
266,166,235306,6,0,P|228:163|193:149,1,75,10|0,0:3|0:0,0:0:0:0:
130,203,235649,1,8,0:0:0:0:
103,121,235820,2,0,L|95:31,1,75,10|0,0:3|0:0,0:0:0:0:
22,134,236163,2,0,L|28:208,1,75,10|8,0:3|0:0,0:0:0:0:
28,292,236506,1,0,0:0:0:0:
115,354,236677,70,0,L|105:269,1,75,8|2,0:3|0:0,0:0:0:0:
194,280,237020,2,0,P|265:263|327:301,1,150,8|8,0:0|0:3,0:0:0:0:
370,230,237535,1,2,0:0:0:0:
344,156,237706,2,0,L|350:75,1,75,8|0,0:0|0:0,0:0:0:0:
260,175,238049,6,0,P|159:169|117:134,1,150,12|0,0:0|0:0,0:0:0:0:
52,83,238563,2,0,L|26:237,1,150,12|0,0:0|0:0,0:0:0:0:
163,331,239077,1,8,0:0:0:0:
129,228,239249,1,8,0:0:0:0:
0,331,239420,5,4,0:0:0:0:
256,192,239506,12,4,240792,0:0:0:0:
