osu file format v12

[General]
AudioFilename: Jumping!!.mp3
AudioLeadIn: 0
PreviewTime: 57236
Countdown: 0
SampleSet: Normal
StackLeniency: 0.7
Mode: 1
LetterboxInBreaks: 0
WidescreenStoryboard: 0

[Editor]
DistanceSpacing: 1
BeatDivisor: 2
GridSize: 32
TimelineZoom: 1.6

[Metadata]
Title:Jumping!! (TV Size)
TitleUnicode:Jumping!! (TV Size)
Artist:Rhodanthe*
ArtistUnicode:Rhodanthe*
Creator:kjwkjw
Version:Futsuu
Source:きんいろモザイク
Tags:anime kiniro mosaic opening oomiya shinobu alice cartelet komichi aya inokuma youko kujou karen nishi asuka tanaka manami taneda risa uchiyama yumi touyama nao
BeatmapID:372714
BeatmapSetID:151156

[Difficulty]
HPDrainRate:5
CircleSize:4
OverallDifficulty:4
ApproachRate:5
SliderMultiplier:1.2
SliderTickRate:1

[Events]
//Background and Video events
0,0,"bg.jpg",0,0
//Break Periods
//Storyboard Layer 0 (Background)
//Storyboard Layer 1 (Fail)
//Storyboard Layer 2 (Pass)
//Storyboard Layer 3 (Foreground)
//Storyboard Sound Samples
//Background Colour Transformations
3,100,163,162,255

[TimingPoints]
1008.23313458948,342.857142857143,4,1,0,65,1,0
11979,-100,4,1,0,85,0,0
24322,-100,4,1,0,70,0,0
46265,-100,4,1,0,50,0,0
54493,-100,4,1,0,70,0,0
57236,-100,4,1,0,85,0,1
80551,-100,4,1,0,85,0,0

[HitObjects]
320,192,1008,5,8,0:0:0:0:
320,192,1693,1,8,0:0:0:0:
192,192,2379,1,0,0:0:0:0:
320,192,2893,1,8,0:0:0:0:
192,192,3236,1,0,0:0:0:0:
192,192,3751,1,0,0:0:0:0:
192,192,4436,1,0,0:0:0:0:
320,192,5122,1,8,0:0:0:0:
192,192,5636,1,0,0:0:0:0:
320,192,5979,1,8,0:0:0:0:
320,192,6493,1,8,0:0:0:0:
320,192,7179,1,8,0:0:0:0:
192,192,7865,1,0,0:0:0:0:
320,192,8379,1,8,0:0:0:0:
192,192,8722,1,0,0:0:0:0:
192,192,9236,1,0,0:0:0:0:
192,192,9922,1,0,0:0:0:0:
320,192,10608,1,8,0:0:0:0:
320,192,11122,1,8,0:0:0:0:
192,192,11636,1,0,0:0:0:0:
192,192,11979,1,0,0:0:0:0:
320,192,13008,1,8,0:0:0:0:
192,192,13351,1,0,0:0:0:0:
320,192,13693,1,8,0:0:0:0:
320,192,14379,1,8,0:0:0:0:
192,192,14722,1,0,0:0:0:0:
192,192,15236,1,0,0:0:0:0:
320,192,15751,1,8,0:0:0:0:
192,192,16093,1,0,0:0:0:0:
320,192,16436,1,8,0:0:0:0:
320,192,17122,1,8,0:0:0:0:
192,192,17465,1,0,0:0:0:0:
320,192,17979,1,8,0:0:0:0:
320,192,18493,1,8,0:0:0:0:
192,192,18836,1,0,0:0:0:0:
320,192,19179,1,8,0:0:0:0:
320,192,19865,1,8,0:0:0:0:
192,192,20208,1,0,0:0:0:0:
192,192,20722,1,0,0:0:0:0:
320,192,21236,1,8,0:0:0:0:
192,192,21579,1,0,0:0:0:0:
320,192,21922,1,8,0:0:0:0:
320,192,22608,1,8,0:0:0:0:
320,96,22951,1,12,0:0:0:0:
320,96,23465,1,12,0:0:0:0:
192,192,24322,1,0,0:0:0:0:
192,192,25008,1,0,0:0:0:0:
320,192,25522,1,8,0:0:0:0:
320,192,26036,1,8,0:0:0:0:
192,192,26722,1,0,0:0:0:0:
320,192,27065,1,8,0:0:0:0:
320,192,27751,1,8,0:0:0:0:
192,192,28265,1,0,0:0:0:0:
320,192,28779,1,8,0:0:0:0:
192,192,29808,1,0,0:0:0:0:
192,192,30493,1,0,0:0:0:0:
320,192,31008,1,8,0:0:0:0:
192,192,31522,1,0,0:0:0:0:
192,192,32208,1,0,0:0:0:0:
320,192,32551,1,8,0:0:0:0:
192,192,33065,1,0,0:0:0:0:
192,192,33751,1,0,0:0:0:0:
320,192,34265,1,8,0:0:0:0:
192,192,35293,1,0,0:0:0:0:
192,192,35979,1,0,0:0:0:0:
320,192,36493,1,8,0:0:0:0:
320,192,37008,1,8,0:0:0:0:
192,192,37693,1,0,0:0:0:0:
320,192,38036,1,8,0:0:0:0:
320,192,38722,1,8,0:0:0:0:
192,192,39236,1,0,0:0:0:0:
320,192,39751,1,8,0:0:0:0:
320,192,40436,1,8,0:0:0:0:
192,192,40779,1,0,0:0:0:0:
192,192,41465,1,0,0:0:0:0:
320,192,41979,1,8,0:0:0:0:
192,192,42493,1,0,0:0:0:0:
192,192,43179,1,0,0:0:0:0:
320,192,43522,1,8,0:0:0:0:
192,192,44036,1,0,0:0:0:0:
192,192,44722,1,0,0:0:0:0:
320,192,45236,1,8,0:0:0:0:
192,192,45408,1,0,0:0:0:0:
192,64,46265,1,4,0:0:0:0:
192,192,46951,1,0,0:0:0:0:
192,192,47636,1,0,0:0:0:0:
192,192,48322,1,0,0:0:0:0:
320,192,48665,1,8,0:0:0:0:
192,192,49008,1,0,0:0:0:0:
192,192,49693,1,0,0:0:0:0:
320,192,50379,1,8,0:0:0:0:
192,192,51065,1,0,0:0:0:0:
320,192,51408,1,8,0:0:0:0:
192,192,51751,1,0,0:0:0:0:
192,192,52436,1,0,0:0:0:0:
192,192,53122,1,0,0:0:0:0:
320,192,53808,1,8,0:0:0:0:
320,192,54151,1,8,0:0:0:0:
192,192,54493,1,0,0:0:0:0:
192,192,55179,1,0,0:0:0:0:
320,192,55693,1,8,0:0:0:0:
320,192,56036,1,8,0:0:0:0:
320,192,56208,1,8,0:0:0:0:
320,192,56379,1,8,0:0:0:0:
320,192,56893,1,8,0:0:0:0:
192,96,57236,1,4,0:0:0:0:
192,192,57579,1,0,0:0:0:0:
320,192,57922,1,8,0:0:0:0:
192,192,58265,1,0,0:0:0:0:
192,192,58608,1,0,0:0:0:0:
320,192,59293,1,8,0:0:0:0:
192,192,59979,1,0,0:0:0:0:
320,192,60322,1,8,0:0:0:0:
192,192,60665,1,0,0:0:0:0:
320,192,61008,1,8,0:0:0:0:
192,192,61351,1,0,0:0:0:0:
320,192,62036,1,8,0:0:0:0:
192,192,62722,1,0,0:0:0:0:
192,192,63065,1,0,0:0:0:0:
320,192,63408,1,8,0:0:0:0:
192,192,63751,1,0,0:0:0:0:
192,192,64093,1,0,0:0:0:0:
320,192,64779,1,8,0:0:0:0:
192,192,65465,1,0,0:0:0:0:
320,192,65808,1,8,0:0:0:0:
192,192,66151,1,0,0:0:0:0:
320,192,66493,1,8,0:0:0:0:
320,192,66836,1,8,0:0:0:0:
320,192,67522,1,8,0:0:0:0:
192,96,68208,1,4,0:0:0:0:
192,192,68551,1,0,0:0:0:0:
320,192,68893,1,8,0:0:0:0:
192,192,69236,1,0,0:0:0:0:
192,192,69579,1,0,0:0:0:0:
320,192,70265,1,8,0:0:0:0:
192,192,70951,1,0,0:0:0:0:
320,192,71293,1,8,0:0:0:0:
192,192,71636,1,0,0:0:0:0:
320,192,71979,1,8,0:0:0:0:
192,192,72322,1,0,0:0:0:0:
320,192,73008,1,8,0:0:0:0:
192,192,73693,1,0,0:0:0:0:
192,192,74036,1,0,0:0:0:0:
320,192,74379,1,8,0:0:0:0:
192,192,74722,1,0,0:0:0:0:
192,192,75065,1,0,0:0:0:0:
320,192,75751,1,8,0:0:0:0:
192,192,76436,1,0,0:0:0:0:
320,192,76779,1,8,0:0:0:0:
192,192,77122,1,0,0:0:0:0:
320,192,77465,1,8,0:0:0:0:
320,192,77808,1,8,0:0:0:0:
320,192,78322,1,8,0:0:0:0:
192,192,78836,1,0,0:0:0:0:
192,96,79179,1,4,0:0:0:0:
320,192,80208,1,8,0:0:0:0:
192,192,80551,1,0,0:0:0:0:
320,192,80893,1,8,0:0:0:0:
320,192,81579,1,8,0:0:0:0:
192,192,81922,1,0,0:0:0:0:
192,192,82436,1,0,0:0:0:0:
320,192,82951,1,8,0:0:0:0:
192,192,83293,1,0,0:0:0:0:
192,192,83979,1,0,0:0:0:0:
320,192,84665,1,8,0:0:0:0:
320,192,85179,1,8,0:0:0:0:
256,192,86036,12,0,87065,0:0:0:0:
320,96,87408,5,12,0:0:0:0:
