osu file format v12

[General]
AudioFilename: Jumping.mp3
AudioLeadIn: 1500
PreviewTime: 57065
Countdown: 0
SampleSet: Normal
StackLeniency: 0.7
Mode: 0
LetterboxInBreaks: 0
WidescreenStoryboard: 0

[Editor]
DistanceSpacing: 1.7
BeatDivisor: 4
GridSize: 4

[Metadata]
Title:Jumping!! (TV Size)
TitleUnicode:Jumping!! (TV Size)
Artist:Rhodanthe*
ArtistUnicode:Rhodanthe*
Creator:CloudSplash16
Version:Hard
Source:Kin-iro Mosaic
Tags:zero__wind opening op studio gokumi kinmoza kiniro oomiya shinobu alice cartelet inokuma youko komichi aya kujou karen karasuma sakura isami nishi asuka tanaka manami taneda risa touyama nao uchiyama yumi cs16
BeatmapID:272668
BeatmapSetID:103482

[Difficulty]
HPDrainRate:6
CircleSize:4
OverallDifficulty:6
ApproachRate:8
SliderMultiplier:1.5
SliderTickRate:1

[Events]
//Background and Video events
0,0,"kinmosa.jpg",0,0
Video,0,"OP480.avi"
//Break Periods
//Storyboard Layer 0 (Background)
//Storyboard Layer 1 (Fail)
//Storyboard Layer 2 (Pass)
//Storyboard Layer 3 (Foreground)
//Storyboard Sound Samples
//Background Colour Transformations
3,100,163,162,255

[TimingPoints]
1008,342.857142857143,4,2,1,55,1,0
13350,-100,4,1,1,55,0,0
45408,-100,4,3,1,55,0,0
46265,-133.333333333333,4,2,1,50,0,0
48665,-133.333333333333,4,3,1,50,0,0
48836,-133.333333333333,4,2,1,50,0,0
51408,-133.333333333333,4,3,1,50,0,0
51750,-133.333333333333,4,2,1,50,0,0
54150,-133.333333333333,4,1,1,50,0,0
54493,-100,4,1,1,55,0,0
55693,-100,4,3,1,55,0,0
56893,-100,4,1,1,55,0,0
57236,-100,4,1,1,60,0,1
80550,-100,4,1,1,55,0,0

[Colours]
Combo1 : 255,128,64
Combo2 : 255,128,128
Combo3 : 255,255,128
Combo4 : 0,255,128
Combo5 : 128,128,255
Combo6 : 255,128,255

[HitObjects]
336,108,1007,2,0,P|384:120|408:140,2,75,2|0|8,0:0|0:0|0:0,0:0:0:0:
264,152,1522,1,8,0:0:0:0:
336,192,1693,2,0,P|376:240|320:312,1,150,2|8,0:0|0:0,0:0:0:0:
244,304,2208,1,0,0:0:0:0:
160,264,2379,6,0,L|72:216,1,75,2|0,0:0|0:0,0:0:0:0:
192,184,2722,1,8,0:0:0:0:
192,184,2893,2,0,P|260:164|320:208,1,150,8|2,0:0|0:0,0:0:0:0:
368,288,3408,1,8,0:0:0:0:
368,104,3750,6,0,P|348:64|296:40,1,75,2|0,0:0|0:0,0:0:0:0:
284,128,4093,2,0,P|264:168|212:192,1,75,10|8,0:0|0:0,0:0:0:0:
200,104,4436,2,0,P|180:64|128:40,1,75,2|0,0:0|0:0,0:0:0:0:
116,128,4779,1,8,0:0:0:0:
116,128,5122,6,0,P|92:152|52:168,2,75,2|0|8,0:0|0:0|0:0,0:0:0:0:
200,104,5636,2,0,L|200:264,1,150,8|2,0:0|0:0,0:0:0:0:
136,212,6150,2,0,P|187:178|264:212,1,150,8|2,0:0|0:0,0:0:0:0:
332,272,6665,5,0,0:0:0:0:
332,272,6836,2,0,P|296:296|248:304,1,75,8|8,0:0|0:0,0:0:0:0:
280,144,7179,2,0,P|288:88|320:56,1,75,2|0,0:0|0:0,0:0:0:0:
440,136,7522,2,0,P|440:192|416:224,1,75,8|0,0:0|0:0,0:0:0:0:
412,304,7865,5,2,0:0:0:0:
332,272,8036,1,0,0:0:0:0:
260,320,8208,1,8,0:0:0:0:
260,320,8379,2,0,P|216:244|140:240,1,150,8|2,0:0|0:0,0:0:0:0:
180,312,8893,2,0,L|284:176,1,150,8|2,0:0|0:0,0:0:0:0:
264,112,9408,5,0,0:0:0:0:
264,112,9579,2,0,L|200:60,1,75,8|8,0:0|0:0,0:0:0:0:
132,112,9922,2,0,L|80:176,2,75,2|0|8,0:0|0:0|0:0,0:0:0:0:
440,184,10608,5,2,0:0:0:0:
392,264,10779,1,0,0:0:0:0:
312,312,10950,1,8,0:0:0:0:
312,312,11122,2,0,P|232:256|168:272,1,150,8|2,0:0|0:0,0:0:0:0:
112,300,11636,2,0,P|104:260|116:216,1,75,8|0,0:0|0:0,0:0:0:0:
256,192,11979,12,0,13008,0:0:0:0:
188,180,13350,6,0,B|264:180|264:180|324:252,1,150,4|10,0:0|0:0,0:0:0:0:
400,240,13865,1,8,0:0:0:0:
400,240,14036,2,0,L|400:152,2,75,0|0|8,0:0|0:0|0:0,0:0:0:0:
336,320,14550,1,0,0:0:0:0:
240,320,14722,6,0,L|144:320,1,75
136,240,15065,2,0,L|32:240,2,75,8|8|0,0:0|0:0|0:0,0:0:0:0:
208,184,15579,1,0,0:0:0:0:
208,184,15750,2,0,B|208:112|208:112|288:56,1,150,8|0,0:0|0:0,0:0:0:0:
360,72,16265,5,0,0:0:0:0:
360,72,16436,2,0,L|456:72,1,75,8|8,0:0|0:0,0:0:0:0:
240,216,16950,1,0,0:0:0:0:
240,216,17122,2,0,L|144:216,1,75,8|0,0:0|0:0,0:0:0:0:
0,180,17465,6,0,P|5:132|21:112,2,75,0|0|8,0:0|0:0|0:0,0:0:0:0:
76,168,17979,2,0,B|172:40,1,150,8|0,0:0|0:0,0:0:0:0:
248,48,18493,2,0,L|326:48,1,75,10|0,0:0|0:0,0:0:0:0:
404,48,18836,5,4,0:0:0:0:
288,240,19179,2,0,L|200:240,1,75,10|8,0:0|0:0,0:0:0:0:
91,48,19693,1,0,0:0:0:0:
91,48,19865,2,0,L|179:48,1,75,8|0,0:0|0:0,0:0:0:0:
242,118,20208,6,0,B|338:118|338:118|394:62,1,150,0|8,0:0|0:0,0:0:0:0:
432,152,20722,2,0,L|432:248,2,75,8|0|0,0:0|0:0|0:0,0:0:0:0:
376,80,21236,2,0,P|308:84|264:172,1,150,8|0,0:0|0:0,0:0:0:0:
256,232,21750,5,0,0:0:0:0:
192,296,21922,2,0,L|104:296,1,75,8|8,0:0|0:0,0:0:0:0:
256,232,22265,1,0,0:0:0:0:
320,296,22436,1,0,0:0:0:0:
320,296,22608,2,0,L|408:296,1,75,8|0,0:0|0:0,0:0:0:0:
400,168,22950,6,0,P|352:96|272:112,1,150,2|0,0:0|0:0,0:0:0:0:
316,180,23465,2,0,P|259:180|211:108,1,150,2|0,0:0|0:0,0:0:0:0:
124,108,23979,2,0,L|124:188,1,75,8|0,0:0|0:0,0:0:0:0:
256,236,24322,6,0,P|231:182|288:100,1,150,4|8,0:0|0:0,0:0:0:0:
316,180,24836,1,0,0:0:0:0:
320,284,25008,2,0,P|272:316|184:268,1,150,0|8,0:0|0:0,0:0:0:0:
256,236,25522,6,0,P|304:204|388:244,1,150
464,180,26036,2,0,P|430:94|382:70,1,150,8|0,0:0|0:0,0:0:0:0:
296,72,26550,2,0,L|296:176,2,75,0|8|0,0:0|0:0|0:0,0:0:0:0:
208,64,27065,5,0,0:0:0:0:
208,64,27236,2,0,P|160:88|144:136,1,75,0|8,0:0|0:0,0:0:0:0:
136,196,27579,1,0,0:0:0:0:
224,160,27750,2,0,P|296:192|312:256,1,150,0|8,0:0|0:0,0:0:0:0:
232,308,28265,6,0,P|196:288|176:248,2,75
312,256,28779,2,0,P|308:212|284:180,1,75,8|0,0:0|0:0,0:0:0:0:
212,144,29122,1,0,0:0:0:0:
127,174,29293,1,0,0:0:0:0:
52,124,29465,2,0,P|35:98|31:54,1,75,8|0,0:0|0:0,0:0:0:0:
128,64,29808,6,0,P|196:80|252:144,1,150,0|8,0:0|0:0,0:0:0:0:
308,208,30322,2,0,P|344:248|396:264,2,75
250,137,30836,1,8,0:0:0:0:
250,137,31008,6,0,P|194:113|108:136,1,150
120,220,31522,1,8,0:0:0:0:
120,220,31693,1,0,0:0:0:0:
216,228,31865,2,0,L|160:308,1,75,0|0,0:0|0:0,0:0:0:0:
267,302,32208,2,0,L|323:222,1,75,8|0,0:0|0:0,0:0:0:0:
340,128,32550,6,0,P|296:136|276:192,1,75
316,248,32893,1,8,0:0:0:0:
316,248,33065,2,0,B|340:208|340:208|404:208|421:137,1,150
496,144,33579,1,8,0:0:0:0:
472,236,33750,6,0,P|476:292|448:336,2,75
417,151,34265,1,8,0:0:0:0:
352,76,34436,2,0,P|336:36|344:4,2,75
417,151,34950,1,8,0:0:0:0:
344,200,35122,1,8,0:0:0:0:
256,184,35293,6,0,P|232:152|232:88,1,75,4|0,0:0|0:0,0:0:0:0:
148,88,35636,1,8,0:0:0:0:
104,160,35808,1,0,0:0:0:0:
48,224,35979,2,0,P|0:216|-24:192,2,75,0|0|8,0:0|0:0|0:0,0:0:0:0:
128,236,36493,6,0,B|180:244|180:244|212:280|212:280|264:288,1,150
348,288,37008,1,8,0:0:0:0:
348,288,37179,1,0,0:0:0:0:
396,216,37350,2,0,P|384:176|344:140,1,75
296,100,37693,1,8,0:0:0:0:
372,68,37865,1,0,0:0:0:0:
296,100,38036,6,0,P|252:84|220:96,1,75
212,220,38379,2,0,P|256:236|288:224,1,75,8|0,0:0|0:0,0:0:0:0:
256,160,38722,2,0,B|216:132|172:156|172:156|96:128,1,150,0|8,0:0|0:0,0:0:0:0:
40,148,39236,6,0,P|40:108|72:72,2,75
88,272,39750,1,8,0:0:0:0:
88,272,40093,2,0,P|144:280|184:256,1,75
232,220,40436,1,8,0:0:0:0:
284,148,40608,1,0,0:0:0:0:
340,80,40779,6,0,B|372:44|408:56|408:56|440:132,1,150,0|8,0:0|0:0,0:0:0:0:
476,204,41293,1,0,0:0:0:0:
384,310,41636,2,0,P|420:336|468:344,1,75,0|8,0:0|0:0,0:0:0:0:
384,310,41979,2,0,P|360:254|272:230,1,150
296,300,42493,6,0,P|352:236|320:168,1,150,8|0,0:0|0:0,0:0:0:0:
304,96,43008,1,0,0:0:0:0:
304,96,43179,2,0,L|216:96,1,75,8|0,0:0|0:0,0:0:0:0:
144,96,43522,6,0,P|104:112|72:160,1,75
84,224,43865,1,8,0:0:0:0:
168,256,44036,2,0,P|216:240|240:192,1,75
280,152,44379,1,0,0:0:0:0:
280,152,44550,1,8,0:0:0:0:
320,224,44722,6,0,B|344:292|344:292|380:272|440:276,1,150
496,240,45236,1,8,0:0:0:0:
496,240,45408,2,0,L|416:112,1,150,0|8,0:0|0:0,0:0:0:0:
364,44,45922,1,8,0:0:0:0:
256,176,46265,6,0,P|240:240|200:272,1,112.500004291535,4|2,0:0|0:0,0:0:0:0:
176,192,46779,1,0,0:0:0:0:
176,192,46950,2,0,L|120:160,2,56.2500021457673
256,232,47465,6,0,B|312:232|360:264|360:264|400:208,1,168.750006437302,2|2,0:0|0:0,0:0:0:0:
394,216,48150,1,0,0:0:0:0:
272,84,48493,1,0,0:0:0:0:
272,84,48665,2,0,L|192:84,1,56.2500021457673,8|0,0:0|0:0,0:0:0:0:
144,128,49008,6,0,P|176:192|160:240,1,112.500004291535,2|0,0:0|0:0,0:0:0:0:
256,232,49522,2,0,P|288:200|352:192,1,112.500004291535,2|0,0:0|0:0,0:0:0:0:
428,240,50036,1,0,0:0:0:0:
428,240,50208,6,0,L|428:112,1,112.500004291535,2|2,0:0|0:0,0:0:0:0:
428,128,50722,1,0,0:0:0:0:
428,128,50893,1,2,0:0:0:0:
248,128,51236,1,0,0:0:0:0:
248,128,51408,1,8,0:0:0:0:
204,272,51750,6,0,P|256:292|316:260,2,112.500004291535,2|0|2,0:0|0:0|0:0,0:0:0:0:
116,256,52608,1,0,0:0:0:0:
104,168,52779,1,0,0:0:0:0:
192,184,52950,6,0,P|184:120|132:80,1,112.500004291535,2|0,0:0|0:0,0:0:0:0:
152,88,53465,1,0,0:0:0:0:
152,88,53636,1,2,0:0:0:0:
344,64,53979,1,0,0:0:0:0:
344,64,54150,1,8,0:0:0:0:
336,224,54493,6,0,P|332:264|312:296,1,75,4|0,0:0|0:0,0:0:0:0:
324,144,54836,2,0,P|364:148|396:168,1,75,0|0,0:0|0:0,0:0:0:0:
244,156,55179,2,0,P|248:116|268:84,1,75,0|0,0:0|0:0,0:0:0:0:
256,236,55522,2,0,P|216:232|184:212,1,75,0|8,0:0|0:0,0:0:0:0:
304,324,56036,5,8,0:0:0:0:
208,324,56208,1,8,0:0:0:0:
256,236,56379,1,8,0:0:0:0:
256,64,56893,1,2,0:0:0:0:
200,200,57236,6,0,L|128:168,1,75,4|0,0:0|0:0,0:0:0:0:
312,200,57579,2,0,L|384:168,1,75,8|0,0:0|0:0,0:0:0:0:
320,292,57922,1,0,0:0:0:0:
320,292,58093,1,0,0:0:0:0:
320,292,58265,2,0,P|264:284|220:188,1,150,8|0,0:0|0:0,0:0:0:0:
276,124,58779,5,0,0:0:0:0:
312,200,58950,1,8,0:0:0:0:
312,200,59122,2,0,P|236:200|192:144,1,150
216,72,59636,2,0,L|176:72|128:72,1,75,8|0,0:0|0:0,0:0:0:0:
300,152,59979,6,0,L|372:184,1,75,2|0,0:0|0:0,0:0:0:0:
216,152,60322,2,0,L|144:184,1,75,10|0,0:0|0:0,0:0:0:0:
296,72,60665,2,0,L|336:72|384:72,1,75,2|0,0:0|0:0,0:0:0:0:
216,72,61008,2,0,L|176:72|128:72,1,75,10|0,0:0|0:0,0:0:0:0:
68,120,61350,5,2,0:0:0:0:
116,192,61522,1,0,0:0:0:0:
200,200,61693,1,8,0:0:0:0:
200,200,61865,2,0,P|280:184|336:256,1,150
368,300,62379,2,0,L|408:300|456:300,1,75,8|0,0:0|0:0,0:0:0:0:
468,220,62722,6,0,L|396:180,1,75,4|0,0:0|0:0,0:0:0:0:
332,140,63065,1,8,0:0:0:0:
368,300,63408,2,0,L|296:260,1,75
232,220,63750,1,8,0:0:0:0:
248,56,64093,6,0,P|320:64|352:80,2,75,0|0|8,0:0|0:0|0:0,0:0:0:0:
160,64,64608,2,0,P|104:104|88:184,1,150
176,216,65122,2,0,L|256:216,1,75,8|0,0:0|0:0,0:0:0:0:
356,216,65465,5,0,0:0:0:0:
356,216,65636,1,0,0:0:0:0:
356,216,65808,2,0,P|404:216|452:248,1,75,8|0,0:0|0:0,0:0:0:0:
380,304,66150,1,0,0:0:0:0:
380,304,66322,1,0,0:0:0:0:
380,304,66493,2,0,P|332:304|284:272,1,75,8|0,0:0|0:0,0:0:0:0:
220,252,66836,6,0,P|148:264|80:212,1,150,2|8,0:0|0:0,0:0:0:0:
232,152,67522,2,0,P|304:140|372:192,1,150,2|8,0:0|0:0,0:0:0:0:
272,320,68208,6,0,P|208:288|104:296,1,150,4|8,0:0|0:0,0:0:0:0:
232,152,68893,2,0,P|300:176|388:156,1,150,0|8,0:0|0:0,0:0:0:0:
368,320,69579,5,0,0:0:0:0:
296,272,69750,1,0,0:0:0:0:
256,200,69922,1,8,0:0:0:0:
228,120,70093,2,0,L|140:144,1,75
72,168,70436,1,0,0:0:0:0:
72,168,70608,2,0,L|72:264,1,75,8|0,0:0|0:0,0:0:0:0:
136,304,70950,6,0,P|192:264|272:272,1,150,2|8,0:0|0:0,0:0:0:0:
368,140,71636,2,0,P|312:180|232:172,1,150,2|8,0:0|0:0,0:0:0:0:
400,56,72322,5,2,0:0:0:0:
448,128,72493,1,0,0:0:0:0:
424,208,72665,1,8,0:0:0:0:
368,280,72836,2,0,L|296:208,1,75,2|0,0:0|0:0,0:0:0:0:
227,183,73179,1,0,0:0:0:0:
227,183,73350,2,0,L|131:183,1,75,8|0,0:0|0:0,0:0:0:0:
72,216,73693,6,0,L|80:320,1,75,4|0,0:0|0:0,0:0:0:0:
191,247,74036,2,0,L|152:183,1,75,8|0,0:0|0:0,0:0:0:0:
216,128,74379,2,0,L|296:184,1,75
337,69,74722,2,0,L|264:56,1,75,8|0,0:0|0:0,0:0:0:0:
444,96,75065,6,0,P|412:136|408:188,1,75
392,236,75408,1,8,0:0:0:0:
404,316,75579,1,0,0:0:0:0:
232,328,75922,1,0,0:0:0:0:
232,328,76093,2,0,P|192:336|136:328,1,75,8|0,0:0|0:0,0:0:0:0:
104,256,76436,6,0,L|168:168,1,75
200,128,76779,1,8,0:0:0:0:
360,224,77122,2,0,L|264:216,1,75
192,208,77465,1,8,0:0:0:0:
104,92,77808,6,0,P|84:60|76:16,2,75,0|0|8,0:0|0:0|0:0,0:0:0:0:
156,164,78322,2,0,P|204:212|300:228,1,150
372,244,78836,1,8,0:0:0:0:
372,244,79179,6,0,P|412:212|428:164,1,75,2|0,0:0|0:0,0:0:0:0:
272,180,79522,2,0,P|336:164|360:140,1,75,10|0,0:0|0:0,0:0:0:0:
212,84,79865,2,0,P|252:96|292:92,2,75,2|0|10,0:0|0:0|0:0,0:0:0:0:
116,48,80379,1,0,0:0:0:0:
116,48,80550,6,0,P|140:120|124:192,1,150,4|10,0:0|0:0,0:0:0:0:
272,240,81236,1,0,0:0:0:0:
348,188,81408,1,0,0:0:0:0:
416,120,81579,2,0,P|376:104|352:72,1,75,8|0,0:0|0:0,0:0:0:0:
260,88,81922,6,0,P|228:56|172:40,2,75,0|0|8,0:0|0:0|0:0,0:0:0:0:
348,188,82436,1,8,0:0:0:0:
348,188,82779,1,0,0:0:0:0:
348,188,82950,2,0,P|380:216|420:228,1,75,8|0,0:0|0:0,0:0:0:0:
416,120,83293,6,0,P|380:96|340:92,1,75
272,112,83636,2,0,P|268:84|284:36,2,75,8|8|0,0:0|0:0|0:0,0:0:0:0:
348,188,84150,1,0,0:0:0:0:
348,188,84322,2,0,P|296:216|260:212,1,75,8|0,0:0|0:0,0:0:0:0:
184,208,84665,6,0,P|200:160|136:84,1,150,8|0,0:0|0:0,0:0:0:0:
108,168,85179,2,0,P|92:216|156:292,1,150,8|0,0:0|0:0,0:0:0:0:
236,292,85693,2,0,L|316:292,1,75,8|0,0:0|0:0,0:0:0:0:
256,192,86036,12,4,87408,0:0:0:0:
