osu file format v12

[General]
AudioFilename: 02-Rhapsody - Warrior of Ice.mp3
AudioLeadIn: 3000
PreviewTime: 43618
Countdown: 1
SampleSet: Normal
StackLeniency: 0.7
Mode: 0
LetterboxInBreaks: 1
WidescreenStoryboard: 0

[Editor]
DistanceSpacing: 1
BeatDivisor: 3
GridSize: 8

[Metadata]
Title:Warrior of Ice
TitleUnicode:Warrior of Ice
Artist:Rhapsody of Fire
ArtistUnicode:Rhapsody of Fire
Creator:happy30
Version:Insane
Source:
Tags:symphonic power metal
BeatmapID:189584
BeatmapSetID:64412

[Difficulty]
HPDrainRate:9
CircleSize:4
OverallDifficulty:9
ApproachRate:9
SliderMultiplier:2.4
SliderTickRate:1

[Events]
//Background and Video events
0,0,"woi.jpg",0,0
//Break Periods
2,192393,202565
2,214124,225822
//Storyboard Layer 0 (Background)
//Storyboard Layer 1 (Fail)
//Storyboard Layer 2 (Pass)
//Storyboard Layer 3 (Foreground)
//Storyboard Sound Samples
//Background Colour Transformations
3,100,163,162,255

[TimingPoints]
18,600,4,1,1,100,1,0
5418,-200,4,1,1,100,0,0
43540,342.553516985441,4,1,1,100,1,0
48654,-100,4,2,1,62,0,0
48826,-100,4,1,1,45,0,0
53107,-133.333333333333,4,1,1,45,0,0
54476,-100,4,1,1,45,0,0
58586,-133.333333333333,4,1,1,45,0,0
60651,-133.333333333333,4,1,1,62,0,0
74365,-200,4,1,1,62,0,0
80536,-200,4,1,1,52,0,0
81222,-200,4,1,1,42,0,0
82591,-133.333333333333,4,1,1,62,0,0
92177,-133.333333333333,4,1,1,62,0,0
110003,-133.333333333333,4,1,1,62,0,1
110089,-133.333333333333,4,1,1,62,0,0
116846,-200,4,1,1,62,0,0
117874,-133.333333333333,4,1,1,62,0,0
118231,-133.333333333333,4,1,1,62,0,1
120973,-133.333333333333,4,1,1,62,0,0
122327,-200,4,1,1,62,0,0
126437,-100,4,1,1,62,0,1
130548,-133.333333333333,4,1,1,75,0,1
131921,-100,4,1,1,55,0,1
136029,-133.333333333333,4,1,1,75,0,1
137399,-133.333333333333,4,1,1,75,0,0
144921,342.553516985441,4,1,1,75,1,0
144931,-133.333333333333,4,1,1,75,0,0
164789,-133.333333333333,4,1,1,75,0,1
164960,-133.333333333333,4,1,1,75,0,0
171640,-200,4,1,1,75,0,0
173010,-133.333333333333,4,1,1,75,0,1
175750,-133.333333333333,4,1,1,75,0,0
177121,-200,4,1,1,75,0,0
178491,-200,4,1,1,30,0,0
179176,-133.333333333333,4,1,1,45,0,0
179861,-100,4,1,1,55,0,0
180546,-100,4,1,1,75,0,0
181231,-100,4,1,1,75,0,1
185342,-200,4,1,1,75,0,1
186712,-100,4,1,1,75,0,1
190823,-200,4,1,1,75,0,1
192194,685.322672758424,4,1,1,75,1,0
203165,-200,4,1,1,75,0,1
210012,-133.333333333333,4,1,1,75,0,1
226421,521.739130434783,4,1,1,75,1,0

[Colours]
Combo1 : 100,100,100
Combo2 : 77,90,153
Combo3 : 109,164,190

[HitObjects]
256,352,43540,5,4,0:0:0:0:
256,352,44738,5,0,0:0:0:0:
256,232,44910,1,4,0:0:0:0:
256,352,46109,5,0,0:0:0:0:
256,232,46280,1,4,0:0:0:0:
256,352,47479,5,0,0:0:0:0:
256,232,47650,1,4,0:0:0:0:
256,192,47736,8,4,48678,0:0:0:0:
152,288,49020,6,0,B|136:392,3,60,4|0|0|0,0:0|0:0|0:0|0:0,0:0:0:0:
80,240,49363,2,0,B|64:344,3,60,0|0|0|0,0:0|0:0|0:0|0:0,0:0:0:0:
240,192,49705,2,0,B|224:296,3,60,0|0|0|0,0:0|0:0|0:0|0:0,0:0:0:0:
168,144,50048,2,0,B|152:248,3,60,0|0|0|0,0:0|0:0|0:0|0:0,0:0:0:0:
360,288,50391,6,0,B|376:392,3,60,0|0|0|0,0:0|0:0|0:0|0:0,0:0:0:0:
432,240,50733,2,0,B|448:344,3,60,0|0|0|0,0:0|0:0|0:0|0:0,0:0:0:0:
272,192,51076,2,0,B|288:296,3,60,0|0|0|0,0:0|0:0|0:0|0:0,0:0:0:0:
344,144,51418,2,0,B|360:248,3,60,0|0|0|0,0:0|0:0|0:0|0:0,0:0:0:0:
112,112,51761,6,0,B|8:96,3,60,0|0|0|0,0:0|0:0|0:0|0:0,0:0:0:0:
160,40,52103,2,0,B|56:24,3,60,0|0|0|0,0:0|0:0|0:0|0:0,0:0:0:0:
208,200,52446,2,0,B|104:184,3,60,0|0|0|0,0:0|0:0|0:0|0:0,0:0:0:0:
256,128,52788,2,0,B|152:112,3,60,0|0|0|0,0:0|0:0|0:0|0:0,0:0:0:0:
304,200,53131,6,0,B|314:289|320:384,1,180.000006866455,4|8,0:0|0:0,0:0:0:0:
120,272,53645,1,0,0:0:0:0:
208,200,53816,2,0,B|197:287|192:384,1,180.000006866455,4|8,0:0|0:0,0:0:0:0:
320,376,54330,1,0,0:0:0:0:
440,320,54501,6,0,B|544:304,3,60,4|0|0|0,0:0|0:0|0:0|0:0,0:0:0:0:
392,248,54844,2,0,B|496:232,3,60
256,144,55186,2,0,B|152:160,3,60
304,216,55529,2,0,B|200:232,3,60
440,88,55871,6,0,B|424:-16,3,60
368,136,56214,2,0,B|352:32,3,60
216,240,56557,2,0,B|200:344,3,60
144,192,56899,2,0,B|128:296,3,60
112,112,57242,6,0,B|8:96,3,60,4|0|0|0,0:0|0:0|0:0|0:0,0:0:0:0:
160,40,57584,2,0,B|56:24,3,60
328,24,57927,2,0,B|432:40,3,60
280,96,58269,2,0,B|384:112,3,60
248,176,58612,6,0,B|304:272|416:216,1,180.000006866455,4|8,0:0|0:0,0:0:0:0:
448,144,59126,1,0,0:0:0:0:
216,264,59297,2,0,B|168:288|136:336,1,90.0000034332277,4|0,0:0|0:0,0:0:0:0:
135,334,59554,1,0,0:0:0:0:
125,349,59640,1,8,0:0:0:0:
32,384,59811,1,0,0:0:0:0:
0,288,59982,5,0,0:0:0:0:
0,288,60496,1,0,0:0:0:0:
144,224,60667,6,0,B|160:112,1,90.0000034332277,4|0,0:0|0:0,0:0:0:0:
152,120,60924,1,0,0:0:0:0:
144,104,61010,1,8,0:0:0:0:
64,64,61181,1,0,0:0:0:0:
0,288,61352,2,0,B|64:376|168:320,1,180.000006866455,0|8,0:0|0:0,0:0:0:0:
240,240,61866,1,0,0:0:0:0:
288,312,62037,6,0,B|384:336,1,90.0000034332277,4|0,0:0|0:0,0:0:0:0:
391,342,62294,1,0,0:0:0:0:
408,346,62380,1,8,0:0:0:0:
468,279,62551,1,0,0:0:0:0:
456,184,62722,2,0,B|392:96|288:152,1,180.000006866455,0|8,0:0|0:0,0:0:0:0:
184,344,63236,1,0,0:0:0:0:
96,368,63408,6,0,B|96:256|16:192,1,180.000006866455,4|8,0:0|0:0,0:0:0:0:
8,120,63921,1,0,0:0:0:0:
8,120,64007,1,0,0:0:0:0:
8,120,64093,1,0,0:0:0:0:
89,69,64264,2,0,B|104:112|108:161,1,90.0000034332277,0|8,0:0|0:0,0:0:0:0:
216,264,64607,2,0,B|200:224|197:172,1,90.0000034332277,0|4,0:0|0:0,0:0:0:0:
72,304,65120,5,8,0:0:0:0:
256,360,65463,1,0,0:0:0:0:
440,304,65805,1,8,0:0:0:0:
256,360,66148,5,4,0:0:0:0:
192,296,66319,1,0,0:0:0:0:
184,279,66405,1,0,0:0:0:0:
175,263,66491,1,8,0:0:0:0:
300,246,66662,2,0,B|333:212|383:170,1,90.0000034332277
380,172,66919,1,0,0:0:0:0:
398,163,67004,1,0,0:0:0:0:
368,312,67176,1,8,0:0:0:0:
232,200,67347,1,0,0:0:0:0:
232,32,67518,6,0,B|160:56|96:160,1,180.000006866455,4|8,0:0|0:0,0:0:0:0:
48,80,68032,1,0,0:0:0:0:
216,144,68203,2,0,B|248:232|256:320,1,180.000006866455,0|8,0:0|0:0,0:0:0:0:
336,352,68717,1,0,0:0:0:0:
160,272,68888,6,0,B|126:305|76:347,1,90.0000034332277,4|0,0:0|0:0,0:0:0:0:
80,346,69145,1,0,0:0:0:0:
62,355,69231,1,8,0:0:0:0:
8,216,69402,1,0,0:0:0:0:
152,112,69574,2,0,B|224:136|288:240,1,180.000006866455,0|8,0:0|0:0,0:0:0:0:
328,312,70087,1,0,0:0:0:0:
392,256,70259,5,4,0:0:0:0:
376,168,70430,1,0,0:0:0:0:
368,146,70516,1,0,0:0:0:0:
371,124,70601,1,8,0:0:0:0:
498,234,70773,1,0,0:0:0:0:
506,256,70858,1,0,0:0:0:0:
503,278,70944,2,0,B|472:309|449:366,1,90.0000034332277
295,235,71286,2,0,B|265:205|242:148,1,90.0000034332277,8|0,0:0|0:0,0:0:0:0:
296,88,71629,5,4,0:0:0:0:
144,184,71800,1,0,0:0:0:0:
144,184,71886,1,0,0:0:0:0:
144,184,71971,1,12,0:0:0:0:
248,344,72143,1,0,0:0:0:0:
248,344,72228,1,0,0:0:0:0:
248,344,72314,1,4,0:0:0:0:
376,256,72485,1,0,0:0:0:0:
376,256,72571,1,0,0:0:0:0:
376,256,72657,2,0,B|384:208|408:152,1,90.0000034332277,12|0,0:0|0:0,0:0:0:0:
232,216,72999,6,0,B|200:304|120:360,1,180.000006866455,4|8,0:0|0:0,0:0:0:0:
40,328,73513,1,0,0:0:0:0:
40,328,73599,1,0,0:0:0:0:
40,328,73684,1,0,0:0:0:0:
144,224,73855,1,0,0:0:0:0:
144,224,73941,1,0,0:0:0:0:
144,224,74027,1,8,0:0:0:0:
8,136,74198,1,0,0:0:0:0:
96,144,74369,6,0,B|296:104,1,180,4|0,0:0|2:0,0:0:0:0:
32,248,75054,2,0,B|232:208,1,180,4|0,0:0|2:0,0:0:0:0:
256,136,75740,5,0,0:3:0:0:
339,118,75911,1,0,0:3:0:0:
409,163,76082,1,0,0:3:0:0:
428,245,76253,1,0,0:3:0:0:
382,316,76425,1,0,0:3:0:0:
300,334,76596,1,0,0:3:0:0:
230,289,76767,1,0,0:3:0:0:
211,207,76938,1,0,0:3:0:0:
344,64,77110,6,0,B|308:240,1,180,4|0,0:0|2:0,0:0:0:0:
448,0,77795,2,0,B|412:176,1,180,4|0,0:0|2:0,0:0:0:0:
384,264,78480,5,0,0:0:0:0:
274,313,78651,1,0,0:0:0:0:
167,258,78908,1,0,0:0:0:0:
144,140,79165,1,0,0:0:0:0:
221,49,79336,1,0,0:0:0:0:
341,52,79593,1,0,0:0:0:0:
413,147,79850,5,4,0:0:0:0:
413,147,80021,1,0,0:0:0:0:
413,147,80193,2,0,B|360:160|312:176,1,60
224,224,80535,1,0,0:0:0:0:
224,224,80707,1,0,0:0:0:0:
224,224,80878,2,0,B|277:237|325:253,1,60
392,328,81220,1,0,0:0:0:0:
392,328,81392,1,0,0:0:0:0:
392,328,81563,2,0,B|339:341|291:357,1,60
240,376,81905,5,4,0:0:0:0:
240,376,82419,1,0,0:0:0:0:
80,264,82591,6,0,B|152:336|248:288,1,180.000006866455,4|8,0:0|0:0,0:0:0:0:
288,208,83104,1,0,0:0:0:0:
480,328,83276,2,0,B|408:400|312:352,1,180.000006866455,4|8,0:0|0:0,0:0:0:0:
192,216,83790,1,0,0:0:0:0:
264,168,83961,5,0,0:0:0:0:
264,168,84046,1,0,0:0:0:0:
264,168,84132,2,0,B|288:120|280:56,1,90.0000034332277,0|8,0:0|0:0,0:0:0:0:
216,16,84475,1,0,0:0:0:0:
56,96,84646,2,0,B|-16:168|32:264,1,180.000006866455,4|8,0:0|0:0,0:0:0:0:
72,336,85160,1,0,0:0:0:0:
160,368,85331,5,0,0:0:0:0:
472,208,85674,1,8,0:0:0:0:
144,32,86016,2,0,B|153:79|160:128,1,90.0000034332277
104,192,86359,1,8,0:0:0:0:
256,232,86530,2,0,B|245:188|240:136,1,90.0000034332277,0|4,0:0|0:0,0:0:0:0:
0,304,87044,5,8,0:0:0:0:
88,280,87215,1,0,0:0:0:0:
168,320,87386,1,0,0:0:0:0:
168,320,87472,1,0,0:0:0:0:
168,320,87558,2,0,B|216:328|264:376,1,90.0000034332277,0|8,0:0|0:0,0:0:0:0:
320,304,87900,1,0,0:0:0:0:
400,352,88071,6,0,B|480:280|424:168,1,180.000006866455,4|8,0:0|0:0,0:0:0:0:
360,136,88585,1,0,0:0:0:0:
224,256,88757,2,0,B|128:288|48:248,1,180.000006866455,0|8,0:0|0:0,0:0:0:0:
8,168,89270,1,0,0:0:0:0:
64,96,89442,5,0,0:0:0:0:
152,112,89613,1,0,0:0:0:0:
152,112,89699,1,0,0:0:0:0:
152,112,89784,2,0,B|176:160|176:240,1,90.0000034332277,8|0,0:0|0:0,0:0:0:0:
304,368,90127,1,0,0:0:0:0:
384,312,90298,1,0,0:0:0:0:
384,312,90384,1,0,0:0:0:0:
384,312,90469,2,0,B|432:288|512:288,1,90.0000034332277,8|0,0:0|0:0,0:0:0:0:
336,248,90812,6,0,B|288:272|208:272,1,90.0000034332277,4|0,0:0|0:0,0:0:0:0:
249,270,91069,1,0,0:0:0:0:
249,270,91154,1,0,0:0:0:0:
168,240,91326,1,0,0:0:0:0:
336,152,91497,2,0,B|389:147|463:177,1,90.0000034332277,4|0,0:0|0:0,0:0:0:0:
424,162,91754,1,0,0:0:0:0:
424,162,91840,1,0,0:0:0:0:
320,368,92011,1,0,0:0:0:0:
208,280,92182,2,0,B|200:230|184:168,1,90.0000034332277,4|0,0:0|0:0,0:0:0:0:
232,24,92525,2,0,B|239:75|256:136,1,90.0000034332277
88,144,92867,1,0,0:0:0:0:
80,120,92953,1,0,0:0:0:0:
72,96,93038,1,0,0:0:0:0:
64,72,93124,1,0,0:0:0:0:
56,48,93210,1,0,0:0:0:0:
168,88,93381,1,0,0:0:0:0:
216,224,93552,6,0,B|144:296|48:248,1,180.000006866455,4|8,0:0|0:0,0:0:0:0:
240,136,94066,1,0,0:0:0:0:
336,88,94237,2,0,B|408:160|360:256,1,180.000006866455,4|8,0:0|0:0,0:0:0:0:
312,328,94751,1,0,0:0:0:0:
168,216,94923,2,0,P|120:208|72:208,1,90.0000034332277,4|0,0:0|0:0,0:0:0:0:
408,144,95265,2,0,P|456:136|504:136,1,90.0000034332277,4|0,0:0|0:0,0:0:0:0:
224,16,95608,2,0,B|152:88|200:184,1,180.000006866455,4|8,0:0|0:0,0:0:0:0:
296,200,96121,1,0,0:0:0:0:
208,328,96293,6,0,B|136:400|40:352,1,180.000006866455,4|8,0:0|0:0,0:0:0:0:
8,272,96807,1,0,0:0:0:0:
40,184,96978,2,0,P|98:155|176:160,2,135.000005149841
120,232,97663,1,0,0:0:0:0:
192,280,97834,1,0,0:0:0:0:
192,280,97920,1,0,0:0:0:0:
192,280,98006,1,8,0:0:0:0:
216,368,98177,1,0,0:0:0:0:
288,256,98348,1,0,0:0:0:0:
280,232,98434,1,0,0:0:0:0:
280,208,98519,1,0,0:0:0:0:
288,184,98605,1,0,0:0:0:0:
304,168,98691,2,0,P|376:232|480:272,1,180.000006866455,8|4,0:0|0:0,0:0:0:0:
488,184,99204,5,0,0:0:0:0:
488,184,99290,1,0,0:0:0:0:
488,184,99376,1,8,0:0:0:0:
424,120,99547,1,0,0:0:0:0:
280,48,99718,2,0,P|216:120|176:224,1,180.000006866455,0|8,0:0|0:0,0:0:0:0:
168,288,100232,1,0,0:0:0:0:
96,128,100403,2,0,P|56:72|-8:32,2,135.000005149841,4|0|0,0:0|0:0|0:0,0:0:0:0:
288,168,101088,2,0,P|352:240|392:344,1,180.000006866455,4|8,0:0|0:0,0:0:0:0:
385,315,101517,1,0,0:0:0:0:
385,315,101602,1,0,0:0:0:0:
456,264,101774,5,4,0:0:0:0:
416,184,101945,1,0,0:0:0:0:
416,184,102031,1,0,0:0:0:0:
416,184,102116,1,8,0:0:0:0:
352,120,102287,1,0,0:0:0:0:
208,232,102459,2,0,P|144:304|104:408,1,180.000006866455
32,336,102973,1,0,0:0:0:0:
0,240,103144,5,4,0:0:0:0:
56,168,103315,1,0,0:0:0:0:
80,184,103401,1,0,0:0:0:0:
112,192,103486,1,0,0:0:0:0:
200,168,103658,1,0,0:0:0:0:
280,136,103829,1,8,0:0:0:0:
360,176,104000,1,8,0:0:0:0:
392,264,104171,1,8,0:0:0:0:
352,344,104343,1,8,0:0:0:0:
272,376,104514,5,4,0:0:0:0:
256,192,104600,12,0,105542,2:0:0:0:
208,280,105884,6,0,L|152:256,2,60.0000022888184,4|0|0,0:0|0:0|0:0,0:0:0:0:
304,192,106227,2,0,L|360:168,2,60.0000022888184,4|0|0,0:0|0:0|0:0,0:0:0:0:
160,112,106569,2,0,L|104:88,2,60.0000022888184,4|0|0,0:0|0:0|0:0,0:0:0:0:
344,40,106912,2,0,L|400:16,2,60.0000022888184,4|0|0,0:0|0:0|0:0,0:0:0:0:
272,80,107254,5,6,0:0:0:0:
272,80,108625,6,0,L|264:144,2,60.0000022888184,4|0|0,0:0|0:0|0:0,0:0:0:0:
328,240,108967,2,0,L|336:176,2,60.0000022888184,4|0|0,0:0|0:0|0:0,0:0:0:0:
240,296,109310,5,0,0:0:0:0:
224,336,109395,1,0,0:0:0:0:
192,360,109567,1,0,0:0:0:0:
152,368,109652,1,0,0:0:0:0:
112,360,109738,1,0,0:0:0:0:
80,336,109909,1,0,0:0:0:0:
72,296,109995,6,0,P|104:264|176:232,1,90.0000034332277,4|0,0:0|0:0,0:0:0:0:
232,72,110337,2,0,P|200:104|128:136,1,90.0000034332277,4|0,0:0|0:0,0:0:0:0:
0,104,110680,2,0,P|32:72|104:40,1,90.0000034332277,4|0,0:0|0:0,0:0:0:0:
216,208,111023,2,0,P|248:240|280:312,1,90.0000034332277,4|0,0:0|0:0,0:0:0:0:
336,152,111365,1,4,0:0:0:0:
368,136,111451,1,0,0:0:0:0:
400,128,111536,1,0,0:0:0:0:
432,128,111622,1,0,0:0:0:0:
464,136,111708,2,0,P|472:184|464:240,1,90.0000034332277,4|0,0:0|0:0,0:0:0:0:
344,352,112050,2,0,P|336:304|344:248,1,90.0000034332277,4|0,0:0|0:0,0:0:0:0:
200,200,112393,2,0,P|208:248|200:304,1,90.0000034332277,4|0,0:0|0:0,0:0:0:0:
144,352,112735,5,4,0:0:0:0:
16,264,112907,1,0,0:0:0:0:
8,232,112992,1,0,0:0:0:0:
16,200,113078,1,0,0:0:0:0:
56,120,113249,1,0,0:0:0:0:
136,192,113420,1,4,0:0:0:0:
160,216,113506,1,0,0:0:0:0:
192,224,113592,1,0,0:0:0:0:
224,224,113677,1,0,0:0:0:0:
256,216,113763,1,0,0:0:0:0:
344,152,113934,1,0,0:0:0:0:
432,216,114106,1,4,0:0:0:0:
256,192,114191,12,4,115133,0:0:0:0:
32,256,115476,5,6,0:0:0:0:
32,256,116503,2,0,P|72:280|112:272,1,90.0000034332277,4|0,0:0|0:0,0:0:0:0:
192,320,116846,6,0,P|305:292|409:348,1,240,4|0,0:0|2:0,0:0:0:0:
409,348,117874,1,0,2:0:0:0:
352,272,118045,1,0,2:0:0:0:
384,176,118216,5,4,0:0:0:0:
480,152,118387,1,0,0:0:0:0:
496,184,118473,1,0,0:0:0:0:
496,216,118559,2,0,P|472:264|432:288,1,90.0000034332277,4|0,0:0|0:0,0:0:0:0:
216,144,118901,2,0,P|264:168|288:208,1,90.0000034332277,4|0,0:0|0:0,0:0:0:0:
184,344,119244,5,4,0:0:0:0:
152,360,119329,1,0,0:0:0:0:
120,360,119415,2,0,P|72:336|48:296,1,90.0000034332277,0|4,0:0|0:0,0:0:0:0:
88,224,119758,1,0,0:0:0:0:
248,288,119929,1,4,0:0:0:0:
264,312,120015,1,0,0:0:0:0:
296,328,120101,1,0,0:0:0:0:
328,328,120186,1,0,0:0:0:0:
360,312,120271,2,0,P|384:272|392:224,1,90.0000034332277,4|0,0:0|0:0,0:0:0:0:
272,96,120614,2,0,P|248:136|240:184,1,90.0000034332277,4|0,0:0|0:0,0:0:0:0:
434,47,120957,5,6,0:0:0:0:
434,47,121984,1,6,0:0:0:0:
224,176,122156,1,6,0:0:0:0:
424,304,122327,2,0,P|456:224|464:128,1,180,4|0,0:0|2:0,0:0:0:0:
336,176,123012,2,0,P|304:256|296:352,1,180,4|0,0:0|2:0,0:0:0:0:
295,348,123697,1,4,0:0:0:0:
256,192,123783,12,4,124382,0:0:0:0:
384,360,124725,5,0,0:0:0:0:
456,296,125067,1,4,0:0:0:0:
256,192,125153,12,6,125752,0:0:0:0:
168,384,126095,5,8,0:0:0:0:
40,304,126437,6,0,P|136:224|272:288,1,240,4|4,0:0|0:0,0:0:0:0:
256,272,126866,1,0,0:0:0:0:
264,304,126951,1,0,0:0:0:0:
80,224,127123,1,4,0:0:0:0:
64,200,127208,1,0,0:0:0:0:
56,168,127294,1,0,0:0:0:0:
56,136,127379,1,0,0:0:0:0:
64,104,127465,2,0,P|120:128|192:120,1,120,4|0,0:0|0:0,0:0:0:0:
416,64,127808,6,0,P|360:40|288:48,1,120,4|0,0:0|0:0,0:0:0:0:
432,208,128150,1,4,0:0:0:0:
448,232,128236,1,0,0:0:0:0:
456,264,128321,1,0,0:0:0:0:
456,296,128407,1,0,0:0:0:0:
448,328,128493,2,0,P|384:352|320:312,1,120
176,200,128835,2,0,P|240:176|304:216,1,120
40,304,129178,6,0,L|24:376,3,60
128,280,129520,2,0,L|112:352,3,60
216,280,129863,2,0,L|200:208,3,60
288,320,130206,2,0,L|272:392,3,60
320,248,130548,6,2,B|408:240|504:264,1,180.000006866455,4|8,0:0|0:0,0:0:0:0:
352,168,131062,1,0,0:0:0:0:
184,360,131233,2,2,B|96:368|0:344,1,180.000006866455,4|8,0:0|0:0,0:0:0:0:
136,128,131747,1,0,0:0:0:0:
208,224,131918,5,0,0:0:0:0:
222,257,132004,1,0,0:0:0:0:
252,276,132090,1,0,0:0:0:0:
287,279,132175,1,0,0:0:0:0:
320,264,132261,1,0,0:0:0:0:
346,239,132346,1,0,0:0:0:0:
368,210,132432,1,0,0:0:0:0:
391,182,132518,1,0,0:0:0:0:
426,175,132603,2,0,P|482:207|506:263,1,120
303,153,132946,2,0,P|232:160|156:117,1,120
31,262,133289,5,0,0:0:0:0:
33,297,133374,1,0,0:0:0:0:
50,328,133460,1,0,0:0:0:0:
79,348,133545,1,0,0:0:0:0:
114,355,133631,1,0,0:0:0:0:
149,350,133717,1,0,0:0:0:0:
179,331,133802,1,0,0:0:0:0:
199,301,133888,1,0,0:0:0:0:
206,265,133974,2,0,P|202:217|174:152,1,120
39,86,134316,1,0,0:0:0:0:
185,16,134487,1,0,0:0:0:0:
104,243,134659,6,0,L|88:315,3,60
192,219,135001,2,0,L|176:291,3,60
280,219,135344,2,0,L|264:147,3,60
352,259,135687,2,0,L|336:331,3,60
432,256,136029,6,2,P|472:160|456:64,1,180.000006866455,6|2,0:0|0:0,0:0:0:0:
448,64,136457,1,0,0:0:0:0:
424,48,136543,1,0,0:0:0:0:
264,96,136714,6,2,P|224:192|240:288,1,180.000006866455
120,352,137228,5,0,0:0:0:0:
128,328,137314,1,0,0:0:0:0:
136,304,137399,2,0,L|120:192,1,90.0000034332277
8,120,137742,1,0,0:0:0:0:
8,120,137827,1,0,0:0:0:0:
8,120,137913,2,0,L|24:232,1,90.0000034332277
224,256,138256,1,0,0:0:0:0:
256,264,138341,1,0,0:0:0:0:
288,256,138427,2,0,P|320:224|360:200,1,90.0000034332277
448,352,138769,2,0,L|352:336,1,90.0000034332277
136,160,139112,2,0,L|232:176,1,90.0000034332277
64,336,139454,2,0,P|24:272|40:168,1,180.000006866455
88,88,139968,1,0,0:0:0:0:
176,64,140140,1,0,0:0:0:0:
232,128,140311,1,0,0:0:0:0:
240,160,140396,1,0,0:0:0:0:
232,192,140482,1,0,0:0:0:0:
152,296,140653,2,0,P|224:360|320:328,1,180.000006866455
480,152,141167,2,0,P|408:88|312:120,1,180.000006866455
280,264,141681,1,0,0:0:0:0:
280,264,141767,1,0,0:0:0:0:
280,264,141852,1,0,0:0:0:0:
384,200,142024,1,0,0:0:0:0:
288,96,142195,1,0,0:0:0:0:
262,76,142281,1,0,0:0:0:0:
231,71,142366,1,0,0:0:0:0:
200,81,142452,1,0,0:0:0:0:
176,101,142537,1,0,0:0:0:0:
146,113,142623,1,0,0:0:0:0:
114,112,142709,1,0,0:0:0:0:
85,99,142794,1,0,0:0:0:0:
65,74,142880,2,0,P|104:27|153:15,1,90.0000034332277
200,186,143223,2,0,L|184:304,1,90.0000034332277
187,275,143479,1,0,0:0:0:0:
187,275,143565,1,0,0:0:0:0:
72,360,143736,1,0,0:0:0:0:
72,360,143822,1,0,0:0:0:0:
72,360,143908,2,0,L|88:242,1,90.0000034332277
408,168,144250,2,0,L|392:286,1,90.0000034332277
395,257,144507,1,0,0:0:0:0:
395,257,144593,1,0,0:0:0:0:
304,112,144764,1,0,0:0:0:0:
504,48,144920,2,0,L|488:166,1,90.0000034332277
491,137,145177,1,0,0:0:0:0:
491,137,145263,1,0,0:0:0:0:
304,256,145434,1,0,0:0:0:0:
248,192,145605,2,0,P|192:144|72:120,1,180.000006866455
40,192,146119,1,0,0:0:0:0:
16,280,146291,2,0,P|72:328|192:352,1,180.000006866455
256,312,146804,1,0,0:0:0:0:
464,256,146976,2,0,L|448:352,1,90.0000034332277
384,192,147318,2,0,L|400:96,1,90.0000034332277
272,208,147661,1,0,0:0:0:0:
247,226,147746,1,0,0:0:0:0:
216,234,147832,1,0,0:0:0:0:
184,228,147918,1,0,0:0:0:0:
160,207,148003,2,0,L|146:148,3,45.0000017166138
72,184,148346,6,0,P|48:104|120:32,1,180.000006866455
256,128,148860,1,0,0:0:0:0:
416,272,149031,6,0,P|440:192|368:120,1,180.000006866455
104,288,149545,1,0,0:0:0:0:
248,368,149716,2,0,L|352:344,1,90.0000034332277
408,208,150059,2,0,L|304:232,1,90.0000034332277
112,136,150401,2,0,P|200:120|280:80,1,180.000006866455
352,24,150915,1,0,0:0:0:0:
232,192,151086,2,0,P|216:240|208:296,1,90.0000034332277
209,278,151343,1,0,0:0:0:0:
209,278,151429,1,0,0:0:0:0:
352,360,151600,1,0,0:0:0:0:
352,360,151686,1,0,0:0:0:0:
352,360,151771,2,0,P|368:280|368:200,2,135.000005149841
64,256,152457,1,0,0:0:0:0:
88,64,152628,1,0,0:0:0:0:
232,192,152799,2,0,L|248:80,1,90.0000034332277
344,32,153142,1,0,0:0:0:0:
338,62,153227,1,0,0:0:0:0:
340,93,153313,1,0,0:0:0:0:
351,122,153399,1,0,0:0:0:0:
371,145,153484,1,0,0:0:0:0:
397,162,153570,1,0,0:0:0:0:
425,175,153655,1,0,0:0:0:0:
456,176,153741,1,0,0:0:0:0:
486,167,153827,2,0,P|500:254|402:284,1,180.000006866455
344,256,154341,1,0,0:0:0:0:
136,240,154512,2,0,P|122:327|220:357,1,180.000006866455
256,296,155026,1,0,0:0:0:0:
64,152,155197,1,0,0:0:0:0:
256,48,155454,1,0,0:0:0:0:
448,152,155711,1,0,0:0:0:0:
368,120,155882,2,0,L|256:144,1,90.0000034332277
279,138,156139,1,0,0:0:0:0:
279,138,156225,1,0,0:0:0:0:
224,208,156396,1,0,0:0:0:0:
256,296,156567,2,0,P|320:368|408:336,1,180.000006866455
336,104,157252,2,0,P|272:32|184:64,1,180.000006866455
96,112,157766,1,0,0:0:0:0:
200,168,157937,1,0,0:0:0:0:
120,248,158109,1,0,0:0:0:0:
16,192,158280,1,0,0:0:0:0:
0,80,158451,1,0,0:0:0:0:
96,8,158622,1,0,0:0:0:0:
208,40,158794,1,0,0:0:0:0:
256,144,158965,1,0,0:0:0:0:
240,264,159137,1,0,0:0:0:0:
168,360,159308,1,0,0:0:0:0:
256,192,159393,12,0,160335,0:0:0:0:
168,360,160678,6,0,L|160:296,2,60.0000022888184
256,336,161020,2,0,L|248:272,2,60.0000022888184
344,312,161363,2,0,L|336:248,2,60.0000022888184
432,296,161705,2,0,L|424:232,2,60.0000022888184
448,376,162048,1,0,0:0:0:0:
240,80,163418,6,0,L|248:144,2,60.0000022888184,4|0|0,0:0|0:0|0:0,0:0:0:0:
184,240,163760,2,0,L|176:176,2,60.0000022888184,4|0|0,0:0|0:0|0:0,0:0:0:0:
272,296,164103,5,0,0:0:0:0:
288,336,164218,1,0,0:0:0:0:
320,360,164332,1,0,0:0:0:0:
360,368,164445,1,0,0:0:0:0:
400,360,164560,1,0,0:0:0:0:
432,336,164674,1,0,0:0:0:0:
448,296,164789,6,0,P|427:232|408:207,1,90.0000034332277,0|0,0:0|0:0,0:0:0:0:
419,65,165131,2,0,P|440:129|459:154,1,90.0000034332277,0|0,0:0|0:0,0:0:0:0:
366,327,165474,6,0,P|322:275|295:259,1,90.0000034332277,0|0,0:0|0:0,0:3:0:0:
252,123,165816,2,0,P|295:174|322:190,1,90.0000034332277,0|0,0:0|0:0,0:3:0:0:
299,371,166159,6,8,P|239:339|208:334,1,90.0000034332277,0|0,0:0|0:0,0:3:0:0:
116,224,166501,2,8,P|175:255|206:260,1,90.0000034332277,0|0,0:0|0:0,0:3:0:0:
375,136,166844,1,0,0:0:0:0:
363,117,166930,1,0,0:0:0:0:
347,101,167015,1,0,0:0:0:0:
331,87,167101,1,0,0:0:0:0:
314,75,167186,2,8,L|215:108,1,90.0000034332277,0|0,0:0|0:0,0:3:0:0:
416,223,167529,2,8,L|515:190,1,90.0000034332277,0|0,0:0|0:0,0:3:0:0:
235,15,167872,1,0,0:0:0:0:
130,125,168043,1,0,0:0:0:0:
219,234,168214,2,8,L|209:337,1,90.0000034332277,0|0,0:0|0:0,0:3:0:0:
312,250,168557,2,8,L|322:147,1,90.0000034332277,0|0,0:0|0:0,0:3:0:0:
45,108,168899,1,0,0:0:0:0:
35,128,168984,1,0,0:0:0:0:
27,149,169070,1,0,0:0:0:0:
22,171,169155,1,0,0:0:0:0:
20,193,169241,1,0,0:0:0:0:
20,216,169327,1,0,0:0:0:0:
23,238,169412,1,0,0:0:0:0:
29,260,169498,1,0,0:0:0:0:
37,281,169584,2,0,L|56:331,7,45.0000017166138
37,281,170269,1,0,0:0:0:0:
37,281,171297,6,0,L|136:299,1,90.0000034332277
179,237,171640,6,0,B|285:221|285:221|329:169|329:169|423:136|490:240,1,360
325,359,172839,1,0,0:0:0:0:
181,238,173010,1,0,0:0:0:0:
172,217,173095,1,0,0:0:0:0:
167,195,173181,1,0,0:0:0:0:
167,172,173266,1,0,0:0:0:0:
171,150,173352,1,0,0:0:0:0:
180,130,173438,1,0,0:0:0:0:
192,111,173523,1,0,0:0:0:0:
208,95,173609,1,0,0:0:0:0:
221,89,173695,1,0,0:0:0:0:
241,97,173780,1,0,0:0:0:0:
263,102,173866,1,0,0:0:0:0:
286,102,173951,1,0,0:0:0:0:
308,98,174037,1,0,0:0:0:0:
328,89,174123,1,0,0:0:0:0:
347,77,174208,1,0,0:0:0:0:
363,61,174294,1,0,0:0:0:0:
375,42,174380,2,0,P|384:91|386:141,1,90.0000034332277
476,241,174723,2,0,P|467:195|465:142,1,90.0000034332277
340,220,175066,1,0,0:0:0:0:
319,212,175151,1,0,0:0:0:0:
297,207,175237,1,0,0:0:0:0:
274,207,175322,1,0,0:0:0:0:
251,210,175408,2,0,P|224:256|207:310,1,90.0000034332277
468,361,175750,1,0,0:0:0:0:
117,253,176264,1,0,2:0:0:0:
95,164,176435,1,0,2:0:0:0:
95,164,176778,1,0,0:0:0:0:
0,334,176949,1,0,0:0:0:0:
217,310,177121,6,0,P|289:278|404:276,1,180
497,154,177806,6,0,P|425:186|310:188,1,180
242,171,178491,2,0,L|252:116,7,30
161,181,179176,2,0,L|148:239,7,45.0000017166138
83,155,179861,2,0,L|67:87,7,60
27,213,180546,2,0,L|43:281,7,60
51,299,181231,6,0,P|101:351|271:318,1,240,4|0,0:0|0:0,0:0:0:0:
276,312,181659,1,0,0:0:0:0:
289,285,181745,1,0,0:0:0:0:
293,255,181831,1,0,0:0:0:0:
284,226,181916,1,0,0:0:0:0:
267,200,182002,1,0,0:0:0:0:
243,181,182088,1,0,0:0:0:0:
223,158,182173,1,0,0:0:0:0:
205,133,182259,2,0,P|196:76|235:21,1,120
402,109,182601,2,0,P|411:166|372:221,1,120
200,257,182944,2,0,B|168:202|133:226|102:170,1,120
349,357,183286,2,0,B|381:302|416:326|439:281,1,120
270,86,183629,1,0,0:0:0:0:
256,112,183715,1,0,0:0:0:0:
251,141,183800,1,0,0:0:0:0:
253,170,183886,1,0,0:0:0:0:
265,197,183972,6,0,P|326:240|386:236,1,120
492,110,184314,2,0,P|431:67|371:71,1,120
199,257,184657,2,0,B|167:312|132:288|101:344,1,120
4,99,184999,1,0,0:0:0:0:
27,80,185085,1,0,0:0:0:0:
56,72,185171,1,0,0:0:0:0:
85,74,185256,1,0,0:0:0:0:
112,85,185342,2,0,P|127:147|143:226,1,120
427,319,185856,1,0,0:0:0:0:
241,268,186027,2,0,P|220:205|210:127,1,120
285,91,186541,1,0,0:0:0:0:
27,236,186712,1,0,0:0:0:0:
28,265,186797,1,0,0:0:0:0:
37,294,186883,1,0,0:0:0:0:
54,319,186968,1,0,0:0:0:0:
77,338,187054,1,0,0:0:0:0:
104,351,187140,1,0,0:0:0:0:
133,356,187225,1,0,0:0:0:0:
163,353,187311,1,0,0:0:0:0:
191,342,187397,2,0,P|197:279|214:214,1,120
458,164,187740,2,0,P|451:227|435:292,1,120
130,116,188082,1,0,0:0:0:0:
146,91,188167,1,0,0:0:0:0:
169,72,188253,1,0,0:0:0:0:
197,60,188338,1,0,0:0:0:0:
226,57,188424,1,0,0:0:0:0:
256,62,188510,1,0,0:0:0:0:
282,76,188595,1,0,0:0:0:0:
303,97,188681,1,0,0:0:0:0:
318,124,188767,2,0,P|310:194|322:250,1,120
488,154,189110,2,0,P|496:84|484:28,1,120
212,156,189452,1,0,0:0:0:0:
205,185,189537,1,0,0:0:0:0:
205,215,189623,1,0,0:0:0:0:
209,244,189708,1,0,0:0:0:0:
220,272,189794,1,0,0:0:0:0:
235,298,189880,1,0,0:0:0:0:
255,320,189965,1,0,0:0:0:0:
279,339,190051,1,0,0:0:0:0:
306,352,190137,1,0,0:0:0:0:
335,360,190222,1,0,0:0:0:0:
364,363,190308,1,0,0:0:0:0:
394,360,190394,1,0,0:0:0:0:
423,351,190479,1,0,0:0:0:0:
450,337,190565,1,0,0:0:0:0:
473,319,190650,1,0,0:0:0:0:
493,296,190736,1,0,0:0:0:0:
508,270,190823,2,0,P|457:223|385:198,1,120
322,191,191337,1,0,0:0:0:0:
263,258,191508,2,0,P|211:305|139:330,1,120
87,347,192022,1,0,0:0:0:0:
87,347,192107,1,0,0:0:0:0:
87,347,192193,1,0,0:0:0:0:
101,84,203165,6,0,P|145:152|165:205,1,120,4|4,0:0|2:0,0:0:0:0:
196,280,204536,1,4,0:0:0:0:
196,280,204872,5,0,2:0:0:0:
85,210,205043,1,0,2:0:0:0:
290,156,205215,2,0,P|360:171|414:190,1,120,0|4,2:0|0:0,2:0:0:0:
405,186,206585,5,4,2:0:0:0:
347,255,206928,1,0,2:0:0:0:
305,334,207271,1,4,0:0:0:0:
305,334,207613,5,0,2:0:0:0:
451,294,207785,1,0,2:0:0:0:
237,198,207956,1,4,2:0:0:0:
461,125,208299,1,0,2:0:0:0:
205,25,208641,6,0,P|189:70|174:140,1,120,4|4,0:0|2:0,0:0:0:0:
97,187,209669,1,0,2:0:0:0:
73,273,210012,2,0,P|141:327|223:273,2,180.000006866455,4|4|4,0:0|0:0|0:0,0:0:0:0:
73,273,212068,1,4,2:0:0:0:
75,185,212411,1,0,2:0:0:0:
38,109,212753,1,4,0:0:0:0:
120,128,226422,6,0,P|160:121|224:136,1,80,4|0,0:0|0:0,0:0:0:0:
320,128,226768,1,0,0:0:0:0:
344,56,226942,2,0,P|304:45|256:56,1,80
168,208,227290,1,0,0:0:0:0:
240,240,227464,2,0,L|248:320,2,80
64,152,227986,1,4,0:0:0:0:
128,88,228160,6,0,P|168:94|232:80,1,80,4|0,0:0|0:0,0:0:0:0:
448,168,228507,2,0,P|352:208|304:168,1,160
320,104,229029,2,0,L|328:24,2,80,0|0|4,0:0|0:0|0:0,0:0:0:0:
56,248,229551,2,0,P|152:288|200:248,1,160
256,208,230073,1,0,0:0:0:0:
48,128,230421,1,0,0:0:0:0:
112,320,230594,2,0,P|208:360|256:320,1,160
328,320,231116,2,0,P|392:320|432:336,1,80
472,280,231464,1,0,0:0:0:0:
224,216,231638,2,0,P|160:216|120:232,1,80
80,176,231986,1,0,0:0:0:0:
120,104,232160,2,0,L|152:24,2,80
40,256,232681,2,0,P|136:296|184:256,1,160
368,152,233203,2,0,P|272:112|224:152,1,160
224,336,233725,1,0,0:0:0:0:
296,368,233899,1,0,0:0:0:0:
368,336,234073,1,0,0:0:0:0:
392,256,234247,1,0,0:0:0:0:
344,192,234421,2,0,L|328:104,1,80
