osu file format v12

[General]
AudioFilename: Emerald Sword.mp3
AudioLeadIn: 0
PreviewTime: 108164
Countdown: 0
SampleSet: Soft
StackLeniency: 0.7
Mode: 0
LetterboxInBreaks: 1
WidescreenStoryboard: 0

[Editor]
Bookmarks: 25015,180849
DistanceSpacing: 0.9
BeatDivisor: 2
GridSize: 8

[Metadata]
Title:Emerald Sword
TitleUnicode:Emerald Sword
Artist:Rhapsody of Fire
ArtistUnicode:Rhapsody of Fire
Creator:Pagno
Version:Normal
Source:
Tags:For the king
BeatmapID:268181
BeatmapSetID:100336

[Difficulty]
HPDrainRate:3
CircleSize:3
OverallDifficulty:2
ApproachRate:5
SliderMultiplier:1.2
SliderTickRate:1

[Events]
//Background and Video events
0,0,"url.jpg",0,0
//Break Periods
2,75682,85015
2,127864,129131
2,133198,134464
2,138531,139798
2,178530,179131
//Storyboard Layer 0 (Background)
//Storyboard Layer 1 (Fail)
//Storyboard Layer 2 (Pass)
//Storyboard Layer 3 (Foreground)
//Storyboard Sound Samples
//Background Colour Transformations
3,100,163,162,255

[TimingPoints]
665,333.333333333333,4,2,1,40,1,0
10997,-83.3333333333333,4,2,1,40,0,0
11331,-100,4,2,1,50,0,1
21997,-100,4,2,1,50,0,0
25331,-83.3333333333333,4,2,1,50,0,0
25997,-100,4,2,1,50,0,0
53664,-166.666666666667,4,2,1,60,0,0
65497,-100,4,2,1,50,0,0
96664,-166.666666666667,4,2,1,60,0,0
106831,-100,4,2,1,50,0,0
108331,-100,4,2,1,40,0,0
108497,-100,4,2,1,45,0,0
108997,-100,4,2,1,60,0,1
111664,-133.333333333333,4,2,1,60,0,1
113664,-100,4,2,1,60,0,1
118331,-133.333333333333,4,2,1,35,0,1
118997,-100,4,2,1,60,0,0
119664,-100,4,2,1,60,0,1
127664,-166.666666666667,4,2,1,50,0,0
140997,-133.333333333333,4,2,1,55,0,0
151664,-100,4,2,1,60,0,0
177664,-133.333333333333,4,2,1,60,0,0
180331,-100,4,2,1,50,0,0
201331,-166.666666666667,4,2,1,60,0,0
211497,-100,4,2,1,60,0,0
212997,-100,4,2,1,40,0,0
213164,-100,4,2,1,45,0,0
213664,-100,4,2,1,60,0,1
217164,-100,4,2,1,60,0,1
223081,-100,4,2,1,35,0,1
223664,-100,4,2,1,60,0,1
223997,-100,4,2,1,60,0,1
232331,-100,4,2,1,60,0,0
234997,-100,4,2,1,70,0,1
237664,-133.333333333333,4,2,1,70,0,1
238997,-100,4,2,1,70,0,1
244331,-100,4,2,1,40,0,1
244997,-100,4,2,1,55,0,1
245664,-100,4,2,1,70,0,1
254997,-100,4,2,1,60,0,0

[Colours]
Combo1 : 148,45,27
Combo2 : 172,40,40
Combo3 : 196,66,28

[HitObjects]
176,64,665,2,0,B|120:64|120:64|48:136,1,120,8|0,0:0|0:0,0:0:0:0:
64,208,1331,2,0,P|112:304|264:264,2,240,2|2|2,0:0|0:0|0:0,0:0:0:0:
323,46,3331,6,0,P|274:91|211:108,1,120,8|0,0:0|0:0,0:0:0:0:
160,46,3998,2,0,P|136:86|272:182,2,240,2|0|0,0:0|0:0|0:0,0:0:0:0:
225,109,5664,1,8,0:0:0:0:
325,111,5998,6,0,P|293:175|213:191,1,120,8|0,0:0|0:0,0:0:0:0:
163,180,6664,2,2,P|211:276|339:212,2,240
262,61,8664,6,0,P|302:125|283:190,1,120,8|0,0:0|0:0,0:0:0:0:
216,136,9331,2,0,P|85:120|80:236,2,240,2|0|0,0:0|0:0|0:0,0:0:0:0:
271,207,10998,1,0,0:0:0:0:
328,272,11331,6,2,P|422:130|296:24,2,240,12|8|8,0:0|0:0|0:0,0:0:0:0:
256,176,12998,1,2,0:0:0:0:
184,272,13331,2,10,P|89:130|216:24,1,240
256,40,14331,1,0,0:0:0:0:
288,176,14664,2,10,P|409:136|409:40,2,240,8|8|8,0:0|0:0|0:0,0:0:0:0:
279,62,16331,2,0,P|266:114|288:176,1,120,0|12,0:0|0:0,0:0:0:0:
368,264,16998,5,0,0:0:0:0:
256,264,17331,1,8,0:0:0:0:
152,264,17664,1,0,0:0:0:0:
136,160,17998,2,2,L|448:160,2,240,8|8|8,0:0|0:0|0:0,0:0:0:0:
128,56,19664,5,0,0:0:0:0:
256,56,19998,1,8,0:0:0:0:
384,56,20331,1,0,0:0:0:0:
320,144,20664,2,0,P|237:223|188:130,1,240,8|8,0:0|0:0,0:0:0:0:
256,56,21664,1,0,0:0:0:0:
360,56,21998,6,0,P|440:112|320:216,1,240,4|0,0:0|0:0,0:0:0:0:
62,225,23331,2,0,B|70:217|70:217|78:225|78:225|86:217|86:217|94:225|94:225|102:217|102:217|110:225|110:225|118:217|118:217|126:225|126:225|134:217|134:217|142:225|142:225|150:217|150:217|158:225|158:225|166:217|166:217|174:225|174:225|182:217|182:217|190:225|190:225|198:217|198:217|206:225|206:225|214:217|214:217|222:225|222:225|230:217|230:217|237:223|237:223|350:225,2,240,0|0|2,0:0|0:0|0:0,0:0:0:0:
80,120,24998,1,2,0:0:0:0:
208,120,25331,1,2,0:0:0:0:
448,224,25998,2,0,B|440:216|440:216|432:224|432:224|424:216|424:216|416:224|416:224|408:216|408:216|400:224|400:224|392:216|392:216|384:224|384:224|376:216|376:216|368:224|368:224|360:216|360:216|352:224|352:224|344:216|344:216|336:224|336:224|328:216|328:216|320:224|320:224|312:216|312:216|304:224|304:224|296:216|296:216|288:224|288:224|280:216|280:216|273:222|273:222|160:224,1,240,0|4,0:0|0:0,0:0:0:0:
178,152,26998,6,2,L|279:217,1,120
178,282,27664,2,2,L|279:217,1,120
424,144,28498,2,0,P|448:264|368:304,1,180
336,216,29331,1,0,0:0:0:0:
120,104,29998,6,0,B|112:112|112:112|120:120|120:120|112:128|112:128|120:136|120:136|112:144|112:144|120:152|120:152|112:160|112:160|120:168|120:168|112:176|112:176|120:184|120:184|112:192|112:192|120:200|120:200|112:208|112:208|120:216|120:216|112:224|112:224|120:232|120:232|112:240|112:240|120:248|120:248|112:256|112:256|120:264|120:264|112:272|112:272|118:279|118:279|120:392,1,240,2|4,0:0|0:0,0:0:0:0:
256,336,30998,1,0,0:0:0:0:
400,280,31331,2,0,B|408:272|408:272|400:264|400:264|408:256|408:256|400:248|400:248|408:240|408:240|400:232|400:232|408:224|408:224|400:216|400:216|408:208|408:208|400:200|400:200|408:192|408:192|400:184|400:184|408:176|408:176|400:168|400:168|408:160|408:160|400:152|400:152|408:144|408:144|400:136|400:136|408:128|408:128|400:120|400:120|408:112|408:112|402:105|402:105|400:-8,1,240,2|2,0:0|0:0,0:0:0:0:
256,192,32331,1,2,0:0:0:0:
136,88,32664,6,2,P|80:176|136:256,2,180
248,88,33998,2,2,P|304:176|248:256,2,180
184,176,35331,2,2,L|184:384,2,180
24,120,36664,2,0,P|184:56|376:160,1,360,4|0,0:0|0:0,0:0:0:0:
416,208,37998,6,2,P|336:224|240:152,2,180
416,320,39331,2,0,P|336:304|240:376,2,180,2|0|0,0:0|0:0|0:0,0:0:0:0:
416,208,40664,2,2,P|352:168|216:200,2,180
456,112,41998,2,0,P|352:48|192:48,1,240,2|4,0:0|0:0,0:0:0:0:
256,320,43331,5,2,0:0:0:0:
96,176,43998,2,2,P|184:96|344:104,1,240
256,236,45164,2,2,P|168:228|96:176,1,180
48,64,45998,2,2,P|115:66|224:160,2,180
48,176,47331,2,0,B|144:160|144:272|144:272|248:248|344:160,1,360,4|0,0:0|0:0,0:0:0:0:
400,104,48664,6,2,B|464:104|464:104|464:320,1,240
264,280,49998,2,2,B|200:280|200:280|200:64,1,240
40,56,51331,2,2,L|40:224,1,120
136,232,51998,2,2,L|136:56,1,120
256,192,52498,12,0,53498,0:0:0:0:
192,128,53998,6,4,P|256:96|328:176,2,143.999995605469,4|4|4,0:0|0:0|0:0,0:0:0:0:
256,240,55998,2,0,L|152:192,1,71.9999978027344
104,176,56664,2,0,P|72:240|152:312,2,143.999995605469,4|0|4,0:0|0:0|0:0,0:0:0:0:
256,56,58998,5,2,0:0:0:0:
197,143,59331,2,4,P|261:175|333:95,2,143.999995605469
256,328,61664,5,2,0:0:0:0:
315,241,61998,2,4,P|251:209|179:289,2,143.999995605469
256,88,64664,5,2,0:0:0:0:
72,200,65498,2,2,P|113:270|232:296,1,180
440,184,66831,2,2,P|398:113|280:88,1,180
256,192,67664,5,2,0:0:0:0:
192,296,67998,1,2,0:0:0:0:
128,192,68331,1,2,0:0:0:0:
192,88,68664,1,2,0:0:0:0:
425,186,69331,6,0,B|417:194|417:194|409:186|409:186|401:194|401:194|393:186|393:186|385:194|385:194|377:186|377:186|369:194|369:194|361:186|361:186|353:194|353:194|345:186|345:186|337:194|337:194|329:186|329:186|321:194|321:194|313:186|313:186|305:194|305:194|297:186|297:186|289:194|289:194|281:186|281:186|273:194|273:194|265:186|265:186|257:194|257:194|250:188|250:188|137:186,1,240,2|4,0:0|0:0,0:0:0:0:
208,96,70331,2,0,P|152:184|280:280,1,240
340,280,71331,2,0,B|416:184|416:64|240:37|208:96,1,360,4|0,0:0|0:0,0:0:0:0:
208,208,72664,6,0,L|120:320,1,120,4|0,0:0|0:0,0:0:0:0:
91,125,73331,2,0,L|208:96,1,120,4|0,0:0|0:0,0:0:0:0:
296,160,73998,1,4,0:0:0:0:
128,304,74664,2,0,B|120:296|120:296|128:288|128:288|120:280|120:280|128:272|128:272|120:264|120:264|128:256|128:256|120:248|120:248|128:240|128:240|120:232|120:232|128:224|128:224|124:216|124:216|128:152,1,120,0|4,0:0|0:0,0:0:0:0:
256,192,86331,5,10,0:0:0:0:
256,48,86998,2,2,P|176:80|128:216,2,210
440,48,88664,1,0,0:0:0:0:
440,136,88998,2,6,B|440:240|440:240|328:296,2,180
432,32,90331,2,2,B|344:80|344:80|344:184|344:184|176:272,1,360,6|2,0:0|0:0,0:0:0:0:
136,184,91664,6,2,P|105:263|226:353,1,240
136,184,92998,2,2,P|229:155|253:27,1,240
344,192,94331,5,0,0:0:0:0:
256,304,94664,1,0,0:0:0:0:
168,192,94998,1,0,0:0:0:0:
256,80,95331,1,0,0:0:0:0:
256,192,95498,12,0,96664,0:0:0:0:
312,200,96998,6,4,B|304:144|304:144|176:144,2,143.999995605469
104,264,98998,2,2,L|232:264,1,71.9999978027344
104,176,99664,2,4,B|112:120|112:120|240:120,2,143.999995605469,4|4|4,0:0|0:0|0:0,0:0:0:0:
416,128,101998,5,0,0:0:0:0:
320,48,102331,2,4,P|284:134|336:216,2,143.999995605469
96,128,104664,5,0,0:0:0:0:
192,48,104998,2,4,P|227:134|176:216,2,143.999995605469,4|0|4,0:0|0:0|0:0,0:0:0:0:
256,320,107664,5,4,0:0:0:0:
256,64,108331,2,2,L|256:224,1,120
136,208,108998,6,0,P|200:296|376:216,1,240,4|0,0:0|0:0,0:0:0:0:
368,216,109998,1,0,0:0:0:0:
400,136,110331,2,0,P|336:48|160:128,1,240,4|0,0:0|0:0,0:0:0:0:
144,112,111331,1,0,0:0:0:0:
80,192,111664,2,0,P|200:336|384:312,1,360.000013732911
256,160,113664,6,0,L|256:296,1,120
152,328,114331,2,0,L|152:64,1,240,4|0,0:0|0:0,0:0:0:0:
256,40,115331,1,0,0:0:0:0:
360,88,115664,2,0,L|360:328,1,240,4|0,0:0|0:0,0:0:0:0:
256,336,116664,1,0,0:0:0:0:
256,192,116831,12,2,118331,0:0:0:0:
120,224,118998,6,0,P|149:245|168:352,1,120
256,320,119664,2,0,L|256:80,1,240,4|0,0:0|0:0,0:0:0:0:
168,136,120664,1,0,0:0:0:0:
78,182,120998,2,0,P|134:270|256:320,1,240,4|0,0:0|0:0,0:0:0:0:
344,264,121998,1,0,0:0:0:0:
448,208,122331,6,0,P|312:152|248:200,1,240,4|0,0:0|0:0,0:0:0:0:
248,304,123331,1,0,0:0:0:0:
249,199,123664,2,0,P|113:143|49:191,1,240,4|0,0:0|0:0,0:0:0:0:
147,240,124664,1,0,0:0:0:0:
256,328,124998,2,0,B|328:336|376:280|384:224|384:224|440:184,1,240,4|0,0:0|0:0,0:0:0:0:
352,136,125998,1,0,0:0:0:0:
256,88,126331,2,4,L|256:328,2,240,4|2|4,0:0|0:0|0:0,0:0:0:0:
256,64,130331,5,8,0:0:0:0:
128,336,131664,1,8,0:0:0:0:
384,336,132998,1,8,0:0:0:0:
384,192,135664,5,8,0:0:0:0:
112,320,136998,1,8,0:0:0:0:
112,64,138331,1,8,0:0:0:0:
352,144,140998,6,0,P|344:256|272:312,1,180.000006866455,8|0,0:0|0:0,0:0:0:0:
256,192,141998,1,0,0:0:0:0:
212,83,142331,2,0,P|168:128|160:240,1,180.000006866455,8|0,0:0|0:0,0:0:0:0:
216,320,143331,1,0,0:0:0:0:
320,336,143664,6,0,P|373:275|376:128,1,180.000006866455,8|0,0:0|0:0,0:0:0:0:
384,72,144664,1,0,0:0:0:0:
274,72,144998,2,2,L|184:72,1,90.0000034332277
94,72,145664,2,2,L|184:72,1,90.0000034332277
184,180,146331,6,0,P|232:304|312:336,1,180.000006866455,8|0,0:0|0:0,0:0:0:0:
376,320,147331,1,0,0:0:0:0:
376,212,147664,2,0,P|328:88|248:56,1,180.000006866455,8|0,0:0|0:0,0:0:0:0:
184,72,148664,1,0,0:0:0:0:
80,72,148998,6,0,B|80:208|80:208|168:208,1,180.000006866455,8|0,0:0|0:0,0:0:0:0:
232,208,149998,1,0,0:0:0:0:
344,208,150331,2,2,L|344:64,1,90.0000034332277
448,72,150998,2,2,L|448:336,1,180.000006866455,2|4,0:0|0:0,0:0:0:0:
360,320,151998,5,0,0:0:0:0:
256,256,152331,2,0,L|256:128,1,120
152,104,152998,1,0,0:0:0:0:
152,216,153331,1,0,0:0:0:0:
152,320,153664,2,0,B|64:320|64:320|64:88,1,240,4|2,0:0|0:0,0:0:0:0:
64,56,154664,5,2,0:0:0:0:
168,56,154998,2,2,P|184:120|272:120,1,120
304,56,155664,2,2,B|304:96|304:96|328:128|304:224,1,120
416,208,156331,2,2,P|376:272|296:240,1,120
224,272,156998,6,0,P|120:248|128:56,1,240,4|2,0:0|0:0,0:0:0:0:
188,165,157998,1,2,0:0:0:0:
168,56,158331,2,2,P|272:80|264:272,1,240
314,316,159331,2,0,L|314:188,1,120,2|4,0:0|0:0,0:0:0:0:
206,196,159998,2,0,L|206:332,2,120,2|4|0,0:0|0:0|0:0,0:0:0:0:
256,192,160831,12,8,162331,0:0:0:0:
256,104,162664,6,8,P|208:136|176:216,1,120
179,298,163331,1,8,0:0:0:0:
286,298,163664,2,2,P|334:266|366:186,1,120
362,103,164331,2,0,B|312:64|312:64|264:96|264:96|216:64|216:64|152:120,1,240,4|0,0:0|0:0,0:0:0:0:
162,224,165331,6,0,L|170:104,1,120
256,192,165998,1,0,0:0:0:0:
350,160,166331,2,2,L|342:280,2,120
360,56,167331,1,0,0:0:0:0:
256,57,167664,6,0,P|144:89|88:192,1,240,4|0,0:0|0:0,0:0:0:0:
256,192,168664,1,0,0:0:0:0:
256,326,168998,2,0,P|144:294|88:192,1,240,0|4,0:0|0:0,0:0:0:0:
208,192,169998,2,0,L|88:192,1,120,0|4,0:0|0:0,0:0:0:0:
24,96,170664,2,0,L|168:96,1,120,0|4,0:0|0:0,0:0:0:0:
256,96,171331,1,0,0:0:0:0:
256,192,171498,12,2,172998,0:0:0:0:
384,320,173664,5,2,0:0:0:0:
128,64,174331,1,2,0:0:0:0:
264,305,174998,2,0,L|384:320,1,120
384,192,175664,5,2,0:0:0:0:
256,48,176331,1,2,0:0:0:0:
128,192,176998,1,2,0:0:0:0:
256,336,177664,6,0,B|248:328|248:328|256:320|256:320|248:312|248:312|256:304|256:304|248:296|248:296|256:288|256:288|248:280|248:280|256:272|256:272|248:264|248:264|256:256|256:256|248:248|248:248|256:240|256:240|248:232|248:232|256:224|256:224|248:216|248:216|256:208|256:208|256:160,1,180.000006866455,0|8,0:0|0:0,0:0:0:0:
256,120,180331,6,2,P|376:120|384:208,2,180,4|2|2,0:0|0:0|0:0,0:0:0:0:
256,264,181664,2,2,P|136:264|128:176,1,180
56,48,182998,6,2,B|56:192|56:192|136:192,2,180
168,48,184331,2,0,B|328:48|328:48|328:144,1,240
328,236,185331,1,0,0:0:0:0:
328,343,185664,6,2,B|240:343|240:343|240:199,2,180
448,336,186998,2,0,L|448:104,2,180
344,272,188331,2,0,L|192:133,2,180
366,166,189664,2,0,P|297:110|152:80,2,240,0|0|4,0:0|0:0|0:0,0:0:0:0:
152,80,191664,6,2,B|176:200|104:272|104:272|122:299,2,240
376,73,193664,2,2,B|352:193|416:209|416:209|416:232,2,180
251,107,194998,2,0,P|267:171|416:232,1,240
256,320,196331,6,2,B|136:320|136:320|136:168,1,240
376,200,197664,2,2,B|376:320|376:320|256:320,1,240
256,104,198998,6,2,L|256:272,1,120
208,312,199664,2,2,P|250:334|311:306,1,120
408,224,200331,2,0,P|333:97|216:144,1,240
300,206,201331,1,0,0:0:0:0:
256,296,201664,6,4,L|144:184,2,143.999995605469
328,192,203664,2,2,L|248:112,1,71.9999978027344
304,56,204331,6,4,L|416:168,2,143.999995605469,4|0|4,0:0|0:0|0:0,0:0:0:0:
104,192,206664,5,2,0:0:0:0:
192,192,206998,2,4,L|344:192,2,143.999995605469
256,56,209331,5,2,0:0:0:0:
152,56,209664,2,4,P|178:118|304:144,2,143.999995605469
80,304,212331,5,0,0:0:0:0:
296,304,212998,2,2,L|104:304,1,120
176,212,213664,2,4,P|187:200|296:304,1,240,4|0,0:0|0:0,0:0:0:0:
408,304,214664,1,0,0:0:0:0:
408,200,214998,6,0,P|328:112|208:80,1,240,4|0,0:0|0:0,0:0:0:0:
104,72,215998,1,0,0:0:0:0:
32,144,216331,2,4,B|184:328|296:48|464:256,1,480
256,312,218331,6,2,L|256:176,1,120
152,152,218998,2,0,P|272:72|360:144,1,240,4|0,0:0|0:0,0:0:0:0:
400,200,219998,1,0,0:0:0:0:
456,312,220331,6,0,P|344:320|280:192,1,240,4|0,0:0|0:0,0:0:0:0:
280,128,221331,1,0,0:0:0:0:
344,32,221664,2,0,P|401:130|163:149,1,480
256,136,223664,5,2,0:0:0:0:
256,240,223998,1,2,0:0:0:0:
161,293,224331,2,0,P|233:341|360:280,1,240,4|0,0:0|0:0,0:0:0:0:
400,176,225331,1,0,0:0:0:0:
335,84,225664,2,0,P|295:212|360:280,1,240,4|0,0:0|0:0,0:0:0:0:
256,320,226664,1,0,0:0:0:0:
152,280,226998,6,0,B|96:208|152:136|152:136|152:16,2,240,4|0|0,0:0|0:0|0:0,0:0:0:0:
384,216,228998,2,0,L|256:216,1,120
152,216,229664,2,0,B|144:112|240:88|272:104|392:112,2,240,4|0|2,0:0|0:0|0:0,0:0:0:0:
392,296,231664,1,2,0:0:0:0:
112,72,232331,1,6,0:0:0:0:
128,248,234331,6,2,L|248:248,1,120
376,240,234998,2,0,B|376:128|376:128|176:128,1,240,4|0,0:0|0:0,0:0:0:0:
256,248,235998,1,0,0:0:0:0:
120,240,236331,2,0,B|120:128|120:128|320:128,1,240,4|0,0:0|0:0,0:0:0:0:
256,32,237331,1,0,0:0:0:0:
384,144,237664,2,0,B|384:200|384:200|136:200|136:200|136:128,1,360.000013732911,4|4,0:0|0:0,0:0:0:0:
304,104,239664,6,0,B|304:144|304:144|384:144,1,120
408,248,240331,2,0,B|208:248|208:248|208:176,1,240,4|0,0:0|0:0,0:0:0:0:
208,96,241331,1,0,0:0:0:0:
104,96,241664,2,0,B|103:313|103:313|156:313,1,240,4|0,0:0|0:0,0:0:0:0:
232,312,242664,1,0,0:0:0:0:
336,312,242998,2,0,P|440:192|320:64,1,360,4|0,0:0|0:0,0:0:0:0:
320,192,244331,6,0,L|152:192,1,120
96,192,244998,1,2,0:0:0:0:
192,104,245331,1,2,0:0:0:0:
304,96,245664,6,0,P|384:112|368:272,1,240,4|0,0:0|0:0,0:0:0:0:
303,292,246664,1,0,0:0:0:0:
195,289,246998,2,0,P|259:121|304:96,1,240,4|0,0:0|0:0,0:0:0:0:
208,40,247998,1,0,0:0:0:0:
88,96,248331,6,0,P|132:121|196:289,1,240,4|0,0:0|0:0,0:0:0:0:
80,232,249331,1,0,0:0:0:0:
80,336,249664,1,4,0:0:0:0:
256,152,250331,6,2,L|256:304,1,120
352,216,250998,1,4,0:0:0:0:
258,38,251664,2,2,P|178:70|160:96,1,120
267,186,252331,2,4,P|203:218|160:96,1,240,4|2,0:0|0:0,0:0:0:0:
336,144,253664,1,4,0:0:0:0:
256,192,253831,12,8,254997,0:0:0:0:
