osu file format v5

[General]
AudioFilename: Rhapsody - Emerald Sword.mp3
AudioLeadIn: 0
PreviewTime: -1
Countdown: 1
SampleSet: Normal
StackLeniency: 0.2
Mode: 0
LetterboxInBreaks: 1
EditorBookmarks: 53798,64797,130464,141131,201464,213131

[Metadata]
Title:Emerald Sword
Artist:Rhapsody
Creator:Reikin
Version:Light
Source:
Tags:

[Difficulty]
HPDrainRate:1
CircleSize:5
OverallDifficulty:6
SliderMultiplier:1.275
SliderTickRate:2

[Events]
//Background and Video events
0,0,"emeraldsword-bg.png"
//Break Periods
2,52997,63597
2,129331,139931
2,200664,211931
//Storyboard Layer 0 (Background)
//Storyboard Layer 1 (Failing)
//Storyboard Layer 2 (Passing)
//Storyboard Layer 3 (Foreground)
//Storyboard Sound Samples
//Background Colour Transformations
3,100,163,162,255

[TimingPoints]
812,333.333333333333,4,1,0,80,1,0

[HitObjects]
192,96,11478,6,0,B|352:96,3,127.5
320,160,12812,2,0,B|160:160,3,127.5
192,224,14145,6,0,B|352:224,3,127.5
320,288,15478,2,0,B|160:288,3,127.5
160,256,16812,6,0,B|160:96,3,127.5
224,128,18145,2,0,B|224:288,3,127.5
288,256,19478,6,0,B|288:96,3,127.5
352,128,20811,2,0,B|352:288,3,127.5
288,256,22145,6,0,B|224:320,4,63.75
224,128,23478,6,0,B|160:64,4,63.75
288,128,24478,1,0
256,64,24811,6,0,B|261:32|256:0,4,63.75
256,192,26145,6,0,B|320:256,4,63.75
224,128,27145,1,0
288,128,27478,6,0,B|224:64,4,63.75
224,256,28811,6,0,B|160:320,4,63.75
288,256,29811,1,0
256,320,30145,6,0,B|261:352|256:384,4,63.75
256,192,31478,6,0,B|320:128,4,63.75,0|0|0|0|2
256,256,32478,1,2
256,256,32811,6,0,L|64:256|64:64,1,382.5
64,0,34145,2,0,L|256:0|256:192,1,382.5
160,192,35478,2,0,L|192:316|320:316|352:192,1,382.5
256,192,36811,2,2,L|256:64,3,127.5
192,64,38145,6,0,L|128:64|128:128|192:128|192:192|128:192|128:256,1,382.5
128,320,39478,2,0,L|128:384|192:384|192:320|256:320|256:384|320:384,1,382.5
384,384,40812,2,0,L|384:0,1,382.5
320,0,42145,1,4
192,0,42811,6,6,L|416:160,1,255
256,224,44145,6,0,L|32:384,2,255
256,288,45812,5,0
320,288,46145,2,0,L|256:107|192:288,1,382.5
192,352,47478,2,2,L|320:352,3,127.5
352,288,48812,6,0,L|320:160,1,127.5
320,96,49478,2,0,L|192:96,1,127.5
192,160,50145,6,0,L|160:288,1,127.5
192,352,50812,2,0,L|320:352,1,127.5
288,288,51478,6,2,L|256:164|224:288,2,255
256,192,64812,5,4
352,96,65645,2,4,B|128:96,1,191.25
192,288,67145,2,4,B|352:288,5,127.5
384,160,69478,2,4,B|256:128,1,127.5
256,192,70145,5,4
160,288,70978,2,4,B|384:288,1,191.25
320,96,72478,2,4,B|160:96,5,127.5
128,224,74812,2,4,B|256:256,1,127.5
256,128,75812,6,0,L|448:128|448:320,1,382.5
448,384,77145,2,0,L|256:384|256:192,1,382.5
352,192,78478,2,0,L|320:68|192:68|160:192,1,382.5
256,192,79811,2,2,L|256:320,3,127.5
320,320,81145,6,0,L|384:320|384:256|320:256|320:192|384:192|384:128,1,382.5
384,64,82478,2,0,L|384:0|320:0|320:64|256:64|256:0|192:0,1,382.5
128,0,83811,2,0,L|128:384,1,382.5
192,384,85145,1,4
320,384,85811,6,6,L|96:224,1,255
256,160,87145,6,0,L|480:0,2,255
256,96,88811,5,0
192,96,89145,2,0,L|256:277|320:96,1,382.5
320,32,90478,2,2,L|192:32,3,127.5
160,96,91811,6,0,L|192:224,1,127.5
192,288,92478,2,0,L|320:288,1,127.5
320,224,93145,6,0,L|352:96,1,127.5
320,32,93811,2,0,L|192:32,1,127.5
224,96,94478,6,2,L|256:220|288:96,2,255
256,192,97145,12,4,98478
256,192,99811,12,4,101145
256,192,102478,12,4,103811
256,192,105145,12,4,106478
320,192,108478,5,0
320,192,108811,1,0
320,192,109145,2,0,B|416:36|512:192,1,255
512,192,110145,1,0
512,192,110478,2,0,B|416:348|320:192,1,255
256,192,111478,1,0
256,192,111811,2,0,L|192:81|128:192|64:81|0:192,1,510
64,320,113811,5,0
128,320,114145,1,0
192,320,114478,1,0
256,192,115145,1,0
192,64,115811,2,0,B|128:-32|64:64|64:64|192:192|192:192|128:295|64:192,1,510
384,256,119145,5,0
384,192,119478,1,0
384,128,119811,2,0,L|128:128,1,255
128,192,120811,5,0
128,192,121145,2,0,L|384:192,1,255
384,256,122145,5,0
384,256,122478,2,0,L|128:256,1,255
128,192,123478,5,0
128,192,123811,2,0,L|256:160,1,127.5,0|0
256,96,124478,5,0
256,32,124811,1,0
192,32,125145,2,0,L|144:32|145:192|192:192,1,255
256,192,126145,1,0
320,192,126478,2,2,L|367:192|368:352|320:352,2,255
256,192,127978,12,4,129145
320,96,141145,6,0,B|160:96,3,127.5
192,160,142478,2,0,B|352:160,3,127.5
320,224,143811,6,0,B|160:224,3,127.5
192,288,145145,2,0,B|352:288,3,127.5,0|0|0|2
352,224,146478,6,0,B|352:64,3,127.5
288,96,147811,2,0,B|288:256,3,127.5
224,224,149145,6,0,B|224:64,3,127.5
160,96,150478,2,0,B|160:256,3,127.5,0|0|0|0
96,224,151811,6,0,L|96:96,2,127.5,4|0|0
0,320,153145,2,0,L|128:384|256:320|384:384|512:320,1,510
480,288,154811,1,0
480,224,155145,1,0
448,160,155478,1,0
384,160,155811,6,2,L|294:251,3,127.5
224,256,157145,6,0,L|96:256,3,127.5
32,256,158478,2,0,L|32:1,1,255
96,0,159478,1,0
160,0,159812,6,0,L|415:0,2,255,0|0|2
416,224,162478,6,0,L|416:96,2,127.5
512,320,163812,2,0,L|384:384|256:320|128:384|0:320,1,510
32,288,165478,1,0
32,224,165812,1,0
64,160,166145,1,0
127,160,166478,6,2,L|218:251,3,127.5
288,256,167812,6,0,L|416:256,3,127.5
480,256,169145,2,0,L|480:1,1,255
416,0,170145,1,0
352,0,170478,6,0,L|97:0,2,255,0|0|2
256,192,173145,5,4
192,64,173812,1,4
320,64,174478,1,4
256,192,175145,1,4
256,192,175812,5,4
320,320,176478,1,4
192,320,177145,1,4
256,192,177812,1,4
256,192,178478,1,4
256,256,180478,6,0,L|448:256|448:64,1,382.5
448,0,181812,2,0,L|256:0|256:192,1,382.5
352,192,183145,2,0,L|320:316|192:316|160:192,1,382.5
256,192,184478,2,2,L|256:64,3,127.5
320,64,185812,6,0,L|384:64|384:128|320:128|320:192|384:192|384:256,1,382.5
384,320,187145,2,0,L|384:384|320:384|320:320|256:320|256:384|192:384,1,382.5
128,384,188478,2,0,L|128:0,1,382.5
192,0,189812,1,4
320,0,190478,6,6,L|96:160,1,255
256,224,191812,6,0,L|480:384,2,255
256,288,193478,5,0
192,288,193812,2,0,L|256:107|320:288,1,382.5
320,352,195145,2,2,L|192:352,3,127.5
160,288,196478,6,0,L|192:160,1,127.5
192,96,197145,2,0,L|320:96,1,127.5
320,160,197812,6,0,L|352:288,1,127.5
320,352,198478,2,0,L|192:352,1,127.5
224,288,199145,6,2,L|256:164|288:288,2,255
192,192,213145,5,0
192,192,213478,1,0
192,192,213812,2,0,B|96:36|0:192,1,255
0,192,214812,1,0
0,192,215145,2,0,B|96:348|192:192,1,255
256,192,216145,1,0
256,192,216478,2,0,L|320:81|384:192|448:81|512:192,1,510
448,320,218478,5,0
384,320,218812,1,0
320,320,219145,1,0
256,192,219812,1,0
320,64,220478,2,0,B|384:-32|448:64|448:64|320:192|320:192|384:295|448:192,1,510
128,256,223812,5,0
128,192,224145,1,0
128,128,224478,2,0,L|384:128,1,255
384,192,225478,1,0
384,192,225812,2,0,L|128:192,1,255
128,256,226812,1,0
128,256,227145,2,0,L|384:256,1,255
384,192,228145,1,0
384,192,228478,2,0,L|256:160,1,127.5
256,96,229145,5,0
256,32,229478,1,0
320,32,229812,2,0,L|368:32|367:192|320:192,1,255
256,192,230812,1,0
192,192,231145,2,0,L|145:192|144:352|192:352,2,255
256,192,232645,12,4,233811
