osu file format v5

[General]
AudioFilename: Rhapsody - Emerald Sword.mp3
AudioLeadIn: 0
PreviewTime: -1
Countdown: 1
SampleSet: Normal
StackLeniency: 0.2
Mode: 0
LetterboxInBreaks: 1
EditorBookmarks: 53798,64797,130464,141131,201464,213131

[Metadata]
Title:Emerald Sword
Artist:Rhapsody
Creator:Reikin
Version:Intense
Source:
Tags:

[Difficulty]
HPDrainRate:3
CircleSize:5
OverallDifficulty:8
SliderMultiplier:2.55
SliderTickRate:2

[Events]
//Background and Video events
0,0,"emeraldsword-bg.png"
//Break Periods
2,52997,63747
2,129331,140081
2,200664,212081
//Storyboard Layer 0 (Background)
//Storyboard Layer 1 (Failing)
//Storyboard Layer 2 (Passing)
//Storyboard Layer 3 (Foreground)
//Storyboard Sound Samples
//Background Colour Transformations
3,100,163,162,255

[TimingPoints]
812,333.333333333333,4,1,0,80,1,0

[HitObjects]
96,96,11478,6,0,B|256:96,3,127.5
288,96,12145,2,0,B|448:96,3,127.5
416,160,12812,2,0,B|256:160,3,127.5
224,160,13478,2,0,B|64:160,3,127.5
96,224,14145,6,0,B|256:224,3,127.5
288,224,14812,2,0,B|448:224,3,127.5
416,288,15478,2,0,B|256:288,3,127.5
224,288,16145,2,0,B|64:288,1,127.5
96,288,16478,1,0
160,352,16812,6,0,B|160:192,3,127.5
160,160,17478,2,0,B|160:0,3,127.5
224,32,18145,2,0,B|224:192,3,127.5
224,224,18812,2,0,B|224:384,3,127.5
288,352,19478,6,0,B|288:192,3,127.5
288,160,20145,2,0,B|288:0,3,127.5
352,32,20811,2,0,B|352:192,3,127.5
352,224,21478,2,0,B|352:384,1,127.5
352,352,21811,1,0
448,32,22145,6,0,B|384:96,4,63.75
352,128,22645,2,0,L|224:256,3,127.5
448,352,23478,6,0,B|384:288,4,63.75
352,256,24145,1,0
256,352,24478,1,0
256,224,24811,6,0,B|261:192|256:160,4,63.75
192,96,25311,2,0,L|320:96,3,127.5
128,32,26145,6,0,B|192:96,3,63.75
96,96,26478,2,0,B|160:160,3,63.75
64,160,26811,1,4
192,352,27145,1,0
128,352,27311,1,0
64,352,27478,6,0,B|128:288,4,63.75
160,256,27978,2,0,L|288:128,3,127.5
64,32,28811,6,0,B|128:96,4,63.75
160,128,29478,1,0
256,32,29811,1,0
256,160,30145,6,0,B|251:192|256:224,4,63.75
320,288,30645,2,0,L|192:288,4,127.5
384,352,31478,6,0,B|320:288,3,63.75
416,288,31811,2,0,B|352:224,3,63.75
448,224,32145,1,2
336,192,32478,1,2
256,256,32811,6,0,L|64:256|64:64,2,382.5
256,128,34145,2,0,L|448:128|448:320,2,382.5
160,192,35478,2,0,L|192:316|320:316|352:192,2,382.5
256,192,36811,2,0,L|256:64,7,127.5,2|0|2|0|2|0|2|0
192,64,38145,6,0,L|128:64|128:128|192:128|192:192|128:192|128:256,2,382.5
320,64,39478,2,0,L|384:64|384:128|320:128|320:192|384:192|384:256,2,382.5
256,0,40812,2,0,L|256:384,2,382.5
256,0,42145,1,4
96,64,42812,6,2,L|448:288,1,382.5
418,269,43478,1,2
416,32,44145,6,0,L|64:256,1,382.5
96,160,44812,2,0,L|448:384,1,382.5
256,288,45812,5,0
320,192,46145,2,0,L|256:11|192:192,2,382.5
320,320,47478,2,0,L|192:320,7,127.5,2|0|2|0|2|0|2|0
192,256,48812,6,0,L|256:75|320:256,1,382.5
384,320,49478,2,0,L|128:320,1,255
320,128,50145,6,0,L|256:309|192:128,1,382.5
128,64,50812,2,0,L|384:64,1,255
288,128,51478,6,2,L|256:252|224:128,4,255
256,192,64812,5,4
320,96,65645,2,4,B|160:96,3,127.5
192,288,66978,2,4,B|352:288,11,127.5
320,224,69478,2,4,B|320:128,4,63.75
256,192,70145,5,4
192,288,70978,2,4,B|352:288,3,127.5
320,96,72312,2,4,B|160:96,11,127.5
192,160,74812,2,4,B|192:256,4,63.75
256,128,75812,6,0,L|448:128|448:320,2,382.5
256,256,77145,2,0,L|64:256|64:64,2,382.5
352,192,78478,2,0,L|320:68|192:68|160:192,2,382.5
256,192,79811,2,0,L|256:320,7,127.5,2|0|2|0|2|0|2|0
320,320,81145,6,0,L|384:320|384:256|320:256|320:192|384:192|384:128,2,382.5
192,320,82478,2,0,L|128:320|128:256|192:256|192:192|128:192|128:128,2,382.5
256,384,83811,2,0,L|256:0,2,382.5
256,384,85145,1,4
416,320,85811,6,2,L|64:96,1,382.5
94,115,86478,1,2
96,352,87145,6,0,L|448:128,1,382.5
416,224,87811,2,0,L|64:0,1,382.5
256,96,88811,5,0
192,192,89145,2,0,L|256:373|320:192,2,382.5
192,64,90478,2,0,L|320:64,7,127.5,2|0|2|0|2|0|2|0
320,128,91811,6,0,L|256:309|192:128,1,382.5
128,64,92478,2,0,L|384:64,1,255
192,256,93145,6,0,L|256:75|320:256,1,382.5
384,320,93811,2,0,L|128:320,1,255
224,256,94478,6,2,L|256:132|288:256,4,255
256,192,96811,5,4
256,192,96978,1,4
256,192,97145,1,4
256,192,97311,12,4,98478
256,192,98645,12,4,99811
256,192,99978,12,4,101145
256,192,102145,5,4
256,192,102478,1,4
256,192,102645,12,4,103811
256,192,103978,12,4,105145
256,192,105311,12,4,106478
256,192,106645,12,4,107811
256,192,108478,5,0
256,192,108811,1,0
256,192,109145,2,0,B|100:96|256:0,2,255
256,192,110145,1,0
256,192,110478,2,0,B|412:288|256:384,2,255
256,192,111478,1,0
256,192,111811,2,0,L|192:81|128:192|64:81|0:192,2,510
256,192,113811,5,0
256,192,114145,1,0
256,192,114478,2,0,B|320:256|320:256|256:352|192:256,2,255
256,192,115478,1,0
256,192,115811,2,0,B|192:128|192:128|256:32|320:128,2,255
256,192,116811,1,0
256,192,117145,1,0
256,192,117311,12,4,118478
256,192,119145,5,0
384,128,119478,1,0
512,64,119811,2,0,L|0:64,1,510
0,192,120811,1,0
0,192,121145,2,0,L|512:192,1,510
512,320,122145,1,0
512,320,122478,2,0,L|0:320,1,510
2,320,123478,1,0
0,320,123811,2,0,L|256:192,1,255
256,96,124478,5,0
256,32,124811,1,0
192,32,125145,2,0,L|17:32|17:192|192:192,1,510
256,192,126145,1,0
320,192,126478,2,0,L|495:192|495:352|320:352,2,510
256,192,127978,12,4,129145
416,96,141145,6,0,B|256:96,3,127.5
224,96,141811,2,0,B|64:96,3,127.5
96,160,142478,2,0,B|256:160,3,127.5
288,160,143145,2,0,B|448:160,3,127.5
416,224,143811,6,0,B|256:224,3,127.5
224,224,144478,2,0,B|64:224,3,127.5
96,288,145145,2,0,B|256:288,3,127.5
288,288,145811,2,0,B|448:288,1,127.5
416,288,146145,1,0
352,352,146478,6,0,B|352:192,3,127.5
352,160,147145,2,0,B|352:0,3,127.5
288,32,147811,2,0,B|288:192,3,127.5
288,224,148478,2,0,B|288:384,3,127.5
224,352,149145,6,0,B|224:192,3,127.5
224,160,149811,2,0,B|224:0,3,127.5
160,32,150478,2,0,B|160:192,3,127.5
160,224,151145,2,0,L|160:352,3,127.5
224,352,151811,6,0,L|224:224,3,127.5
288,288,152478,2,0,L|288:160|288:32,1,255
384,176,153145,6,0,L|512:112,3,127.5
512,192,153811,2,0,L|384:256|256:192|128:256|0:192,1,510
0,192,154645,6,0,L|96:96,3,127.5
192,192,155478,1,0
352,192,155811,6,0,L|448:96,7,127.5
448,32,157145,6,0,L|320:32,3,127.5
256,32,157812,2,0,L|256:288,1,255
352,224,158478,6,0,L|448:128,3,127.5
512,128,159145,2,0,L|512:384,1,255
448,352,159645,1,0
384,352,159812,6,0,L|128:352,1,255
128,288,160312,2,0,L|128:160,4,127.5
256,192,161145,12,2,162145
288,352,162478,6,0,L|288:224,3,127.5
224,288,163145,2,0,L|224:160|224:32,1,255
128,176,163812,6,0,L|0:112,3,127.5
0,192,164478,2,0,L|128:256|256:192|384:256|512:192,1,510
512,192,165312,6,0,L|416:96,3,127.5
320,192,166145,1,0
160,192,166478,6,0,L|64:96,7,127.5
64,32,167812,6,0,L|192:32,3,127.5
256,32,168478,2,0,L|256:288,1,255
160,224,169145,6,0,L|64:128,3,127.5
0,128,169812,2,0,L|0:384,1,255
64,352,170312,1,0
128,352,170478,6,0,L|384:352,1,255
384,288,170978,2,0,L|384:160,4,127.5
256,192,171812,12,2,172812
256,192,173145,5,4
160,64,173478,5,0
224,64,173645,1,0
192,128,173812,1,4
192,256,174145,5,0
224,320,174312,1,0
288,320,174478,1,4
320,256,174645,1,0
256,256,174812,5,0
256,192,174978,1,0
256,192,175145,1,4
256,192,175478,1,0
256,192,175812,5,4
352,64,176145,5,0
288,64,176312,1,0
320,128,176478,1,4
320,256,176812,5,0
288,320,176978,1,0
224,320,177145,1,4
192,256,177312,1,0
256,256,177478,5,0
256,192,177645,1,0
256,192,177812,1,4
256,192,178478,1,4
256,256,180478,6,0,L|448:256|448:64,2,382.5
256,128,181812,2,0,L|64:128|64:320,2,382.5
352,192,183145,2,0,L|320:316|192:316|160:192,2,382.5
256,192,184478,2,0,L|256:64,7,127.5,2|0|2|0|2|0|2|0
320,64,185812,6,0,L|384:64|384:128|320:128|320:192|384:192|384:256,2,382.5
192,64,187145,2,0,L|128:64|128:128|192:128|192:192|128:192|128:256,2,382.5
256,0,188478,2,0,L|256:384,2,382.5
256,0,189812,1,4
416,64,190478,6,2,L|64:288,1,382.5
94,269,191145,1,2
96,32,191812,6,0,L|448:256,1,382.5
416,160,192478,2,0,L|64:384,1,382.5
256,288,193478,5,0
192,192,193812,2,0,L|256:11|320:192,2,382.5
192,320,195145,2,0,L|320:320,7,127.5,2|0|2|0|2|0|2|0
320,256,196478,6,0,L|256:75|192:256,1,382.5
128,320,197145,2,0,L|384:320,1,255
192,128,197812,6,0,L|256:309|320:128,1,382.5
384,64,198478,2,0,L|128:64,1,255
224,128,199145,6,2,L|256:252|288:128,4,255
256,192,213145,5,0
256,192,213478,1,0
256,192,213812,2,0,B|412:96|256:0,2,255
256,192,214812,1,0
256,192,215145,2,0,B|100:288|256:384,2,255
256,192,216145,1,0
256,192,216478,2,0,L|320:81|384:192|448:81|512:192,2,510
256,192,218478,5,0
256,192,218812,1,0
256,192,219145,2,0,B|192:256|192:256|256:352|320:256,2,255
256,192,220145,1,0
256,192,220478,2,0,B|320:128|320:128|256:32|192:128,2,255
256,192,221478,1,0
256,192,221812,1,0
256,192,221978,12,4,223145
256,192,223812,5,0
128,128,224145,1,0
0,64,224478,2,0,L|512:64,1,510
512,192,225478,1,0
512,192,225812,2,0,L|0:192,1,510
0,320,226812,1,0
0,320,227145,2,0,L|512:320,1,510
510,320,228145,1,0
512,320,228478,2,0,L|256:192,1,255
256,96,229145,5,0
256,32,229478,1,0
320,32,229812,2,0,L|495:32|495:192|320:192,1,510
256,192,230812,1,0
192,192,231145,2,0,L|17:192|17:352|192:352,2,510
256,192,232645,12,4,233811
